Скачать через торрент Мотоклуб!! Bakuon!! бесплатно Аниме Все серии на русском torrent

Если у вас наблюдаются проблемы со скриншотами, переходом по ссылками, скачиванием торрентов - проблемы в блокировщике рекламы AdBlock. #хорошегоДня!


Статистика раздачи
Размер:  2 GB   |    Зарегистрирован:  1 год 7 месяцев   |    .torrent скачан:  39 раз   |   
Раздают:  1  
   
Загрузка...
 
Автор Сообщение

Galfimbul

avatar Galfimbul



Мотоклуб!! / Bakuon!! / ばくおん!!
Год выпуска: 2016 г.
Страна: Япония
Жанр: Комедия, Повседневность, Школа
Тип: TV
Продолжительность: 12 эп. по 23 мин.
Режиссер: Нисимура Дзюндзи
Студия: TMS
Перевод:
<ol class="post-ul">
Русские субтитры от Elven_tankman
</ol>
Описание:
Однажды по пути в школу Ханэ Сакура — немного болванистая старшеклассница — решает сократить себе путь, да подняться в гору с велосипедом. С трудом преодолевая ненавистные метры дороги и проклиная свою идею, Ханэ вдруг замечает, как мимо нее с легкостью и грацией проезжает девушка на мотоцикле. Любовь с первого взгляда — не иначе... К мотоциклу, конечно. С этих пор девушка полностью погружается в мир ревущих двигателей и решает немедленно вступить в мотоциклетный клуб своей школы, куда, помимо нее, вступает и та самая девушка на мотоцикле — Онса Амано — которая оказывается ее одноклассницей. Теперь цель, к которой стремительно направляется Ханэ — это получить
Информационные ссылки: World Art || AniDB || MAL
Качество: HDTVRip | Рип: [Leopard-Raws]
Тип релиза: Без хардсаба
Формат видео: MP4
Наличие линковки: Нет
Видео: AVC, 1280x720, 1981 kbps, 23.976 fps [8 bit]
Аудио:
1. Japanese AAC, 48.0 KHz, 192 kbps, 2 ch;
Субтитры:
<ol class="post-ul">
Russian: ASS, внешние;
</ol>
General Format : MPEG-4 Format profile : Base Media Codec ID : isom File size : 374 MiB Duration : 23mn 59s Overall bit rate mode : Variable Overall bit rate : 2 176 Kbps Encoded date : UTC 2016-04-05 06:19:35 Tagged date : UTC 2016-04-05 06:19:35 Video #1 ID : 1 Format : AVC Format/Info : Advanced Video Codec Format profile : High@L4.1 Format settings, CABAC : Yes Format settings, ReFrames : 4 frames Codec ID : avc1 Codec ID/Info : Advanced Video Coding Duration : 23mn 59s Bit rate : 1 981 Kbps Maximum bit rate : 13.1 Mbps Width : 1 280 pixels Height : 720 pixels Display aspect ratio : 16:9 Frame rate mode : Constant Frame rate : 23.976 fps Color space : YUV Chroma subsampling : 4:2:0 Bit depth : 8 bits Scan type : Progressive Bits/(Pixel*Frame) : 0.090 Stream size : 340 MiB (91%) Title : 264:fps=23.976@GPAC0.5.1-DEV-rev4929 Writing library : x264 core 129 r2245+729M 1a52e03 Encoding settings : cabac=1 / ref=4 / deblock=1:1:-1 / analyse=0x3:0x113 / me=umh / subme=9 / psy=1 / fade_compensate=0.00 / psy_rd=1.00:0.00 / mixed_ref=1 / me_range=24 / chroma_me=1 / trellis=2 / 8x8dct=1 / cqm=0 / deadzone=21,11 / fast_pskip=1 / chroma_qp_offset=-2 / threads=8 / lookahead_threads=1 / sliced_threads=0 / nr=0 / decimate=1 / interlaced=0 / bluray_compat=0 / constrained_intra=0 / fgo=0 / bframes=9 / b_pyramid=2 / b_adapt=2 / b_bias=0 / direct=1 / weightb=1 / open_gop=0 / weightp=2 / keyint=240 / keyint_min=24 / scenecut=40 / intra_refresh=0 / rc=crf / mbtree=0 / crf=17.5 / qcomp=0.72 / qpmin=0 / qpmax=69 / qpstep=4 / ip_ratio=1.40 / pb_ratio=1.30 / aq=1:0.85 Encoded date : UTC 2016-04-05 06:19:35 Tagged date : UTC 2016-04-05 06:19:37 Color primaries : BT.709 Transfer characteristics : BT.709 Matrix coefficients : BT.709 Audio #2 ID : 2 Format : AAC Format/Info : Advanced Audio Codec Format profile : LC Codec ID : 40 Duration : 23mn 59s Bit rate mode : Variable Bit rate : 192 Kbps Maximum bit rate : 241 Kbps Channel(s) : 2 channels Channel positions : Front: L R Sampling rate : 48.0 KHz Compression mode : Lossy Stream size : 32.9 MiB (9%) Language : Japanese Encoded date : UTC 2016-04-04 15:50:10 Tagged date : UTC 2016-04-05 06:19:37

01. Вступление в клуб!! / Club Registration!!
02. Школа!! / School!!
03. Дебют!! / Debut!!
04. Горячие источники!! / Hot Springs!!
05. Поездка!! / Touring!!



Добавлена Вторая серия [21.04.2016]

Добавлена Третья серия [26.04.2016]

Добавлена Четвертая серия [03.05.2016]



Раздача обновлена. Добавлена Пятая серия [10.05.2016]



Трекер:  [ 10-Май-2016 06:30 ]

  

Скачать .torrent

Размер .torrent файла 11 KB


Размер: 2 GB
Хэш (hash) релиза: c42dfdfe51453a9420c5d1517755171a75e288b6
Подписка на обновления:

Торренты, похожие на Мотоклуб!! Bakuon!! скачать торрент

Форум Название Автор Размер S L Добавлен
Аниме | HD Rips ·· Мотоклуб / Bakuon!! (Нисимура Дзюндзи) [TV+Special] [12+4 из 12+4] [Без хардсаба] [JAP+SUB] [2016, комедия, повседневность, BDRip] [1080p] Galfimbul 1740543415416.21 GB 0 0 1485207213

00:33

24-Янв-17

Аниме | Rips ·· Мотоклуб!! / Bakuon!! [TV] [01-02 из 12] [Без хардсаба] [RUS(int), JAP, SUB] [2016 г., комедия, повседневность, школа, HDTVRip] [720p] Galfimbul 850072595811 MB 0 0 1474064102

01:15

17-Сен-16

Аниме | HD Rips ·· Мотоклуб / Bakuon!! (Нисимура Дзюндзи) [TV] [6 из 12] [Без хардсаба] [JAP+SUB] [2016 г., комедия, повседневность, BDRip] [1080p] Galfimbul 85073150737.92 GB 0 0 1474038627

18:10

16-Сен-16

Аниме | HD Rips ·· Мотоклуб / Bakuon!! (Нисимура Дзюндзи) [TV] [2 из 12] [Без хардсаба] [JAP+SUB] [2016 г., комедия, повседневность, BDRip] [1080p] Galfimbul 36933981653.44 GB 0 0 1470841040

17:57

10-Авг-16

Аниме | Rips ·· Мотоклуб / Bakuon!! (Нисимура Дзюндзи) [OVA] [1 из 2] [Без хардсаба] [JAP+SUB] [2016 г., комедия, повседневность, DVDRip] Galfimbul 717875662685 MB 0 0 1470841015

17:56

10-Авг-16

Аниме | Rips ·· Мотоклуб!! / Bakuon!! [OVA] [1 из 1] [Без хардсаба] [JAP, SUB] [2016 г., Комедия, Повседневность, Школа, DVDRip] Galfimbul 544317406519 MB 0 0 1467775824

06:30

6-Июл-16

Аниме | HD Rips ·· Мотоклуб!! / Bakuon!! [TV] [12 из 12] [Без хардсаба] [JAP, SUB] [2016 г., Комедия, Повседневность, Школа, HDTVRip] [720p] Galfimbul 56040604955.22 GB 0 0 1467065291

01:08

28-Июн-16

Аниме | HD Rips ·· Мотоклуб!! / Bakuon!! [TV] [01-11 из 12] [Без хардсаба] [JAP, SUB] [2016 г., Комедия, Повседневность, Школа, HDTVRip] [720p] Galfimbul 50889021734.74 GB 0 0 1466544973

00:36

22-Июн-16

Аниме | HD Rips ·· Мотоклуб!! / Bakuon!! [TV] [01-10 из 12] [Без хардсаба] [JAP, SUB] [2016 г., Комедия, Повседневность, Школа, HDTVRip] [720p] Galfimbul 46138393094.3 GB 0 0 1465875646

06:40

14-Июн-16

Аниме | HD Rips ·· Мотоклуб!! / Bakuon!! [TV] [01-09 из 12] [Без хардсаба] [JAP, SUB] [2016 г., Комедия, Повседневность, Школа, HDTVRip] [720p] Galfimbul 41681563703.88 GB 0 0 1465248569

00:29

7-Июн-16

Аниме | HD Rips ·· Мотоклуб!! / Bakuon!! [TV] [01-08 из 12] [Без хардсаба] [JAP, SUB] [2016 г., Комедия, Повседневность, Школа, HDTVRip] [720p] Galfimbul 36743844623.42 GB 0 0 1464751864

06:31

1-Июн-16

Аниме | HD Rips ·· Мотоклуб!! / Bakuon!! [TV] [01-07 из 12] [Без хардсаба] [JAP, SUB] [2016 г., Комедия, Повседневность, Школа, HDTVRip] [720p] Galfimbul 31486935532.93 GB 0 0 1464126270

00:44

25-Май-16

Аниме | Rips ·· Мотоклуб!! / Bakuon!! [TV] [01 из 12] [Без хардсаба] [RUS(int), JAP, SUB] [2016 г., комедия, повседневность, школа, HDTVRip] [720p] Galfimbul 431787912412 MB 0 0 1463478920

12:55

17-Май-16

Аниме | HD Rips ·· Мотоклуб!! / Bakuon!! [TV] [01-06 из 12] [Без хардсаба] [JAP, SUB] [2016 г., Комедия, Повседневность, Школа, HDTVRip] [720p] Galfimbul 25917314792.41 GB 0 0 1463434949

00:42

17-Май-16

Аниме | HD Rips ·· Мотоклуб!! / Bakuon!! [TV] [01-04 из 12] [Без хардсаба] [JAP, SUB] [2016 г., Комедия, Повседневность, Школа, HDTVRip] [720p] Galfimbul 16395815021.53 GB 0 0 1462249658

07:27

3-Май-16

Аниме | HD Rips ·· Мотоклуб!! / Bakuon!! [TV] [01-03 из 12] [Без хардсаба] [JAP, SUB] [2016 г., Комедия, Повседневность, Школа, HDTVRip] [720p] Galfimbul 12005023881.12 GB 0 0 1461637882

05:31

26-Апр-16

Аниме | HD Rips ·· Мотоклуб!! / Bakuon!! [TV] [01-02 из 12] [Без хардсаба] [JAP, SUB] [2016 г., Комедия, Повседневность, Школа, HDTVRip] [720p] Galfimbul 781220784745 MB 0 0 1461206259

05:37

21-Апр-16

Еще никто не оставлял запись к записи скачать торрент Мотоклуб!! Bakuon!! . Будь первым!

!Обратная связь