Скачать через торрент Путь аса 2 Diamond no Ace: Second Season бесплатно Аниме Все серии на русском torrent

Если у вас наблюдаются проблемы со скриншотами, переходом по ссылками, скачиванием торрентов - проблемы в блокировщике рекламы AdBlock. #хорошегоДня!


Статистика раздачи
Размер:  13.42 GB   |    Зарегистрирован:  1 год 6 месяцев   |    .torrent скачан:  33 раза   |   
Раздают:  1  
   
Загрузка...
 
Автор Сообщение

Galfimbul

avatar Galfimbul



Страна: Япония
Год выпуска: 2015 г.
Жанр: спорт, комедия, драма
Продолжительность: ТВ-сериал, 51 эп. по 25 мин
Режиссер: Масухара Мицуюки
Студия: Madhouse Studios & Production I.G
Перевод:
<ol class="post-ul">
русские субтитры (внешним файлом)
Переводчик: Lelikpus Редактор: Sidnia
</ol>
Описание: Эйдзюн – юный питчер, больше всего на свете любящий бейсбол, принял верное, хотя и трудное, решение, когда уехал из сельской местности и поступил в токийскую школу. Если дома его талант находил весьма скромное применение, а команда толком не могла заявить о себе, то с вступлением в бейсбольный клуб школы Сэйдо для Эйдзюна наступили новые времена. Там он встретил множество таких же, как он сам, одаренных спортсменов, среди которых особенно выделялись питчер Фуруя, кэтчер Миюки и второй базовый Коминато.

Теперь у Эйдзюна, Фуруи и их товарищей позади уже не одна победа, однако им все еще есть куда расти. Встав во главе новой бейсбольной команды, они устремились к своей амбициозной цели и заветной мечте любого юного бейсболиста – победе в национальных соревнованиях между школьными спортивными командами. До наступления весны еще есть время, которое они полностью посветят тренировкам, однако на пути у ребят стоит одно немаловажное препятствие – вполне возможно, что команда лишится своего тренера.
<ol class="post-ul"></ol>
Качество: HDTVRip
Тип релиза: Без хардсаба
Формат видео: mp4
Релиз/Автор рипа: [Leopard-Raws]
Видео: H264; 1669 Kbps; 1280x720; 23.976 fps; 8 bit
Аудио: JAP, AAC; 192 kbps; 48000 Hz; 2ch
GeneralComplete name : F:\Torrent\Dia no Ace - Second Season\[Leopard-Raws] Dia no Ace - Second Season - 01 RAW (TX 1280x720 x264 AAC).mp4Format : MPEG-4Format profile : Base MediaCodec ID : isomFile size : 324 MiBDuration : 24mn 20sOverall bit rate mode : VariableOverall bit rate : 1 864 KbpsEncoded date : UTC 2015-04-06 18:20:59Tagged date : UTC 2015-04-06 18:20:59

VideoID : 1Format : AVCFormat/Info : Advanced Video CodecFormat profile : High@L4.1Format settings, CABAC : YesFormat settings, ReFrames : 4 framesCodec ID : avc1Codec ID/Info : Advanced Video CodingDuration : 24mn 19sBit rate : 1 669 KbpsMaximum bit rate : 9 111 KbpsWidth : 1 280 pixelsHeight : 720 pixelsDisplay aspect ratio : 16:9Frame rate mode : ConstantFrame rate : 23.976 fpsColor space : YUVChroma subsampling : 4:2:0Bit depth : 8 bitsScan type : ProgressiveBits/(Pixel*Frame) : 0.076Stream size : 290 MiB (90%)Title : 264:fps=23.976@GPAC0.5.1-DEV-rev4929Writing library : x264 core 129 r2245+729M 1a52e03Encoding settings : cabac=1 / ref=4 / deblock=1:1:-1 / analyse=0x3:0x113 / me=umh / subme=9 / psy=1 / fade_compensate=0.00 / psy_rd=1.00:0.00 / mixed_ref=1 / me_range=24 / chroma_me=1 / trellis=2 / 8x8dct=1 / cqm=0 / deadzone=21,11 / fast_pskip=1 / chroma_qp_offset=-2 / threads=8 / lookahead_threads=1 / sliced_threads=0 / nr=0 / decimate=1 / interlaced=0 / bluray_compat=0 / constrained_intra=0 / fgo=0 / bframes=9 / b_pyramid=2 / b_adapt=2 / b_bias=0 / direct=1 / weightb=1 / open_gop=0 / weightp=2 / keyint=240 / keyint_min=24 / scenecut=40 / intra_refresh=0 / rc=crf / mbtree=0 / crf=19.0 / qcomp=0.72 / qpmin=0 / qpmax=69 / qpstep=4 / ip_ratio=1.40 / pb_ratio=1.30 / aq=1:0.85Encoded date : UTC 2015-04-06 18:20:59Tagged date : UTC 2015-04-06 18:21:01Color range : LimitedColor primaries : BT.709Transfer characteristics : BT.709Matrix coefficients : BT.709

AudioID : 2Format : AACFormat/Info : Advanced Audio CodecFormat profile : LCCodec ID : 40Duration : 24mn 20sBit rate mode : VariableBit rate : 192 KbpsMaximum bit rate : 231 KbpsChannel(s) : 2 channelsChannel positions : Front: L RSampling rate : 48.0 KHzCompression mode : LossyStream size : 33.4 MiB (10%)Language : JapaneseEncoded date : UTC 2015-04-06 14:48:45Tagged date : UTC 2015-04-06 18:21:01
01 - Howling in the Summer
02 - The Summer Heat Haze
03 - The Kings of Summer
04 - The Fall Tournament Begins!
05 - The Cold Rain
06 - Out of Order
07 - Where I Am
08 - Scenario
09 - My Path
10 - Did You just Pitch...
11 - The Underdog Story
12 - Self-Destruction
13 - Fissure
14 - On My Shoulders
15 - Persistent and Diligent
16 - Chain Reaction
17 - Shut Him Down!!
18 - This Guy`s Pretty Good
19 - An Uncompromising Challenge
20 - With Heads Held High
21 - Whispers of the Devil?
22 - Winging It
23 - School Academic Level
24 - Individual Minds
25 - Zeal
26 - The Conceited Underclassman
27 - Step by Step
28 - The Resilient Second String
29 - Demon Child
30 - The Kings Roar
31 - The Courage He Gave Me
32 - The Resolve for Responsibility
33 - The Ace`s Instinct
34 - Innocent
35 - The World Beyond
36 - Back After Summer
37 - Priorities
38 - One Pitch
39 - Meeting Expectations
40 - The Final Eve


Трекер:  [ 16-Май-2016 16:00 ]

  

Скачать .torrent

Размер .torrent файла 42 KB


Размер: 13.42 GB
Хэш (hash) релиза: e4d8ce9ccca1ea12a56cae0f2c21e0ec33eaf036
Подписка на обновления:

Торренты, похожие на Путь аса 2 Diamond no Ace: Second Season скачать торрент

Форум Название Автор Размер S L Добавлен
Аниме | HD Rips ·· Путь аса 2 / Diamond no Ace: Second Season (Масухара Мицуюки) [TV] [51 из 51] [Без хардсаба] [JAP, SUB] [2015 г., спорт, комедия, драма, HDTVRip] [720p] Galfimbul 1903282802517.73 GB 0 0 1465848735

23:12

13-Июн-16

Аниме | HD Rips ·· Путь аса 2 / Diamond no Ace: Second Season (Масухара Мицуюки) [TV] [1-45 из 51] [Без хардсаба] [JAP, SUB] [2015 г., спорт, комедия, драма, HDTVRip] [720p] Galfimbul 1642605030515.3 GB 0 0 1464641988

23:59

30-Май-16

Аниме | HD Rips ·· Путь аса 2 / Diamond no Ace: Second Season (Масухара Мицуюки) [TV] [1-35 из 51] [Без хардсаба] [JAP, SUB] [2015 г., спорт, комедия, драма, HDTVRip] [720p] Galfimbul 1260926365011.74 GB 0 0 1462045183

22:39

30-Апр-16

Аниме | HD Rips ·· Путь аса 2 / Diamond no Ace: Second Season (Масухара Мицуюки) [TV] [1-30 из 51] [Без хардсаба] [JAP, SUB] [2015 г., спорт, комедия, драма, HDTVRip] [720p] Galfimbul 105576760649.83 GB 0 0 1460629974

13:32

14-Апр-16

Аниме | HD Rips ·· Путь аса 2 / Diamond no Ace: Second Season (Масухара Мицуюки) [TV] [13 из 51] [Без хардсаба] [JAP, SUB] [2015 г., спорт, комедия, драма, HDTVRip] [720p] Galfimbul 45144137144.2 GB 0 0 1456912117

12:48

2-Мар-16

Еще никто не оставлял запись к записи скачать торрент Путь аса 2 Diamond no Ace: Second Season . Будь первым!

!Обратная связь