Скачать через торрент Шарлотта Charlotte бесплатно Аниме Все серии на русском torrent

Если у вас наблюдаются проблемы со скриншотами, переходом по ссылками, скачиванием торрентов - проблемы в блокировщике рекламы AdBlock. #хорошегоДня!


Статистика раздачи
Размер:  367 MB   |    Зарегистрирован:  1 год 6 месяцев   |    .torrent скачан:  46 раз   |   
Раздают:  1  
   
Загрузка...
 
Автор Сообщение

Galfimbul

avatar Galfimbul



Шарлотта / Charlotte / シャーロット
Год выпуска: 2015 г.
Страна: Япония
Жанр: Приключения, Школа, Мистика, Драма, Комедия
Тип: Special
Продолжительность: 1 эп. по 24 мин.
Режиссер: Асай Ёсиюки
Студия: P.A. Works
Перевод:
<ol class="post-ul">
Русские субтитры от AOS
</ol>
Озвучка:
<ol class="post-ul">
Двухголосая от (муж/жен) BalFor & Oriko (AniDub)
</ol>
<ol class="post-ul">
Двухголосая от (муж/жен) Zendos & Ruri (Onibaku)
</ol>
Описание:
Мир этой истории полон необычных способностей, проявляющихся в детстве, расцветающих в подростковом возрасте и исчезающих по мере взросления. Почему так? 16-летний Ю Отосака над философией не задумывался, просто всю сознательную жизнь пользовался своим даром вселяться на 5 секунд в любое сознание, чтобы списывать на экзаменах и слыть лучшим учеником. Мораль юного эгоиста не заботила – ведь на свете он остался один вместе с младшей сестренкой Аюми, и читерство помогало не только тешить самолюбие, но и экономить деньги на учебе.

Увы, тайное становится явным – вот и нашего героя, с комфортом устроившегося в престижной старшей школе, все же разоблачили. Агрессивная блондинка Нао Томори поведала, что возглавляет организацию, собирающую носителей способностей в академии «Звездное море» - и отныне Отосака с сестрой тоже учатся там! Делать нечего, но, начав работать в школьном Совете, неглупый парень понял, что, с одной стороны, Нао обладает явно недетскими связями и ресурсами, а с другой – уж больно много кругом подозрительных фактов… И, самое главное, слишком много непонятного связано с ним и его семьей!
Информационные ссылки: World Art || AniDB || MAL
Качество: BDRip | Рип: [Ohys-Raws]
Тип релиза: Без хардсаба
Формат видео: MP4
Наличие линковки: Нет
Видео: AVC, 1280x720, 1549 kbps, 23.976 fps [8 bit]
Аудио:
1. Russian AC3, 48.0 KHz, 192 kbps, 2 ch (внешние) - [AniDub];
2. Russian AC3, 48.0 KHz, 192 kbps, 2 ch (внешние) - [Onibaku];
3. Japanese AAC, 48.0 KHz, ~195 kbps, 2 ch;
Субтитры:
<ol class="post-ul">
Russian: ASS, внешние;
</ol>
General Format : MPEG-4 Format profile : Base Media Codec ID : isom File size : 301 MiB Duration : 24mn 4s Overall bit rate mode : Variable Overall bit rate : 1 748 Kbps Encoded date : UTC 2016-03-29 23:21:30 Tagged date : UTC 2016-03-29 23:21:30 Video #1 ID : 1 Format : AVC Format/Info : Advanced Video Codec Format profile : Main@L4.1 Format settings, CABAC : Yes Format settings, ReFrames : 4 frames Codec ID : avc1 Codec ID/Info : Advanced Video Coding Duration : 24mn 4s Bit rate : 1 549 Kbps Maximum bit rate : 9 814 Kbps Width : 1 280 pixels Height : 720 pixels Display aspect ratio : 16:9 Frame rate mode : Constant Frame rate : 23.976 fps Color space : YUV Chroma subsampling : 4:2:0 Bit depth : 8 bits Scan type : Progressive Bits/(Pixel*Frame) : 0.070 Stream size : 267 MiB (89%) Writing library : x264 core 148 r2665 a01e339 Encoding settings : cabac=1 / ref=3 / deblock=1:0:0 / analyse=0x1:0x131 / me=umh / subme=9 / psy=1 / psy_rd=1.00:0.00 / mixed_ref=1 / me_range=32 / chroma_me=1 / trellis=1 / 8x8dct=0 / cqm=0 / deadzone=21,11 / fast_pskip=1 / chroma_qp_offset=-2 / threads=12 / lookahead_threads=1 / sliced_threads=0 / nr=0 / decimate=1 / interlaced=0 / bluray_compat=0 / constrained_intra=0 / bframes=3 / b_pyramid=2 / b_adapt=1 / b_bias=0 / direct=1 / weightb=1 / open_gop=0 / weightp=2 / keyint=240 / keyint_min=1 / scenecut=40 / intra_refresh=0 / rc_lookahead=40 / rc=crf / mbtree=1 / crf=17.0 / qcomp=0.60 / qpmin=0 / qpmax=69 / qpstep=4 / ip_ratio=1.40 / aq=1:1.00 Encoded date : UTC 2016-03-29 23:21:30 Tagged date : UTC 2016-03-29 23:21:33 Audio #2 ID : 2 Format : AAC Format/Info : Advanced Audio Codec Format profile : LC Codec ID : 40 Duration : 24mn 4s Bit rate mode : Variable Bit rate : 192 Kbps Maximum bit rate : 253 Kbps Channel(s) : 2 channels Channel positions : Front: L R Sampling rate : 48.0 KHz Compression mode : Lossy Stream size : 33.6 MiB (11%) Language : Japanese Encoded date : UTC 2016-03-29 23:19:53 Tagged date : UTC 2016-03-29 23:21:33

01. Сильные люди / Beginning of a New "Destiny"
<a href="viewtopic.php?t=5158600" class="postLink">...5158600</a>
-720p
<a href="viewtopic.php?t=5086557" class="postLink">...5086557</a>
- BDRip


Трекер:  [ 06-Июн-2016 19:00 ]

  

Скачать .torrent

Размер .torrent файла 15 KB


Размер: 367 MB
Хэш (hash) релиза: 6bdba8b3efcd0d9b894c91fc20d4fda5329471cf
Подписка на обновления:

Торренты, похожие на Шарлотта Charlotte скачать торрент

Форум Название Автор Размер S L Добавлен
Аниме | HD Rips ·· Шарлотта / Charlotte (Асай Ёсиюки) [TV+Special] [13+1 из 13+2] [без хардсаба] [RUS(ext), JAP+SUB] [2015 г., комедия, мистика, драма, BDRip] [720p] Galfimbul 101069579649.41 GB 0 0 1468166025

18:53

10-Июл-16

Аниме | Rips ·· Шарлотта / Charlotte [Special] [1 из 1] [Без хардсаба] [RUS(int), JAP+SUB] [2016 г., фантастика, драма, школа, BDRip] [HWP] Galfimbul 248245386237 MB 0 0 1465370755

10:25

8-Июн-16

Аниме | HD Rips ·· Шарлотта / Charlotte [Special] [1 из 1] [Без хардсаба] [RUS(ext), JAP, SUB] [2015 г., Приключения, Школа, Мистика, Драма, Комедия, BDRip] [720p] Galfimbul 350485529334 MB 0 0 1461115557

04:25

20-Апр-16

Аниме | HD Rips ·· Шарлотта / Charlotte (Асай Ёсиюки) [TV+Special] [13+1 из 13+1] [Без хардсаба] [RUS(ext), JAP+SUB] [2015 г., комедия, мистика, драма, BDRip] [1080p] Galfimbul 2335334216421.75 GB 0 0 1460914171

20:29

17-Апр-16

Аниме | HD Rips ·· Шарлотта / Charlotte (Асай Ёсиюки) [TV+Special] [13+1 из 13+1] [без хардсаба] [RUS(ext), JAP+SUB] [2015 г., приключения, BDRemux] [1080p] Galfimbul 108832761139101.36 GB 0 0 1460907655

18:40

17-Апр-16

Аниме | HD Rips ·· Шарлотта / Charlotte (Асай Ёсиюки) [TV+Special] [13+1 из 13+1] [без хардсаба] [RUS(ext), JAP+SUB] [2015 г., приключения, BDRemux] [1080p] Galfimbul 108832945399101.36 GB 0 0 1460848068

02:07

17-Апр-16

Аниме | Rips ·· Шарлотта / Charlotte [TV] [13 из 13] [Без хардсаба] [RUS(int), JAP+SUB] [2015 г., приключения, фантастика, HDTVRip] [HWP] Galfimbul 36004913473.35 GB 0 0 1460789121

09:45

16-Апр-16

Аниме | HD Rips ·· Шарлотта / Charlotte [Special] [01 из 01] [Без хардсаба] [JAP, SUB] [2015 г., Приключения, Школа, Мистика, Драма, Комедия, BDRip] [720p] Galfimbul 350485668334 MB 0 0 1460639331

16:08

14-Апр-16

Аниме | HD Rips ·· Шарлотта / Charlotte [Special] [01 из 01] [Без хардсаба] [JAP, SUB] [2015 г., Приключения, Школа, Мистика, Драма, Комедия, BDRip] [720p] Galfimbul 315719620301 MB 0 0 1459549053

01:17

2-Апр-16

Аниме | HD Rips ·· Шарлотта / Charlotte (Асай Ёсиюки) [TV] [1 из 13] [Без хардсаба] [RUS(ext), JAP+SUB] [2015 г., комедия, мистика, драма, BDRip] [1080p] Galfimbul 14249631511.33 GB 0 0 1453818756

17:32

26-Янв-16

Аниме | HD Rips ·· Шарлотта / Charlotte (Асай Ёсиюки) [TV] [2 из 13] [без хардсаба] [RUS(ext), JAP+SUB] [2015 г., приключения, BDRemux] [1080p] Galfimbul 1579158551314.71 GB 0 0 1443388996

00:23

28-Сен-15

Аниме | Rips ·· Шарлотта / Charlotte [TV] [01-10 из 13] [Без хардсаба] [RUS(int), JAP] & [01-08 из 13] [SUB] [2015 г., приключения, фантастика, HDTVRip] [HWP] Galfimbul 28034607612.61 GB 0 0 1443215576

00:12

26-Сен-15

Аниме | Rips ·· Шарлотта / Charlotte [TV] [01-04 из 12] [Без хардсаба] [RUS(ext), JAP] & [01-03 из 12] [SUB] [2015 г., Приключения, Школа, Мистика, Драма, Комедия, HDTVRip] [720p] Galfimbul 18232055231.7 GB 0 0 1438514777

14:26

2-Авг-15

Аниме | Rips ·· Шарлотта / Charlotte [TV] [01-03 из 13] [Без хардсаба] [RUS(int), JAP+SUB] [2015 г., приключения, фантастика, HDTVRip] [HWP] Galfimbul 810792691773 MB 0 0 1438419984

12:06

1-Авг-15

Аниме | HD Rips ·· Шарлотта / Charlotte [TV] [Без хардсаба] [3 из 13] [JAP+SUB] & [2 из 13] [RUS(ext)] [2015 г., школа, приключения, WEBRip] [1080p] Galfimbul 17856765611.66 GB 0 0 1438010833

18:27

27-Июл-15

Аниме | HD Rips ·· Шарлотта / Charlotte (Асай Ёсиюки) [TV] [3 из 13] [JAP+SUB] & [2 из 13] [RUS(ext)] [без хардсаба] [2015 г., приключения, WEBRip] [720p] Galfimbul 10885005441.01 GB 0 0 1438010828

18:27

27-Июл-15

Аниме | HD Rips ·· Шарлотта / Charlotte (Асай Ёсиюки) [TV] [2 из 13] [без хардсаба] [RUS(ext),JAP+SUB] [2015 г., приключения, WEBRip] [720p] Galfimbul 745567013711 MB 0 0 1437172289

01:31

18-Июл-15

Еще никто не оставлял запись к записи скачать торрент Шарлотта Charlotte . Будь первым!

!Обратная связь