Скачать через торрент музыку Любимчик De-Lovely бесплатно без регистрации torrent

Если у вас наблюдаются проблемы со скриншотами, переходом по ссылками, скачиванием торрентов - проблемы в блокировщике рекламы AdBlock. #хорошегоДня!


Статистика раздачи
Размер:  318 MB   |    Зарегистрирован:  1 год 5 месяцев   |    .torrent скачан:  57 раз   |   
Раздают:  1  
   
Загрузка...
 
Автор Сообщение

Galfimbul

avatar Galfimbul


Любимчик / De-Lovely

Название альбома: Music From The Motion Picture
Жанр: Soundtrack
Композитор: Cole Porter/Stephen Endelman
Год выпуска диска: 2004
Год выпуска фильма: 2004
Страна-производитель диска: US
Издатель (лейбл): Columbia/Sony Music Soundtrax
Номер по каталогу: CK 90640
Аудиокодек: FLAC (*.flac)
Тип рипа: image+.cue
Битрейт аудио: lossless
Продолжительность: 00:57:21
Источник: собственный рип
Наличие сканов в содержимом раздачи: нет
Треклист:
01 Robbie Williams - It's De-Lovely
02 Alanis Morissette - Let's Do It (Let's Fall In Love)
03 Sheryl Crow - Begin The Beguine
04 Elvis Costello - Let's Misbehave
05 Kevin Kline And Peter Polycarpou and Chorus - Be A Clown
06 John Barrowman And Kevin Kline - Night And Day
07 Ashley Judd And Tayler Hamilton - True Love
08 Lemar - What Is This Thing Called Love?
09 Mick Hucknall - I Love You
10 Diana Krall - Just One Of Those Things
11 Caroline O'Connor and Chorus - Anything Goes
12 Kevin Kline - Experiment
13 Vivian Green - Love For Sale
14 Lara Fabian And Mario Frangoulis - So In Love
15 Natalie Cole - Ev'ry Time We Say Goodbye
16 Jonathan Pryce And Kevin Kline - Blow, Gabriel, Blow
17 Kevin Kline And Ashley Judd,Cast and Chorus - In The Still Of The Night
18 Cole Porter - You're The Top
Exact Audio Copy V1.1 from 23. June 2015

EAC extraction logfile from 13. June 2016, 1:37

Various Artists / De-Lovely Music From The Motion Picture

Used drive : TSSTcorpCDDVDW TS-L633C Adapter: 1 ID: 0

Read mode : SecureUtilize accurate stream : YesDefeat audio cache : YesMake use of C2 pointers : No

Read offset correction : 6Overread into Lead-In and Lead-Out : NoFill up missing offset samples with silence : YesDelete leading and trailing silent blocks : NoNull samples used in CRC calculations : YesUsed interface : Native Win32 interface for Win NT & 2000

Used output format : User Defined EncoderSelected bitrate : 768 kBit/sQuality : HighAdd ID3 tag : NoCommand line compressor : C:\Program Files (x86)\Exact Audio Copy\Flac\flac.exeAdditional command line options : -V -8 -T "Date=%year%" -T "Genre=%genre%" %source%

TOC of the extracted CD

Track | Start | Length | Start sector | End sector --------------------------------------------------------- 1 | 0:00.00 | 4:40.59 | 0 | 21058 2 | 4:40.59 | 3:23.18 | 21059 | 36301 3 | 8:04.02 | 4:28.53 | 36302 | 56454 4 | 12:32.55 | 2:34.70 | 56455 | 68074 5 | 15:07.50 | 2:55.25 | 68075 | 81224 6 | 18:03.00 | 2:46.45 | 81225 | 93719 7 | 20:49.45 | 2:10.20 | 93720 | 103489 8 | 22:59.65 | 2:37.47 | 103490 | 115311 9 | 25:37.37 | 2:07.60 | 115312 | 124896 10 | 27:45.22 | 3:17.16 | 124897 | 139687 11 | 31:02.38 | 2:02.02 | 139688 | 148839 12 | 33:04.40 | 2:34.22 | 148840 | 160411 13 | 35:38.62 | 5:36.68 | 160412 | 185679 14 | 41:15.55 | 3:31.19 | 185680 | 201523 15 | 44:46.74 | 3:45.06 | 201524 | 218404 16 | 48:32.05 | 2:50.57 | 218405 | 231211 17 | 51:22.62 | 2:32.35 | 231212 | 242646 18 | 53:55.22 | 3:25.65 | 242647 | 258086

Range status and errors

Selected range

Filename C:\Users\Public\RIPS\Various Artists - De-Lovely Music From The Motion Picture.wav

Peak level 100.0 % Extraction speed 4.6 X Range quality 99.9 % Test CRC E7200E20 Copy CRC E7200E20 Copy OK

No errors occurred

AccurateRip summary

Track 1 accurately ripped (confidence 45) [CD123BE7] (AR v2)Track 2 accurately ripped (confidence 44) [9E68A307] (AR v2)Track 3 accurately ripped (confidence 45) [275FE5D5] (AR v2)Track 4 accurately ripped (confidence 45) [B90A1411] (AR v2)Track 5 accurately ripped (confidence 45) [7BB749C1] (AR v2)Track 6 accurately ripped (confidence 45) [47B2AE66] (AR v2)Track 7 accurately ripped (confidence 45) [253AA730] (AR v2)Track 8 accurately ripped (confidence 45) [CDB9FE95] (AR v2)Track 9 accurately ripped (confidence 45) [8C526E4F] (AR v2)Track 10 accurately ripped (confidence 45) [F2512FBC] (AR v2)Track 11 accurately ripped (confidence 45) [AE2568A2] (AR v2)Track 12 accurately ripped (confidence 45) [F61A5CF4] (AR v2)Track 13 accurately ripped (confidence 44) [C0FEEE3F] (AR v2)Track 14 accurately ripped (confidence 44) [975F2014] (AR v2)Track 15 accurately ripped (confidence 44) [DF29F1F5] (AR v2)Track 16 accurately ripped (confidence 43) [1BA4FA7B] (AR v2)Track 17 accurately ripped (confidence 43) [AD073F33] (AR v2)Track 18 accurately ripped (confidence 44) [9054F4B8] (AR v2)

All tracks accurately ripped

End of status report

---- CUETools DB Plugin V2.1.6

[CTDB TOCID: L6ArFX5.V.kD2saE7d2S0L9eQWI-] foundSubmit result: L6ArFX5.V.kD2saE7d2S0L9eQWI- has been confirmedTrack | CTDB Status 1 | (60/61) Accurately ripped 2 | (60/61) Accurately ripped 3 | (60/61) Accurately ripped 4 | (60/61) Accurately ripped 5 | (60/61) Accurately ripped 6 | (60/61) Accurately ripped 7 | (60/61) Accurately ripped 8 | (60/61) Accurately ripped 9 | (60/61) Accurately ripped 10 | (60/61) Accurately ripped 11 | (59/61) Accurately ripped 12 | (59/61) Accurately ripped 13 | (57/61) Accurately ripped 14 | (58/61) Accurately ripped 15 | (60/61) Accurately ripped 16 | (60/61) Accurately ripped 17 | (60/61) Accurately ripped 18 | (59/61) Accurately ripped

==== Log checksum B6A0AE9BBDDE592A9E4FC58401733A053CA1DE8C3F8BF967B24992B5D7068BDD ====


Трекер:  [ 13-Июн-2016 22:00 ]

  

Скачать .torrent

Размер .torrent файла 13 KB


Размер: 318 MB
Хэш (hash) релиза: d44b97bc217c624aea4755b1eb6931c938dcaa9a

Еще никто не оставлял запись к записи скачать торрент Любимчик De-Lovely . Будь первым!

!Обратная связь