Скачать через торрент музыку Алиса в Зазеркалье Alice Through the Looking Glass бесплатно без регистрации torrent

Если у вас наблюдаются проблемы со скриншотами, переходом по ссылками, скачиванием торрентов - проблемы в блокировщике рекламы AdBlock. #хорошегоДня!


Статистика раздачи
Размер:  424 MB   |    Зарегистрирован:  1 год 5 месяцев   |    .torrent скачан:  74 раза   |   
Раздают:  1  
   
Загрузка...
 
Автор Сообщение

Galfimbul

avatar Galfimbul


Алиса в Зазеркалье ● Alice Through the Looking Glass
ЖанрGenre: Score
КомпозиторComposer: Danny Elfman
Год выпуска дискаCD release: 2016
Год выпуска фильмаMovie release: 2016
Производитель дискаCD manufacturer: arvato, Germany
Издатель (лейбл)Label: Walt Disney Records
Номер по каталогуCatalog #: 00050087328276
АудиокодекCodec: FLAC (*.flac)
Тип рипаRip type: tracks+.cue
Битрейт аудиоBit rate: lossless
ПродолжительностьDuration: 01:16:53
ИсточникSource: собственный рип ● own rip
Наличие сканов в раздачeScans included: 600 dpi JPG
СсылкиLinks: Кинопоиск | IMDB | Wikipedia | SoundtrackCollector
MP3: <a href="viewtopic.php?t=5232860" class="postLink">(Score) Алиса в Зазеркалье / Alice Through the Looking Glass (Danny Elfman) - 2016, MP3, 320 kbps</a>
Danny Elfman: <a href="tracker.php?f=786&nm=Danny+Elfman" class="postLink">lossless</a> | <a href="tracker.php?f=785&nm=Danny+Elfman" class="postLink">lossy</a>
01. Alice [0:06:35.65]
02. Saving the Ship [0:03:40.66]
03. Watching Time [0:05:10.68]
04. Looking Glass [0:03:30.06]
05. To the Rescue [0:00:56.24]
06. Hatter House [0:03:47.31]
07. The Red Queen [0:02:29.19]
08. The Chronosphere [0:04:15.66]
09. Warning Hightopps [0:02:23.43]
10. Tea Time Forever [0:01:45.35]
11. Oceans of Time [0:01:15.49]
12. Hat Heartbreak [0:02:27.53]
13. Asylum Escape [0:04:06.70]
14. Hatter's Deathbed [0:03:22.27]
15. Finding the Family [0:02:04.45]
16. Time Is Up [0:04:24.15]
17. World's End [0:01:50.71]
18. Truth [0:04:09.56]
19. Goodbye Alice [0:02:13.36]
20. Kingsleigh & Kingsleigh [0:01:21.57]
21. Seconds Song [0:00:11.60]
22. Friends United [0:01:07.03]
23. Time's Castle [0:01:49.04]
24. The Seconds [0:00:50.20]
25. Clock Shop [0:01:55.10]
26. They're Alive [0:02:23.73]
27. Story of Time [0:03:06.64]
28. P!nk / Just Like Fire [0:03:35.46]
Exact Audio Copy V1.1 from 23. June 2015

EAC extraction logfile from 28. May 2016, 14:59

Danny Elfman / Alice Through the Looking Glass

Used drive : PLEXTOR CD-R PX-230A Adapter: 1 ID: 0

Read mode : SecureUtilize accurate stream : YesDefeat audio cache : YesMake use of C2 pointers : No

Read offset correction : 738Overread into Lead-In and Lead-Out : NoFill up missing offset samples with silence : YesDelete leading and trailing silent blocks : NoNull samples used in CRC calculations : YesUsed interface : Native Win32 interface for Win NT & 2000Gap handling : Appended to previous track

Used output format : User Defined EncoderSelected bitrate : 1024 kBit/sQuality : HighAdd ID3 tag : NoCommand line compressor : C:\Program Files\Exact Audio Copy\Flac\flac.exeAdditional command line options : -6 -V -T "ARTIST=%artist%" -T "TITLE=%title%" -T "ALBUM=%albumtitle%" -T "DATE=%year%"-T "TRACKNUMBER=%tracknr%" -T "GENRE=%genre%" -T "COMMENT=%comment%" -T "ALBUMARTIST=%albuminterpret%" -T "COMPOSER=%composer%"-T "DISCNUMBER=%cdnumber%" -T "TOTALDISCS=%totalcds%" -T "TOTALTRACKS=%numtracks%" %source% -o %dest%

TOC of the extracted CD

Track | Start | Length | Start sector | End sector --------------------------------------------------------- 1 | 0:00.00 | 6:35.65 | 0 | 29689 2 | 6:35.65 | 3:40.66 | 29690 | 46255 3 | 10:16.56 | 5:10.68 | 46256 | 69573 4 | 15:27.49 | 3:30.06 | 69574 | 85329 5 | 18:57.55 | 0:56.24 | 85330 | 89553 6 | 19:54.04 | 3:47.31 | 89554 | 106609 7 | 23:41.35 | 2:29.19 | 106610 | 117803 8 | 26:10.54 | 4:15.66 | 117804 | 136994 9 | 30:26.45 | 2:23.43 | 136995 | 147762 10 | 32:50.13 | 1:45.35 | 147763 | 155672 11 | 34:35.48 | 1:15.49 | 155673 | 161346 12 | 35:51.22 | 2:27.53 | 161347 | 172424 13 | 38:19.00 | 4:06.70 | 172425 | 190944 14 | 42:25.70 | 3:22.27 | 190945 | 206121 15 | 45:48.22 | 2:04.45 | 206122 | 215466 16 | 47:52.67 | 4:24.15 | 215467 | 235281 17 | 52:17.07 | 1:50.71 | 235282 | 243602 18 | 54:08.03 | 4:09.56 | 243603 | 262333 19 | 58:17.59 | 2:13.36 | 262334 | 272344 20 | 60:31.20 | 1:21.57 | 272345 | 278476 21 | 61:53.02 | 0:11.60 | 278477 | 279361 22 | 62:04.62 | 1:07.03 | 279362 | 284389 23 | 63:11.65 | 1:49.04 | 284390 | 292568 24 | 65:00.69 | 0:50.20 | 292569 | 296338 25 | 65:51.14 | 1:55.10 | 296339 | 304973 26 | 67:46.24 | 2:23.73 | 304974 | 315771 27 | 70:10.22 | 3:06.64 | 315772 | 329785 28 | 73:17.11 | 3:35.46 | 329786 | 345956

Track 1

Filename C:\Music\01 - Danny Elfman - Alice.wav

Pre-gap length 0:00:02.00

Peak level 94.7 % Extraction speed 4.1 X Track quality 100.0 % Test CRC 62F93E17 Copy CRC 62F93E17 Track not present in AccurateRip database Copy OK

Track 2

Filename C:\Music\02 - Danny Elfman - Saving the Ship.wav

Peak level 94.4 % Extraction speed 3.9 X Track quality 100.0 % Test CRC 250D367C Copy CRC 250D367C Track not present in AccurateRip database Copy OK

Track 3

Filename C:\Music\03 - Danny Elfman - Watching Time.wav

Peak level 94.4 % Extraction speed 3.8 X Track quality 100.0 % Test CRC 172D2C2A Copy CRC 172D2C2A Track not present in AccurateRip database Copy OK

Track 4

Filename C:\Music\04 - Danny Elfman - Looking Glass.wav

Peak level 94.4 % Extraction speed 4.7 X Track quality 100.0 % Test CRC 8778191A Copy CRC 8778191A Track not present in AccurateRip database Copy OK

Track 5

Filename C:\Music\05 - Danny Elfman - To the Rescue.wav

Peak level 94.3 % Extraction speed 2.9 X Track quality 100.0 % Test CRC B81C8498 Copy CRC B81C8498 Track not present in AccurateRip database Copy OK

Track 6

Filename C:\Music\06 - Danny Elfman - Hatter House.wav

Peak level 94.4 % Extraction speed 3.4 X Track quality 99.9 % Test CRC FA053742 Copy CRC FA053742 Track not present in AccurateRip database Copy OK

Track 7

Filename C:\Music\07 - Danny Elfman - The Red Queen.wav

Peak level 94.4 % Extraction speed 4.0 X Track quality 100.0 % Test CRC B8C451AA Copy CRC B8C451AA Track not present in AccurateRip database Copy OK

Track 8

Filename C:\Music\08 - Danny Elfman - The Chronosphere.wav

Peak level 95.3 % Extraction speed 4.1 X Track quality 100.0 % Test CRC 1FD40DC6 Copy CRC 1FD40DC6 Track not present in AccurateRip database Copy OK

Track 9

Filename C:\Music\09 - Danny Elfman - Warning Hightopps.wav

Pre-gap length 0:00:00.19

Peak level 71.4 % Extraction speed 4.0 X Track quality 100.0 % Test CRC 074AA575 Copy CRC 074AA575 Track not present in AccurateRip database Copy OK

Track 10

Filename C:\Music\10 - Danny Elfman - Tea Time Forever.wav

Peak level 94.4 % Extraction speed 3.9 X Track quality 100.0 % Test CRC 7100C5E7 Copy CRC 7100C5E7 Track not present in AccurateRip database Copy OK

Track 11

Filename C:\Music\11 - Danny Elfman - Oceans of Time.wav

Peak level 94.4 % Extraction speed 2.6 X Track quality 99.8 % Test CRC 9976B2BA Copy CRC 9976B2BA Track not present in AccurateRip database Copy OK

Track 12

Filename C:\Music\12 - Danny Elfman - Hat Heartbreak.wav

Peak level 82.7 % Extraction speed 3.3 X Track quality 99.9 % Test CRC AFD3302F Copy CRC AFD3302F Track not present in AccurateRip database Copy OK

Track 13

Filename C:\Music\13 - Danny Elfman - Asylum Escape.wav

Peak level 94.4 % Extraction speed 3.8 X Track quality 100.0 % Test CRC 8A3D0C28 Copy CRC 8A3D0C28 Track not present in AccurateRip database Copy OK

Track 14

Filename C:\Music\14 - Danny Elfman - Hatter's Deathbed.wav

Pre-gap length 0:00:00.08

Peak level 94.4 % Extraction speed 4.0 X Track quality 100.0 % Test CRC 39B476E4 Copy CRC 39B476E4 Track not present in AccurateRip database Copy OK

Track 15

Filename C:\Music\15 - Danny Elfman - Finding the Family.wav

Peak level 94.4 % Extraction speed 3.9 X Track quality 100.0 % Test CRC 7906A33B Copy CRC 7906A33B Track not present in AccurateRip database Copy OK

Track 16

Filename C:\Music\16 - Danny Elfman - Time Is Up.wav

Peak level 94.4 % Extraction speed 4.0 X Track quality 100.0 % Test CRC 95DC28B8 Copy CRC 95DC28B8 Track not present in AccurateRip database Copy OK

Track 17

Filename C:\Music\17 - Danny Elfman - World's End.wav

Peak level 94.4 % Extraction speed 3.4 X Track quality 100.0 % Test CRC 08D689B6 Copy CRC 08D689B6 Track not present in AccurateRip database Copy OK

Track 18

Filename C:\Music\18 - Danny Elfman - Truth.wav

Peak level 53.0 % Extraction speed 3.7 X Track quality 100.0 % Test CRC 9346706C Copy CRC 9346706C Track not present in AccurateRip database Copy OK

Track 19

Filename C:\Music\19 - Danny Elfman - Goodbye Alice.wav

Peak level 94.3 % Extraction speed 4.0 X Track quality 100.0 % Test CRC F45AC294 Copy CRC F45AC294 Track not present in AccurateRip database Copy OK

Track 20

Filename C:\Music\20 - Danny Elfman - Kingsleigh & Kingsleigh.wav

Peak level 94.4 % Extraction speed 3.2 X Track quality 100.0 % Test CRC 73185FE4 Copy CRC 73185FE4 Track not present in AccurateRip database Copy OK

Track 21

Filename C:\Music\21 - Danny Elfman - Seconds Song.wav

Pre-gap length 0:00:01.74

Peak level 94.3 % Extraction speed 1.2 X Track quality 100.0 % Test CRC 1E629438 Copy CRC 1E629438 Track not present in AccurateRip database Copy OK

Track 22

Filename C:\Music\22 - Danny Elfman - Friends United.wav

Peak level 45.0 % Extraction speed 2.7 X Track quality 99.8 % Test CRC A60C9B17 Copy CRC A60C9B17 Track not present in AccurateRip database Copy OK

Track 23

Filename C:\Music\23 - Danny Elfman - Time's Castle.wav

Pre-gap length 0:00:00.06

Peak level 94.4 % Extraction speed 3.6 X Track quality 100.0 % Test CRC 92FF36B5 Copy CRC 92FF36B5 Track not present in AccurateRip database Copy OK

Track 24

Filename C:\Music\24 - Danny Elfman - The Seconds.wav

Peak level 30.9 % Extraction speed 2.7 X Track quality 100.0 % Test CRC 92FA354F Copy CRC 92FA354F Track not present in AccurateRip database Copy OK

Track 25

Filename C:\Music\25 - Danny Elfman - Clock Shop.wav

Peak level 94.4 % Extraction speed 3.7 X Track quality 100.0 % Test CRC 555C15BA Copy CRC 555C15BA Track not present in AccurateRip database Copy OK

Track 26

Filename C:\Music\26 - Danny Elfman - They're Alive.wav

Peak level 96.1 % Extraction speed 3.4 X Track quality 100.0 % Test CRC B01F6FCE Copy CRC B01F6FCE Track not present in AccurateRip database Copy OK

Track 27

Filename C:\Music\27 - Danny Elfman - Story of Time.wav

Pre-gap length 0:00:00.26

Peak level 94.4 % Extraction speed 3.7 X Track quality 100.0 % Test CRC 070A0622 Copy CRC 070A0622 Track not present in AccurateRip database Copy OK

Track 28

Filename C:\Music\28 - P!nk - Just Like Fire.wav

Pre-gap length 0:00:02.74

Peak level 79.7 % Extraction speed 3.4 X Track quality 100.0 % Test CRC CFC7CEDE Copy CRC CFC7CEDE Track not present in AccurateRip database Copy OK

None of the tracks are present in the AccurateRip database

No errors occurred

End of status report

---- CUETools DB Plugin V2.1.6

[CTDB TOCID: m_uQCxxb918LLa9pCtlPzEVd1po-] disk not present in databaseSubmit result: m_uQCxxb918LLa9pCtlPzEVd1po- has been uploaded

==== Log checksum 15D2ABDC0D735A06B689A57BC7B3DE4D3DAECB719712F4F6734C4F7561B90BF1 ====
REM GENRE SoundtrackREM DATE 2016REM DISCID BD12041CREM COMMENT "ExactAudioCopy v1.1"PERFORMER "Danny Elfman"TITLE "Alice Through the Looking Glass"FILE "01 - Danny Elfman - Alice.wav" WAVE TRACK 01 AUDIO TITLE "Alice" PERFORMER "Danny Elfman" INDEX 01 00:00:00FILE "02 - Danny Elfman - Saving the Ship.wav" WAVE TRACK 02 AUDIO TITLE "Saving the Ship" PERFORMER "Danny Elfman" INDEX 01 00:00:00FILE "03 - Danny Elfman - Watching Time.wav" WAVE TRACK 03 AUDIO TITLE "Watching Time" PERFORMER "Danny Elfman" INDEX 01 00:00:00FILE "04 - Danny Elfman - Looking Glass.wav" WAVE TRACK 04 AUDIO TITLE "Looking Glass" PERFORMER "Danny Elfman" INDEX 01 00:00:00FILE "05 - Danny Elfman - To the Rescue.wav" WAVE TRACK 05 AUDIO TITLE "To the Rescue" PERFORMER "Danny Elfman" INDEX 01 00:00:00FILE "06 - Danny Elfman - Hatter House.wav" WAVE TRACK 06 AUDIO TITLE "Hatter House" PERFORMER "Danny Elfman" INDEX 01 00:00:00FILE "07 - Danny Elfman - The Red Queen.wav" WAVE TRACK 07 AUDIO TITLE "The Red Queen" PERFORMER "Danny Elfman" INDEX 01 00:00:00FILE "08 - Danny Elfman - The Chronosphere.wav" WAVE TRACK 08 AUDIO TITLE "The Chronosphere" PERFORMER "Danny Elfman" INDEX 01 00:00:00 TRACK 09 AUDIO TITLE "Warning Hightopps" PERFORMER "Danny Elfman" INDEX 00 04:15:47FILE "09 - Danny Elfman - Warning Hightopps.wav" WAVE INDEX 01 00:00:00FILE "10 - Danny Elfman - Tea Time Forever.wav" WAVE TRACK 10 AUDIO TITLE "Tea Time Forever" PERFORMER "Danny Elfman" INDEX 01 00:00:00FILE "11 - Danny Elfman - Oceans of Time.wav" WAVE TRACK 11 AUDIO TITLE "Oceans of Time" PERFORMER "Danny Elfman" INDEX 01 00:00:00FILE "12 - Danny Elfman - Hat Heartbreak.wav" WAVE TRACK 12 AUDIO TITLE "Hat Heartbreak" PERFORMER "Danny Elfman" INDEX 01 00:00:00FILE "13 - Danny Elfman - Asylum Escape.wav" WAVE TRACK 13 AUDIO TITLE "Asylum Escape" PERFORMER "Danny Elfman" INDEX 01 00:00:00 TRACK 14 AUDIO TITLE "Hatter's Deathbed" PERFORMER "Danny Elfman" INDEX 00 04:06:62FILE "14 - Danny Elfman - Hatter's Deathbed.wav" WAVE INDEX 01 00:00:00FILE "15 - Danny Elfman - Finding the Family.wav" WAVE TRACK 15 AUDIO TITLE "Finding the Family" PERFORMER "Danny Elfman" INDEX 01 00:00:00FILE "16 - Danny Elfman - Time Is Up.wav" WAVE TRACK 16 AUDIO TITLE "Time Is Up" PERFORMER "Danny Elfman" INDEX 01 00:00:00FILE "17 - Danny Elfman - World's End.wav" WAVE TRACK 17 AUDIO TITLE "World's End" PERFORMER "Danny Elfman" INDEX 01 00:00:00FILE "18 - Danny Elfman - Truth.wav" WAVE TRACK 18 AUDIO TITLE "Truth" PERFORMER "Danny Elfman" INDEX 01 00:00:00FILE "19 - Danny Elfman - Goodbye Alice.wav" WAVE TRACK 19 AUDIO TITLE "Goodbye Alice" PERFORMER "Danny Elfman" INDEX 01 00:00:00FILE "20 - Danny Elfman - Kingsleigh & Kingsleigh.wav" WAVE TRACK 20 AUDIO TITLE "Kingsleigh & Kingsleigh" PERFORMER "Danny Elfman" INDEX 01 00:00:00 TRACK 21 AUDIO TITLE "Seconds Song" PERFORMER "Danny Elfman" INDEX 00 01:19:58FILE "21 - Danny Elfman - Seconds Song.wav" WAVE INDEX 01 00:00:00FILE "22 - Danny Elfman - Friends United.wav" WAVE TRACK 22 AUDIO TITLE "Friends United" PERFORMER "Danny Elfman" INDEX 01 00:00:00 TRACK 23 AUDIO TITLE "Time's Castle" PERFORMER "Danny Elfman" INDEX 00 01:06:72FILE "23 - Danny Elfman - Time's Castle.wav" WAVE INDEX 01 00:00:00FILE "24 - Danny Elfman - The Seconds.wav" WAVE TRACK 24 AUDIO TITLE "The Seconds" PERFORMER "Danny Elfman" INDEX 01 00:00:00FILE "25 - Danny Elfman - Clock Shop.wav" WAVE TRACK 25 AUDIO TITLE "Clock Shop" PERFORMER "Danny Elfman" INDEX 01 00:00:00FILE "26 - Danny Elfman - They're Alive.wav" WAVE TRACK 26 AUDIO TITLE "They're Alive" PERFORMER "Danny Elfman" INDEX 01 00:00:00 TRACK 27 AUDIO TITLE "Story of Time" PERFORMER "Danny Elfman" INDEX 00 02:23:47FILE "27 - Danny Elfman - Story of Time.wav" WAVE INDEX 01 00:00:00 TRACK 28 AUDIO TITLE "Just Like Fire" PERFORMER "P!nk" INDEX 00 03:03:65FILE "28 - P!nk - Just Like Fire.wav" WAVE INDEX 01 00:00:00


Трекер:  [ 17-Июн-2016 21:30 ]

  

Скачать .torrent

Размер .torrent файла 19 KB


Размер: 424 MB
Хэш (hash) релиза: e20117704a5275823202c99d263001f99abde93a

Еще никто не оставлял запись к записи скачать торрент Алиса в Зазеркалье Alice Through the Looking Glass . Будь первым!

!Обратная связь