Скачать через торрент музыку Полицейский Третьего Мира Third World Cop бесплатно без регистрации torrent

Если у вас наблюдаются проблемы со скриншотами, переходом по ссылками, скачиванием торрентов - проблемы в блокировщике рекламы AdBlock. #хорошегоДня!


Статистика раздачи
Размер:  304 MB   |    Зарегистрирован:  1 год 5 месяцев   |    .torrent скачан:  74 раза   |   
Раздают:  1  
   
Загрузка...
 
Автор Сообщение

Galfimbul

avatar Galfimbul


Полицейский из Третьего Мира / Third World Cop

Название альбома: Original Motion Picture Soundtrack
Жанр: Soundtrack
Композитор: Sly & Robbie,Various
Год выпуска диска: 2000
Год выпуска фильма: 2000
Страна-производитель диска: USA
Издатель (лейбл): Palm Pictures/Ryko Palm
Номер по каталогу: PALMCD 2034-2
Аудиокодек: FLAC (*.flac)
Тип рипа: image+.cue
Битрейт аудио: lossless
Продолжительность: 00:46:56
Источник: собственный рип
Наличие сканов в содержимом раздачи: нет
Треклист:
01 Sly & Robbie - Zen Concrete (Interlude)
02 Beenie Man feat. Sly & Robbie - Dungle Boogie (BUD'da Mix)
03 Sly & Robbie - Capone's Theme (Score)
04 Red Dragon - We Run Tings (Runway Mix)
05 Innocent Crew - Papers (BUD'da Mix)
06 Sly & Robbie - Softcore Surge
07 The Marley Brothers feat. Ghetto Youths Crew - Call The Police
08 Lady G - Man A Bad Man
09 Buccaneer - Soca Nama
10 Innocent Crew - Mambo Jambo (Mambo Re-rub)
11 Tanto Metro & Mega Banton - Fake Name
12 Red Dragon - We Run Tings (Fuzz Townshend Mix)
13 Luciano - Police & Thieves
Exact Audio Copy V1.1 from 23. June 2015

EAC extraction logfile from 16. June 2016, 2:20

Various / Third World Cop - Original Motion Picture Soundtrack

Used drive : TSSTcorpCDDVDW TS-L633C Adapter: 1 ID: 0

Read mode : SecureUtilize accurate stream : YesDefeat audio cache : YesMake use of C2 pointers : No

Read offset correction : 6Overread into Lead-In and Lead-Out : NoFill up missing offset samples with silence : YesDelete leading and trailing silent blocks : NoNull samples used in CRC calculations : YesUsed interface : Native Win32 interface for Win NT & 2000

Used output format : User Defined EncoderSelected bitrate : 768 kBit/sQuality : HighAdd ID3 tag : NoCommand line compressor : C:\Program Files (x86)\Exact Audio Copy\Flac\flac.exeAdditional command line options : -V -8 -T "Date=%year%" -T "Genre=%genre%" %source%

TOC of the extracted CD

Track | Start | Length | Start sector | End sector --------------------------------------------------------- 1 | 0:00.00 | 2:09.12 | 0 | 9686 2 | 2:09.12 | 3:09.08 | 9687 | 23869 3 | 5:18.20 | 3:19.52 | 23870 | 38846 4 | 8:37.72 | 3:55.10 | 38847 | 56481 5 | 12:33.07 | 4:27.23 | 56482 | 76529 6 | 17:00.30 | 3:08.50 | 76530 | 90679 7 | 20:09.05 | 3:51.22 | 90680 | 108026 8 | 24:00.27 | 3:17.08 | 108027 | 122809 9 | 27:17.35 | 4:07.35 | 122810 | 141369 10 | 31:24.70 | 3:38.32 | 141370 | 157751 11 | 35:03.27 | 3:27.55 | 157752 | 173331 12 | 38:31.07 | 4:24.65 | 173332 | 193196 13 | 42:55.72 | 4:00.43 | 193197 | 211239

Range status and errors

Selected range

Filename C:\Users\Public\RIPS\Third World Cop - Original Motion Picture Soundtrack.wav

Peak level 100.0 % Extraction speed 1.8 X Range quality 100.0 % Test CRC 593C4FD1 Copy CRC 593C4FD1 Copy OK

No errors occurred

AccurateRip summary

Track 1 cannot be verified as accurate (confidence 2) [5BDA7DEE], AccurateRip returned [B28D846A] (AR v2)Track 2 cannot be verified as accurate (confidence 2) [E6A10AF7], AccurateRip returned [762E77FE] (AR v2)Track 3 cannot be verified as accurate (confidence 2) [2F713705], AccurateRip returned [ED9D52E1] (AR v2)Track 4 cannot be verified as accurate (confidence 2) [1F6C9FF9], AccurateRip returned [87C92E02] (AR v2)Track 5 cannot be verified as accurate (confidence 2) [C221038D], AccurateRip returned [DC96017A] (AR v2)Track 6 cannot be verified as accurate (confidence 2) [9C6B52D7], AccurateRip returned [0EDD02F7] (AR v2)Track 7 cannot be verified as accurate (confidence 2) [1ECF0656], AccurateRip returned [D9795AB2] (AR v2)Track 8 cannot be verified as accurate (confidence 2) [30F611C0], AccurateRip returned [AF2EC6A9] (AR v2)Track 9 cannot be verified as accurate (confidence 2) [9D921A91], AccurateRip returned [2DAE83A9] (AR v2)Track 10 cannot be verified as accurate (confidence 2) [E5FCFCF9], AccurateRip returned [4A183330] (AR v2)Track 11 cannot be verified as accurate (confidence 2) [CAB199A3], AccurateRip returned [18867D01] (AR v2)Track 12 cannot be verified as accurate (confidence 2) [1DF59804], AccurateRip returned [91C70927] (AR v2)Track 13 cannot be verified as accurate (confidence 2) [0819D986], AccurateRip returned [79E30115] (AR v2)

No tracks could be verified as accurateYou may have a different pressing from the one(s) in the database

End of status report

---- CUETools DB Plugin V2.1.6

[CTDB TOCID: WXymaOaE0_Q0nwV3mC5BdHG3fWI-] foundSubmit result: WXymaOaE0_Q0nwV3mC5BdHG3fWI- has been uploadedTrack | CTDB Status 1 | (0/1) No match 2 | (0/1) No match 3 | (0/1) No match 4 | (0/1) No match 5 | (0/1) No match 6 | (0/1) No match 7 | (0/1) No match 8 | (0/1) No match 9 | (0/1) No match 10 | (0/1) No match 11 | (0/1) No match 12 | (0/1) No match 13 | (0/1) No match

==== Log checksum EB1FCF96AEA1C344B3B89E03832C9F81B511A7549E0AC11D2885C3E20FE537A1 ====
Whenever you want to catch up on the state of the art in modern reggae, it's best to find out what drummer Sly Dunbar and bassist Robbie Shakespeare are up to. As players, they've served as the rhythmic backbone for a disproportionate number of the most important reggae singles and albums, some dating back to the music's earliest days; as producers, they've shaped the sound of some of reggae's most respected singers and bands. For this soundtrack album, the boys have gathered together an impressive roster of current dancehall dons, including the ubiquitous Beenie Man, Mega Banton, and Red Dragon, as well as the excellent cultural singer Luciano (who turns in an impressive performance of "Police and Thieves," a song long considered to be owned by Junior Murvin). Lady G delivers the rock-solid and rhythmically minimalist "Man a Bad Man," Innocent Crew shows up with two weird and gangsterish numbers ("Papers" and "Mambo Jambo"), and Sly & Robbie themselves contribute several fine instrumental tracks. Very nice.


Трекер:  [ 27-Июн-2016 06:00 ]

  

Скачать .torrent

Размер .torrent файла 12 KB


Размер: 304 MB
Хэш (hash) релиза: dc554fd053a71d16c7139327d5abb25657c34a63

Еще никто не оставлял запись к записи скачать торрент Полицейский Третьего Мира Third World Cop . Будь первым!

!Обратная связь