Скачать через торрент Истории Коёми Koyomimonogatari бесплатно Аниме Все серии на русском torrent

Если у вас наблюдаются проблемы со скриншотами, переходом по ссылками, скачиванием торрентов - проблемы в блокировщике рекламы AdBlock. #хорошегоДня!


Статистика раздачи
Размер:  3.1 GB   |    Зарегистрирован:  1 год 5 месяцев   |    .torrent скачан:  55 раз   |   
Раздают:  1  
   
Загрузка...
 
Автор Сообщение

Galfimbul

avatar Galfimbul



Год выпуска: 2016 | Страна: Япония
Жанр: приключения, мистика
Продолжительность: ONA, 12 эп. по 15 мин.
Перевод: субтитры от Superspring Theory
переводчик: Evafan, oформление: tengri, редакторы: SeeR, Uker
Режиссер: Симбо Акиюки
Студия:
AniDB World Art MAL
Качество: BDRemux
Тип релиза: без хардсаба, без линковки
Формат видео: MKV
Видео: x264, 8 bit, 1920x1080, 23.976fps, 29.7 Mbps
Аудио JAP: FLAC, 48.0 kHz, 2.0 ch, 24 bit, 1350 Kbps
Аудио JAP: FLAC, 48.0 kHz, 2.0 ch, 24 bit, 1350 Kbps [Commentary]
Описание: Новелла "Koyomimonogatari" - сборник, состоящий из 12 коротких рассказов, каждый из которых соответствует определённому месяцу года. Расположены они в хронологическом порядке, начиная с нового триместра (после того, как Коёми столкнулся с прекрасным вампиром на весенних каникулах) и заканчивая экзаменами в университете.
GeneralUnique ID : 223793763940429063716951979365605687948 (0xA85D1C73471FCA1581CED24BD27DC28C)Complete name : D:\anime\Koyomimonogatari [BDRemux]\Koyomimonogatari [BDRemux].mkvFormat : MatroskaFormat version : Version 4 / Version 2File size : 3.10 GiBDuration : 13 minOverall bit rate mode : VariableOverall bit rate : 32.3 Mb/sEncoded date : UTC 2016-07-06 10:56:19Writing application : mkvmerge v9.2.0 ('Photograph') 64bitWriting library : libebml v1.3.3 + libmatroska v1.4.4

VideoID : 1Format : AVCFormat/Info : Advanced Video CodecFormat profile : High@L4.1Format settings, CABAC : YesFormat settings, ReFrames : 4 framesCodec ID : V_MPEG4/ISO/AVCDuration : 13 minBit rate mode : VariableBit rate : 29.7 Mb/sMaximum bit rate : 39.0 Mb/sWidth : 1 920 pixelsHeight : 1 080 pixelsDisplay aspect ratio : 16:9Frame rate mode : ConstantFrame rate : 23.976 (24000/1001) FPSColor space : YUVChroma subsampling : 4:2:0Bit depth : 8 bitsScan type : ProgressiveBits/(Pixel*Frame) : 0.598Stream size : 2.85 GiB (92%)Language : JapaneseDefault : YesForced : No

Audio #1ID : 2Format : FLACFormat/Info : Free Lossless Audio CodecCodec ID : A_FLACDuration : 13 minBit rate mode : VariableBit rate : 1 348 kb/sChannel(s) : 2 channelsChannel positions : Front: L RSampling rate : 48.0 kHzFrame rate : 11.719 FPS (4096 spf)Bit depth : 24 bitsStream size : 132 MiB (4%)Writing library : libFLAC 1.3.1 (UTC 2014-11-25)Language : JapaneseDefault : YesForced : No

Audio #2ID : 3Format : FLACFormat/Info : Free Lossless Audio CodecCodec ID : A_FLACDuration : 13 minBit rate mode : VariableBit rate : 1 268 kb/sChannel(s) : 2 channelsChannel positions : Front: L RSampling rate : 48.0 kHzFrame rate : 11.719 FPS (4096 spf)Bit depth : 24 bitsStream size : 125 MiB (4%)Title : CommentaryWriting library : libFLAC 1.3.1 (UTC 2014-11-25)Language : JapaneseDefault : NoForced : No
<a href="viewtopic.php?t=5154012" class="postLink">...5154012</a>
<a href="viewtopic.php?t=5251713" class="postLink">...5251713</a>
- BDRemux
1 Koyomi Stone


Трекер:  [ 06-Июл-2016 13:30 ]

  

Скачать .torrent

Размер .torrent файла 31 KB


Размер: 3.1 GB
Хэш (hash) релиза: 23a74e0fb16c8386beff22bb462a6410c1298193
Подписка на обновления:

Торренты, похожие на Истории Коёми Koyomimonogatari скачать торрент

Форум Название Автор Размер S L Добавлен
Аниме | HD Rips ·· Истории Коёми / Koyomimonogatari / Хроника Коёми [ONA] [12 из 12] [Без хардсаба] [JAP+SUB] [2016, приключения, мистика, BDRip] [1080p] Galfimbul 87537519868.15 GB 4 0 1500917499

20:31

24-Июл-17

Аниме | HD Rips ·· Истории Коёми / Koyomimonogatari / Хроника Коёми [ONA] [12 из 12] [Без хардсаба] [JAP+SUB] [2016 г., приключения, мистика, BDRemux] [1080p] Galfimbul 3817127982435.55 GB 0 0 1468515776

20:02

14-Июл-16

Аниме | HD Rips ·· Истории Коёми / Koyomimonogatari / Хроника Коёми [ONA] [12 из 12] [Без хардсаба] [JAP+SUB] [2016 г., приключения, мистика, BDRip] [720p] Galfimbul 57118805335.32 GB 0 0 1468513543

19:25

14-Июл-16

Аниме | HD Rips ·· Истории Коёми / Koyomimonogatari / Хроника Коёми [ONA] [12 из 12] [Без хардсаба] [JAP+SUB] [2016 г., приключения, мистика, BDRip] [1080p] Galfimbul 103228999729.61 GB 0 0 1468513536

19:25

14-Июл-16

Аниме | HD Rips ·· Истории Коёми / Koyomimonogatari / Хроника Коёми [ONA] [01 из 12] [Без хардсаба] [JAP+SUB] [2016 г., приключения, мистика, BDRip] [1080p] Galfimbul 616960519588 MB 0 0 1467835588

23:06

6-Июл-16

Аниме | HD Rips ·· Истории Коёми / Koyomimonogatari / Хроника Коёми [ONA] [01 из 12] [Без хардсаба] [JAP+SUB] [2016 г., приключения, мистика, BDRip] [1080p] Galfimbul 854385252815 MB 0 0 1467795336

11:55

6-Июл-16

Аниме | HD Rips ·· Истории Коёми / Koyomimonogatari / Хроника Коёми [ONA] [01 из 12] [Без хардсаба] [JAP+SUB] [2016 г., приключения, мистика, BDRip] [720p] Galfimbul 212536878203 MB 0 0 1467795316

11:55

6-Июл-16

Аниме | Rips ·· Истории Коёми / Koyomimonogatari / Хроника Коёми (Симбо Акиюки) [ONA] [01 из 12] [Без хардсаба] [JAP+SUB] [2016 г., приключения, мистика, WEBRip] Galfimbul 7424205271 MB 0 0 1453224778

20:32

19-Янв-16

Еще никто не оставлял запись к записи скачать торрент Истории Коёми Koyomimonogatari . Будь первым!

!Обратная связь