Скачать через торрент Мир через хлеб! Pan de Peace! бесплатно Аниме Все серии на русском torrent

Если у вас наблюдаются проблемы со скриншотами, переходом по ссылками, скачиванием торрентов - проблемы в блокировщике рекламы AdBlock. #хорошегоДня!


Статистика раздачи
Размер:  532 MB   |    Зарегистрирован:  1 год 5 месяцев   |    .torrent скачан:  2 раза   |   
Раздают:  1  
   
Загрузка...
 
Автор Сообщение

Galfimbul

avatar Galfimbul


Мир через хлеб! / Pan de Peace!

Страна: Япония
Год выпуска: 2016 г.
Жанр: комедия, повседневность
Тип: TV
Продолжительность: 13 эп. по 5 мин.
Режиссер: Цуджи Хацуки
Студия: Asahi Production

Описание: Сюжет повествует о легкомысленной Минами, которая только-только перешла в старшую школу и по утрам любит заточить буханочку на завтрак. Выпечка приносит ежедневные мир и счастье героине и её одноклассницам — надёжной Ю, занимающейся кондитерским делом Фуюми и независимой Ноа.

Качество: HDTVRip
Тип релиза: Без хардсаба
Формат видео: MР4
Наличие линковки: Нет
Релиз/Автор рипа: Ohys-Raws
Видео: H264, 1280x720, 8bits, 1651kbps, 23.976fps
Аудио: AAC, 2ch, 183kbps, 48kHz Язык Японский
Субтитры: ass, отдельным файлом Язык субтитров русский ; Перевод: Yukio_Sempai ; Редактор: Nyam Maro
Format : MPEG-4Format profile : Base MediaCodec ID : isomFile size : 42.7 MiBDuration : 3mn 15sOverall bit rate mode : VariableOverall bit rate : 1 838 Kbps

VideoID : 1Format : AVCFormat/Info : Advanced Video CodecFormat profile : Main@L4.1Format settings, CABAC : YesFormat settings, ReFrames : 4 framesCodec ID : avc1Codec ID/Info : Advanced Video CodingDuration : 3mn 15sBit rate : 1 651 KbpsMaximum bit rate : 11.7 MbpsWidth : 1 280 pixelsHeight : 720 pixelsDisplay aspect ratio : 16:9Frame rate mode : ConstantFrame rate : 23.976 fpsColor space : YUVChroma subsampling : 4:2:0Bit depth : 8 bitsScan type : ProgressiveBits/(Pixel*Frame) : 0.075Stream size : 38.4 MiB (90%)Writing library : x264 core 148 r2665 a01e339Encoding settings : cabac=1 / ref=3 / deblock=1:0:0 / analyse=0x1:0x111 / me=hex / subme=7 / psy=1 / psy_rd=1.00:0.00 / mixed_ref=1 / me_range=16 / chroma_me=1 / trellis=1 / 8x8dct=0 / cqm=0 / deadzone=21,11 / fast_pskip=1 / chroma_qp_offset=-2 / threads=12 / lookahead_threads=2 / sliced_threads=0 / nr=0 / decimate=1 / interlaced=0 / bluray_compat=0 / constrained_intra=0 / bframes=3 / b_pyramid=2 / b_adapt=1 / b_bias=0 / direct=1 / weightb=1 / open_gop=0 / weightp=2 / keyint=240 / keyint_min=1 / scenecut=40 / intra_refresh=0 / rc_lookahead=40 / rc=crf / mbtree=1 / crf=20.0 / qcomp=0.60 / qpmin=0 / qpmax=69 / qpstep=4 / ip_ratio=1.40 / aq=1:1.50

AudioID : 2Format : AACFormat/Info : Advanced Audio CodecFormat profile : LCCodec ID : 40Duration : 3mn 15sBit rate mode : VariableBit rate : 183 KbpsMaximum bit rate : 248 KbpsChannel count : 2 channelsChannel positions : Front: L RSampling rate : 48.0 KHzCompression mode : LossyStream size : 4.26 MiB (10%)Language : Japanese
1. I Made Bread Buddies
2. This Is a Weapon
3. Fuwa Fuyu Bakery
4. In Pursuit of the Fabled Bread
5. Yuu-chan`s Dream
6. Fuyumi-chan`s Diet
7. The Sick Noa-chan!
8. The New Bakery
9. The Cultural Festival
10. Intriguing Girl
11. Let`s Swim
12. Slumber Party at the Vacation Home
13. Pan de Peace!


Трекер:  [ 07-Июл-2016 16:30 ]

  

Скачать .torrent

Размер .torrent файла 13 KB


Размер: 532 MB
Хэш (hash) релиза: 404ee516e40cfca1aee125b4a129cef6a6050b35
Подписка на обновления:

Торренты, похожие на Мир через хлеб! Pan de Peace! скачать торрент

Форум Название Автор Размер S L Добавлен
Аниме | HD Rips ·· Мир через хлеб! / Pan de Peace! [TV] [13 из 13] [без хардсаба] [JAP+SUB] [2016, комедия, повседневность, BDRemux] [1080p] Galfimbul 1281791354311.94 GB 0 0 1482076948

19:02

18-Дек-16

Аниме | Rips ·· Мир через хлеб! / Pan de Peace! [TV] [13 из 13] [Без хардсаба] [RUS(ext), JAP, SUB] [2016 г., Комедия, Школа, Повседневность, HDTVRip] [720p] Galfimbul 680544042649 MB 0 0 1469729574

21:12

28-Июл-16

Аниме | Rips ·· Мир через хлеб! / Pan de Peace! [TV] [01-12 из 13] [Без хардсаба] [RUS(ext), JAP, SUB] [2016 г., Комедия, Школа, Повседневность, HDTVRip] [720p] Galfimbul 623084716594 MB 0 0 1466960959

20:09

26-Июн-16

Аниме | Rips ·· Мир через хлеб! / Pan de Peace! [TV] [01-11 из 13] [Без хардсаба] [RUS(ext), JAP, SUB] [2016 г., Комедия, Школа, Повседневность, HDTVRip] [720p] Galfimbul 566026974540 MB 0 0 1465848700

23:11

13-Июн-16

Аниме | Rips ·· Мир через хлеб! / Pan de Peace! [TV] [01-10 из 12] [Без хардсаба] [RUS(ext), JAP, SUB] [2016 г., Комедия, Школа, Повседневность, HDTVRip] [720p] Galfimbul 495796004473 MB 0 0 1465421813

00:36

9-Июн-16

Аниме | Rips ·· Мир через хлеб! / Pan de Peace! [TV] [01-09 из 12] [Без хардсаба] [RUS(ext), JAP, SUB] [2016 г., Комедия, Школа, Повседневность, HDTVRip] [720p] Galfimbul 452408339431 MB 0 0 1464650764

02:26

31-Май-16

Аниме | Rips ·· Мир через хлеб! / Pan de Peace! [TV] [01-08 из 12] [Без хардсаба] [RUS(ext), JAP, SUB] [2016 г., Комедия, Школа, Повседневность, HDTVRip] [720p] Galfimbul 409273975390 MB 0 0 1464439485

15:44

28-Май-16

Аниме | Rips ·· Мир через хлеб! / Pan de Peace! [TV] [01-06 из 12] [Без хардсаба] [RUS(ext), JAP, SUB] [2016 г., Комедия, Школа, Повседневность, HDTVRip] [720p] Galfimbul 316050841301 MB 0 0 1463241870

19:04

14-Май-16

Аниме | Rips ·· Мир через хлеб! / Pan de Peace! [TV] [01-05 из 12] [Без хардсаба] [RUS(ext), JAP, SUB] [2016 г., Комедия, Школа, Повседневность, HDTVRip] [720p] Galfimbul 263887277252 MB 0 0 1462280371

15:59

3-Май-16

Аниме | Rips ·· Мир через хлеб! / Pan de Peace! [TV] [01-04 из 12] [Без хардсаба] [RUS(ext), JAP, SUB] [2016 г., Комедия, Школа, Повседневность, HDTVRip] [720p] Galfimbul 210543425201 MB 0 0 1461852487

17:08

28-Апр-16

Еще никто не оставлял запись к записи скачать торрент Мир через хлеб! Pan de Peace! . Будь первым!

!Обратная связь