Скачать через торрент Школьные дни бесплатно Аниме Все серии на русском torrent

Если у вас наблюдаются проблемы со скриншотами, переходом по ссылками, скачиванием торрентов - проблемы в блокировщике рекламы AdBlock. #хорошегоДня!


Статистика раздачи
Размер:  929 MB   |    Зарегистрирован:  1 год 5 месяцев   |    .torrent скачан:  9 раз   |   
Раздают:  1  
   
Загрузка...
 
Автор Сообщение

Galfimbul

avatar Galfimbul


Школьные дни (ОВА-1) / School Days: Valentine Days
Страна: Япония
Год выпуска: 2008
Жанр: комедия
Тип: OVA
Продолжительность: 1 эп. ~19 мин
Озвучка:
Двухголосная (муж./жен.) DJATOM & Arhipoops
Одноголосная (муж.) Алексей Килька
Субтитры:
русские (внешние) ASS полные/надписи
Матадор
Режиссер: Мотонага Кэйтаро
Студия: TNK
Описание:
Все любят Макото! Бедному японскому школьнику несладко приходится в канун Дня Святого Валентина, когда чуть ли не каждая героиня сериала пытается одарить его шоколадом от всей души. Ради этого в игру вступают даже новые персонажи с весьма серьезными намерениями. А самое страшное в том, что ввергнуть Ито-куна в объятия сахарного диабета пытаются не только героини…
© Hollow, World Art
Озвучка DJATOM & Arhipoops из релиза <a href="viewtopic.php?t=2836026" class="postLink">X-Kira</a>
Озвучка Алексей Килька из релиза <a href="viewtopic.php?t=2508994" class="postLink">3nonex</a>
Качество: BDRip
Релиз/Автор рипа: EggPain-Raws & VCB-Studio
Совместимость с бытовыми плеерами: Нет
Наличие линковки: Нет
Тип видео: без хардсаба
Формат: MKV
Видео: x264, 1920x1080, (16/9), ~5800кбит/с, 23.976fps, 10 bit
Аудио #1 (внешняя) русская - AC3, 2 ch, 192кбит/с, 48000Hz DJATOM & Arhipoops
Аудио #2 (внешняя) русская - AC3, 2 ch, 256кбит/с, 48000Hz Алексей Килька
Аудио #3 (в контейнере) японская - FLAC, 2 ch, ~690кбит/с, 48000Hz
* Чтобы смотреть с озвучкой, необходимо из папки к примеру [DJATOM & Arhipoops] переписать файл в папку, где находятся видео файл. Далее, следует запустить плеер и переключиться на mka-дорожку. Подробное описание <a href="viewtopic.php?t=2403326" class="postLink">здесь</a>
* Чтобы смотреть 10-битное видео (10bit), необходимо, исходя из ваших предпочтений используемого проигрывателя, воспользоваться
<a href="viewtopic.php?t=3682344" class="postLink">этой инструкцией.</a>
* Чтобы смотреть с субтитрами, необходимо из папки к примеру [Willy & Hollow] переписать файл в папку, где находятся видео файл. В большинстве плееров, одноимённые субтитры подключатся автоматически.


Общее
Уникальный идентификатор : 247378030844445872481908512377411653286 (0xBA1B46957FF682C49DD6A942AA8ECEA6)
Полное имя : C:\Торренты №2\School Days OVA 1 [BDRip 1080p]\[EggPain-Raws&VCB-Studio] School Days OVA 1 (BDrip 1920x1080 x264-10bit FLAC).mkv
Формат : Matroska
Версия формата : Version 4 / Version 2
Размер файла : 869 Мбайт
Продолжительность : 18 м.
Режим общего битрейта : Переменный
Общий поток : 6510 Кбит/сек
Дата кодирования : UTC 2016-06-26 07:30:27
Программа кодирования : mkvmerge v8.8.0 ('Wind at my back') 64bit
Библиотека кодирования : libebml v1.3.3 + libmatroska v1.4.4

Видео
Идентификатор : 1
Формат : AVC
Формат/Информация : Advanced Video Codec
Профиль формата : High 10@L5.1
Параметр CABAC формата : Да
Параметр ReFrames формата : 9 кадров
Идентификатор кодека : V_MPEG4/ISO/AVC
Продолжительность : 18 м.
Битрейт : 5817 Кбит/сек
Ширина : 1920 пикселей
Высота : 1080 пикселей
Соотношение сторон : 16:9
Режим частоты кадров : Постоянный
Частота кадров : 23,976 (24000/1001) кадра/сек
Цветовое пространство : YUV
Субдискретизация насыщенности : 4:2:0
Битовая глубина : 10 бит
Тип развёртки : Прогрессивная
Бит/(Пиксели*Кадры) : 0.117
Размер потока : 777 Мбайт (89%)
Библиотека кодирования : x264 core 148 r2692+2+42 c1a827b Yuuki [10-bit@all X86_64][GCC 5.3.0]
Настройки программы : cabac=1 / ref=9 / deblock=1:-1:-1 / analyse=0x3:0x133 / me=umh / subme=10 / psy=1 / fade_compensate=0.00 / psy_rd=0.60:0.00 / mixed_ref=1 / me_range=32 / chroma_me=1 / trellis=2 / 8x8dct=1 / cqm=0 / deadzone=21,11 / fast_pskip=0 / chroma_qp_offset=-3 / threads=16 / lookahead_threads=4 / sliced_threads=0 / nr=0 / decimate=0 / interlaced=0 / bluray_compat=0 / constrained_intra=0 / fgo=0 / bframes=10 / b_pyramid=2 / b_adapt=2 / b_bias=0 / direct=3 / weightb=1 / open_gop=0 / weightp=2 / keyint=240 / keyint_min=1 / scenecut=40 / intra_refresh=0 / rc_lookahead=72 / rc=crf / mbtree=0 / crf=17.0000 / qcomp=0.70 / qpmin=0:0:0 / qpmax=81:81:81 / qpstep=4 / vbv_maxrate=28000 / vbv_bufsize=32000 / crf_max=0.0 / nal_hrd=none / filler=0 / ip_ratio=1.40 / pb_ratio=1.30 / aq=3:0.80
Язык : English
Default : Да
Forced : Нет
Цветовой диапазон : Limited
Коэффициенты матрицы : BT.709

Аудио
Идентификатор : 2
Формат : FLAC
Формат/Информация : Free Lossless Audio Codec
Идентификатор кодека : A_FLAC
Продолжительность : 18 м.
Вид битрейта : Переменный
Битрейт : 691 Кбит/сек
Каналы : 2 канала
Расположение каналов : Front: L R
Частота : 48,0 КГц
Частота кадров : 11,719 кадров/сек (4096 spf)
Битовая глубина : 16 бит
Размер потока : 92,2 Мбайт (11%)
Библиотека кодирования : libFLAC 1.2.1 (UTC 2007-09-17)
Язык : Japanese
Default : Да
Forced : Нет

Меню
00:00:00.000 : en:CHAPTER01
00:02:31.017 : en:CHAPTER02
00:04:00.974 : en:CHAPTER03
00:16:41.000 : en:CHAPTER04

<a href="viewtopic.php?t=5163040" class="postLink">ТВ</a> <a href="viewtopic.php?t=5163057" class="postLink">ОВА 2</a>

Трекер:  [ 08-Июл-2016 12:00 ]

  

Скачать .torrent

Размер .torrent файла 19 KB


Размер: 929 MB
Хэш (hash) релиза: 529b716a711566442e46e417f83ad8cd9a565969
Подписка на обновления:

Торренты, похожие на Школьные дни скачать торрент

Форум Название Автор Размер S L Добавлен
Аниме | HD Rips ·· Школьные дни (ТВ) / School Days (Мотонага Кэйтаро) [TV] [12 из 12] [без хардсаба] [RUS(ext),JAP+SUB] [2007 г., романтика, драма, школа, BDRip] [1080p] Galfimbul 1492124970013.9 GB 0 0 1467972187

13:03

8-Июл-16

Аниме | HD Rips ·· Школьные дни (ОВА-2) / School Days: Magical Heart Kokoro-chan (Мотонага Кэйтаро) [OVA] [1 из 1] [без хардсаба] [RUS(ext),JAP+SUB] [2008 г., комедия, махо-сёдзё, BDRip] [1080p] Galfimbul 14731508391.37 GB 0 0 1467972143

13:02

8-Июл-16

Аниме | HD Rips ·· Школьные дни (ОВА-1) / School Days: Valentine Days (Мотонага Кэйтаро) [OVA] [1 из 1] [без хардсаба] [RUS(ext),JAP+SUB] [2008 г., комедия, BDRip] [1080p] Galfimbul 1043087991995 MB 0 0 1454353191

21:59

1-Фев-16

Аниме | HD Rips ·· Школьные дни (ОВА-2) / School Days: Magical Heart Kokoro-chan (Мотонага Кэйтаро) [OVA] [1 из 1] [без хардсаба] [RUS(ext),JAP+SUB] [2008 г., комедия, махо-сёдзё, BDRip] [1080p] Galfimbul 14554352761.36 GB 0 0 1454351625

21:33

1-Фев-16

Аниме | HD Rips ·· Школьные дни (ТВ) / School Days (Мотонага Кэйтаро) [TV] [12 из 12] [без хардсаба] [RUS(ext),JAP+SUB] [2007 г., романтика, драма, школа, BDRip] [1080p] Galfimbul 1439794058813.41 GB 0 0 1454349842

21:04

1-Фев-16

Аниме | DVD ·· Школьные дни OVA-2 / School Days: Magical Heart Kokoro-chan (Мотонага Кэйтаро) [OVA][RUS,JAP+SUB][2008 г., комедия, махо-сёдзё, DVD5] L 49450491604.61 GB 0 0 1364659345

19:02

30-Мар-13

Аниме | Rips ·· Школьные дни: Магическое Сердце Короко-чан / School Days: Magical Heart Kokoro-chan (Мотонага Кэйтаро)[OVA][1 из 1][без хардсаба][RUS(int),JAP+SUB][2008 г.,комедия, школа, романтика,этти] L 367939284351 MB 0 0 1364659274

19:01

30-Мар-13

Аниме | Rips ·· Школьные дни OVA-2 / School Days: Magical Heart Kokoro-chan (Мотонага Кэйтаро) (RAW) [RUS,JAP] [2008 г., комедия, махо-сёдзё, DVDRip] L 164663296157 MB 0 0 1364659266

19:01

30-Мар-13

Аниме | DVD ·· Школьные дни / School Days [TV] [6-12 из 12(Диски 3-6 из 6)] [JAP,RUS+SUB] [2007 г., романтика, драма, школа, 4xDVD5][Любительская] Galfimbul 1377047345512.82 GB 0 0 1310318703

20:25

10-Июл-11

Манга ·· [САКАДЗУКИ Хомарэ / SAKAZUKI Homare] Школьные дни / School days [2007] [романтика, драма, школа] [тома 1-2] [главы 1-12] [complete] Night Terror 9824871094 MB 0 0 1291017293

10:54

29-Ноя-10

Аниме | Rips ·· School Days: Valentine Days / Школьные дни OVA-1[OVA] [1 из 1] [RUS(int), JAP+SUB] [2008г.] [Комедия, школа, романтика] [DVDRip] [Любительская] Владыка 246326033235 MB 0 0 1290021833

22:23

17-Ноя-10

Еще никто не оставлял запись к записи скачать торрент Школьные дни . Будь первым!

!Обратная связь