Скачать через торрент музыку Алмаз семи звезд The Awakening бесплатно без регистрации torrent

Если у вас наблюдаются проблемы со скриншотами, переходом по ссылками, скачиванием торрентов - проблемы в блокировщике рекламы AdBlock. #хорошегоДня!


Статистика раздачи
Размер:  268 MB   |    Зарегистрирован:  1 год 4 месяца   |    .torrent скачан:  6 раз   |   
Раздают:  1  
   
Загрузка...
 
Автор Сообщение

Galfimbul

avatar Galfimbul


Алмаз семи звезд ● The Awakening
ЖанрGenre: Score
КомпозиторComposer: Claude Bolling
Год выпуска дискаCD release: 2016
Год выпуска фильмаMovie release: 1980
Производитель дискаCD manufacturer: Optical Discs, Spain
Издатель (лейбл)Label: Qurtet Records
Номер по каталогуCatalog #: QR225
АудиокодекCodec: FLAC (*.flac)
Тип рипаRip type: tracks+.cue
Битрейт аудиоBit rate: lossless
ПродолжительностьDuration: 00:55:45
ИсточникSource: собственный рип ● own rip - Release # FX-341
Наличие сканов в раздачeScans included: 600 dpi JPG
СсылкиLinks: Кинопоиск | IMDB | Wikipedia | SoundtrackCollector
MP3: <a href="viewtopic.php?t=5256158" class="postLink">(Score) Алмаз семи звезд / The Awakening (by Claude Bolling) - 2016 (1980), MP3 (tracks) 320 kbps</a>
Claude Bolling: <a href="tracker.php?f=786&nm=Claude+Bolling" class="postLink">lossless</a> | <a href="tracker.php?f=785&nm=Claude+Bolling" class="postLink">lossy</a>
01. Queen Kara [0:04:04.27]
02. Heroglyphics [0:03:01.41]
03. The Inner Tomb [0:02:36.04]
04. Hadmid’s Last Judgement [0:02:55.47]
05. The Eclipse [0:02:16.41]
06. She Has A Name [0:01:32.30]
07. Kara’s Will [0:02:07.58]
08. The Mirror [0:02:29.13]
09. The Kiss [0:02:20.62]
10. Corbeck’s Garden [0:02:39.14]
11. The Sirdab [0:01:46.29]
12. Jane’s Discovery [0:03:20.21]
13. Mind Over Matter [0:01:51.06]
14. Jane’s Betrayal [0:01:55.59]
15. Big Drop [0:03:35.71]
16. Body Snatching Ceremony [0:02:17.45]
17. Psychiatrist’s Death [0:03:36.72]
18. The Ceremony / Queen Kara (Finale) [0:08:19.44]
19. Queen Kara (Film Version, with shawm) [0:02:56.43]
Exact Audio Copy V1.1 from 23. June 2015

EAC extraction logfile from 16. July 2016, 22:22

Claude Bolling / The Awakening

Used drive : PLEXTOR CD-R PX-230A Adapter: 1 ID: 0

Read mode : SecureUtilize accurate stream : YesDefeat audio cache : YesMake use of C2 pointers : No

Read offset correction : 738Overread into Lead-In and Lead-Out : NoFill up missing offset samples with silence : YesDelete leading and trailing silent blocks : NoNull samples used in CRC calculations : YesUsed interface : Native Win32 interface for Win NT & 2000Gap handling : Appended to previous track

Used output format : User Defined EncoderSelected bitrate : 1024 kBit/sQuality : HighAdd ID3 tag : NoCommand line compressor : C:\Program Files (x86)\Exact Audio Copy\FLAC\FLAC.EXEAdditional command line options : -6 -V -T "ARTIST=%artist%" -T "TITLE=%title%" -T "ALBUM=%albumtitle%" -T "DATE=%year%"-T "TRACKNUMBER=%tracknr%" -T "GENRE=%genre%" -T "COMMENT=%comment%" -T "ALBUMARTIST=%albuminterpret%" -T "COMPOSER=%composer%"-T "DISCNUMBER=%cdnumber%" -T "TOTALDISCS=%totalcds%" -T "TOTALTRACKS=%numtracks%" %source% -o %dest%

TOC of the extracted CD

Track | Start | Length | Start sector | End sector --------------------------------------------------------- 1 | 0:00.00 | 4:04.27 | 0 | 18326 2 | 4:04.27 | 3:01.41 | 18327 | 31942 3 | 7:05.68 | 2:36.04 | 31943 | 43646 4 | 9:41.72 | 2:55.47 | 43647 | 56818 5 | 12:37.44 | 2:16.41 | 56819 | 67059 6 | 14:54.10 | 1:32.30 | 67060 | 73989 7 | 16:26.40 | 2:07.58 | 73990 | 83572 8 | 18:34.23 | 2:29.13 | 83573 | 94760 9 | 21:03.36 | 2:20.62 | 94761 | 105322 10 | 23:24.23 | 2:39.14 | 105323 | 117261 11 | 26:03.37 | 1:46.29 | 117262 | 125240 12 | 27:49.66 | 3:20.21 | 125241 | 140261 13 | 31:10.12 | 1:51.06 | 140262 | 148592 14 | 33:01.18 | 1:55.59 | 148593 | 157276 15 | 34:57.02 | 3:35.71 | 157277 | 173472 16 | 38:32.73 | 2:17.45 | 173473 | 183792 17 | 40:50.43 | 3:36.72 | 183793 | 200064 18 | 44:27.40 | 8:19.44 | 200065 | 237533 19 | 52:47.09 | 2:56.43 | 237534 | 250776

Track 1

Filename C:\Music\01 - Claude Bolling - Queen Kara.wav

Pre-gap length 0:00:02.00

Peak level 93.5 % Extraction speed 3.3 X Track quality 99.9 % Test CRC 2D34EDE7 Copy CRC 2D34EDE7 Accurately ripped (confidence 2) [0DFFACA1] (AR v2) Copy OK

Track 2

Filename C:\Music\02 - Claude Bolling - Heroglyphics.wav

Peak level 97.7 % Extraction speed 3.1 X Track quality 100.0 % Test CRC 78D4B813 Copy CRC 78D4B813 Accurately ripped (confidence 2) [F91E5AEB] (AR v2) Copy OK

Track 3

Filename C:\Music\03 - Claude Bolling - The Inner Tomb.wav

Peak level 77.2 % Extraction speed 2.7 X Track quality 99.9 % Test CRC B4502DCF Copy CRC B4502DCF Accurately ripped (confidence 2) [BACD017B] (AR v2) Copy OK

Track 4

Filename C:\Music\04 - Claude Bolling - Hadmid’s Last Judgement.wav

Peak level 97.7 % Extraction speed 2.9 X Track quality 99.9 % Test CRC DF77280C Copy CRC DF77280C Accurately ripped (confidence 2) [3839C861] (AR v2) Copy OK

Track 5

Filename C:\Music\05 - Claude Bolling - The Eclipse.wav

Peak level 97.7 % Extraction speed 3.1 X Track quality 100.0 % Test CRC 32B0BEF1 Copy CRC 32B0BEF1 Accurately ripped (confidence 2) [9817ABAE] (AR v2) Copy OK

Track 6

Filename C:\Music\06 - Claude Bolling - She Has A Name.wav

Peak level 76.8 % Extraction speed 2.8 X Track quality 100.0 % Test CRC 74F8EE55 Copy CRC 74F8EE55 Accurately ripped (confidence 2) [F2328509] (AR v2) Copy OK

Track 7

Filename C:\Music\07 - Claude Bolling - Kara’s Will.wav

Peak level 86.3 % Extraction speed 2.4 X Track quality 99.9 % Test CRC 61F868B4 Copy CRC 61F868B4 Accurately ripped (confidence 2) [4952C159] (AR v2) Copy OK

Track 8

Filename C:\Music\08 - Claude Bolling - The Mirror.wav

Peak level 65.5 % Extraction speed 2.9 X Track quality 100.0 % Test CRC 7CDAFBD3 Copy CRC 7CDAFBD3 Accurately ripped (confidence 2) [4B4EB8FD] (AR v2) Copy OK

Track 9

Filename C:\Music\09 - Claude Bolling - The Kiss.wav

Peak level 97.6 % Extraction speed 2.7 X Track quality 100.0 % Test CRC 4865FC32 Copy CRC 4865FC32 Accurately ripped (confidence 2) [CF607601] (AR v2) Copy OK

Track 10

Filename C:\Music\10 - Claude Bolling - Corbeck’s Garden.wav

Peak level 90.9 % Extraction speed 2.6 X Track quality 100.0 % Test CRC FB93A7E9 Copy CRC FB93A7E9 Accurately ripped (confidence 2) [22707975] (AR v2) Copy OK

Track 11

Filename C:\Music\11 - Claude Bolling - The Sirdab.wav

Peak level 96.8 % Extraction speed 3.2 X Track quality 100.0 % Test CRC C72FB7A0 Copy CRC C72FB7A0 Accurately ripped (confidence 2) [CFDD63FF] (AR v2) Copy OK

Track 12

Filename C:\Music\12 - Claude Bolling - Jane’s Discovery.wav

Peak level 70.9 % Extraction speed 3.3 X Track quality 100.0 % Test CRC B61751BC Copy CRC B61751BC Accurately ripped (confidence 2) [34FD9B08] (AR v2) Copy OK

Track 13

Filename C:\Music\13 - Claude Bolling - Mind Over Matter.wav

Peak level 75.8 % Extraction speed 2.9 X Track quality 100.0 % Test CRC EBECFC10 Copy CRC EBECFC10 Accurately ripped (confidence 2) [000B209E] (AR v2) Copy OK

Track 14

Filename C:\Music\14 - Claude Bolling - Jane’s Betrayal.wav

Peak level 75.2 % Extraction speed 3.0 X Track quality 100.0 % Test CRC E5E859D8 Copy CRC E5E859D8 Accurately ripped (confidence 2) [78324AD7] (AR v2) Copy OK

Track 15

Filename C:\Music\15 - Claude Bolling - Big Drop.wav

Peak level 97.7 % Extraction speed 3.1 X Track quality 100.0 % Test CRC B7576C4E Copy CRC B7576C4E Accurately ripped (confidence 2) [4558E85E] (AR v2) Copy OK

Track 16

Filename C:\Music\16 - Claude Bolling - Body Snatching Ceremony.wav

Peak level 61.4 % Extraction speed 2.9 X Track quality 100.0 % Test CRC 598B5515 Copy CRC 598B5515 Accurately ripped (confidence 2) [DDEEFA31] (AR v2) Copy OK

Track 17

Filename C:\Music\17 - Claude Bolling - Psychiatrist’s Death.wav

Peak level 97.2 % Extraction speed 3.8 X Track quality 100.0 % Test CRC 50DD4446 Copy CRC 50DD4446 Accurately ripped (confidence 2) [F6CCF927] (AR v2) Copy OK

Track 18

Filename C:\Music\18 - Claude Bolling - The Ceremony , Queen Kara (Finale).wav

Peak level 97.7 % Extraction speed 3.9 X Track quality 100.0 % Test CRC 920E0151 Copy CRC 920E0151 Accurately ripped (confidence 2) [09AF11DE] (AR v2) Copy OK

Track 19

Filename C:\Music\19 - Claude Bolling - Queen Kara (Film Version, with shawm).wav

Peak level 78.5 % Extraction speed 2.8 X Track quality 100.0 % Test CRC C99FFCCD Copy CRC C99FFCCD Accurately ripped (confidence 2) [4612398C] (AR v2) Copy OK

All tracks accurately ripped

No errors occurred

End of status report

---- CUETools DB Plugin V2.1.6

[CTDB TOCID: ihUF84z3sPAFjBLsqWvEZoEBwoQ-] foundSubmit result: ihUF84z3sPAFjBLsqWvEZoEBwoQ- has been confirmedTrack | CTDB Status 1 | (4/4) Accurately ripped 2 | (4/4) Accurately ripped 3 | (4/4) Accurately ripped 4 | (4/4) Accurately ripped 5 | (4/4) Accurately ripped 6 | (4/4) Accurately ripped 7 | (4/4) Accurately ripped 8 | (4/4) Accurately ripped 9 | (4/4) Accurately ripped 10 | (4/4) Accurately ripped 11 | (4/4) Accurately ripped 12 | (4/4) Accurately ripped 13 | (4/4) Accurately ripped 14 | (4/4) Accurately ripped 15 | (4/4) Accurately ripped 16 | (4/4) Accurately ripped 17 | (4/4) Accurately ripped 18 | (4/4) Accurately ripped 19 | (4/4) Accurately ripped

==== Log checksum FA3541A39ED76D3B542B82B7FFCA26F7861EC237BB0BD4587D55104D823D1573 ====
REM GENRE SoundtrackREM DATE 1980REM DISCID 2F0D0F13REM COMMENT "ExactAudioCopy v1.1 - Release # FX-341"PERFORMER "Claude Bolling"TITLE "The Awakening"FILE "01 - Claude Bolling - Queen Kara.wav" WAVE TRACK 01 AUDIO TITLE "Queen Kara" PERFORMER "Claude Bolling" INDEX 01 00:00:00FILE "02 - Claude Bolling - Heroglyphics.wav" WAVE TRACK 02 AUDIO TITLE "Heroglyphics" PERFORMER "Claude Bolling" INDEX 01 00:00:00FILE "03 - Claude Bolling - The Inner Tomb.wav" WAVE TRACK 03 AUDIO TITLE "The Inner Tomb" PERFORMER "Claude Bolling" INDEX 01 00:00:00FILE "04 - Claude Bolling - Hadmid’s Last Judgement.wav" WAVE TRACK 04 AUDIO TITLE "Hadmid’s Last Judgement" PERFORMER "Claude Bolling" INDEX 01 00:00:00FILE "05 - Claude Bolling - The Eclipse.wav" WAVE TRACK 05 AUDIO TITLE "The Eclipse" PERFORMER "Claude Bolling" INDEX 01 00:00:00FILE "06 - Claude Bolling - She Has A Name.wav" WAVE TRACK 06 AUDIO TITLE "She Has A Name" PERFORMER "Claude Bolling" INDEX 01 00:00:00FILE "07 - Claude Bolling - Kara’s Will.wav" WAVE TRACK 07 AUDIO TITLE "Kara’s Will" PERFORMER "Claude Bolling" INDEX 01 00:00:00FILE "08 - Claude Bolling - The Mirror.wav" WAVE TRACK 08 AUDIO TITLE "The Mirror" PERFORMER "Claude Bolling" INDEX 01 00:00:00FILE "09 - Claude Bolling - The Kiss.wav" WAVE TRACK 09 AUDIO TITLE "The Kiss" PERFORMER "Claude Bolling" INDEX 01 00:00:00FILE "10 - Claude Bolling - Corbeck’s Garden.wav" WAVE TRACK 10 AUDIO TITLE "Corbeck’s Garden" PERFORMER "Claude Bolling" INDEX 01 00:00:00FILE "11 - Claude Bolling - The Sirdab.wav" WAVE TRACK 11 AUDIO TITLE "The Sirdab" PERFORMER "Claude Bolling" INDEX 01 00:00:00FILE "12 - Claude Bolling - Jane’s Discovery.wav" WAVE TRACK 12 AUDIO TITLE "Jane’s Discovery" PERFORMER "Claude Bolling" INDEX 01 00:00:00FILE "13 - Claude Bolling - Mind Over Matter.wav" WAVE TRACK 13 AUDIO TITLE "Mind Over Matter" PERFORMER "Claude Bolling" INDEX 01 00:00:00FILE "14 - Claude Bolling - Jane’s Betrayal.wav" WAVE TRACK 14 AUDIO TITLE "Jane’s Betrayal" PERFORMER "Claude Bolling" INDEX 01 00:00:00FILE "15 - Claude Bolling - Big Drop.wav" WAVE TRACK 15 AUDIO TITLE "Big Drop" PERFORMER "Claude Bolling" INDEX 01 00:00:00FILE "16 - Claude Bolling - Body Snatching Ceremony.wav" WAVE TRACK 16 AUDIO TITLE "Body Snatching Ceremony" PERFORMER "Claude Bolling" INDEX 01 00:00:00FILE "17 - Claude Bolling - Psychiatrist’s Death.wav" WAVE TRACK 17 AUDIO TITLE "Psychiatrist’s Death" PERFORMER "Claude Bolling" INDEX 01 00:00:00FILE "18 - Claude Bolling - The Ceremony , Queen Kara (Finale).wav" WAVE TRACK 18 AUDIO TITLE "The Ceremony / Queen Kara (Finale)" PERFORMER "Claude Bolling" INDEX 01 00:00:00FILE "19 - Claude Bolling - Queen Kara (Film Version, with shawm).wav" WAVE TRACK 19 AUDIO TITLE "Queen Kara (Film Version, with shawm)" PERFORMER "Claude Bolling" INDEX 01 00:00:00


Трекер:  [ 17-Июл-2016 07:30 ]

  

Скачать .torrent

Размер .torrent файла 13 KB


Размер: 268 MB
Хэш (hash) релиза: b0c60daf4540a5acdd31e6741afd4abb52ce6123

Торренты, похожие на Алмаз семи звезд The Awakening скачать торрент

Форум Название Автор Размер S L Добавлен
Саундтреки к фильмам и мультфильмам (mp3) ·· (Score) Алмаз семи звезд / The Awakening (by Claude Bolling) - 2016 (1980), MP3 (tracks) 320 kbps Galfimbul 166831729159 MB 0 0 1468771730

19:08

17-Июл-16

Саундтреки к фильмам и мультфильмам (mp3) ·· (Score) Алмаз семи звёзд / Пробуждение / Воскрешение / The Awakening (by Claude Bolling) - 1980 [LP], MP3, 256 kbps Galfimbul 7759718974 MB 0 0 1364763201

23:53

31-Мар-13

Еще никто не оставлял запись к записи скачать торрент Алмаз семи звезд The Awakening . Будь первым!

!Обратная связь