Скачать через торрент музыку VA - Взрыв из прошлого Blast from the Past - 1999, FLAC бесплатно без регистрации torrent

Если у вас наблюдаются проблемы со скриншотами, переходом по ссылками, скачиванием торрентов - проблемы в блокировщике рекламы AdBlock. #хорошегоДня!


Статистика раздачи
Размер:  306 MB   |    Зарегистрирован:  6 лет 6 месяцев   |    .torrent скачан:  65 раз   |   
Раздают:  1  
   
Загрузка...
 
Автор Сообщение

Galfimbul

avatar Galfimbul


Взрыв из прошлого / Blast from the Past

Жанр: Soundtrack

Год выпуска диска: 1999
Страна-производитель диска: USA
Издатель (лейбл): Capitol
Номер по каталогу: 98690

Аудио кодек: FLAC (*.flac)
Тип рипа: tracks+.cue
Битрейт аудио: lossless
Продолжительность: 00:45:06

Источник: скачано с lztr.us
Наличие сканов в содержимом раздачи: нет

Треклист:
01 - I See The Sun - Tommy Henriksen
02 - So Long Toots - Cherry Poppin' Daddies
03 - Honey Please - Sonichrome
04 - Rhinoceros - Block
05 - Pretty Babies - Dishwalla
06 - I Will Buy You A New Life - Everclear
07 - It's the End of the World As We Know It (And I Feel Fine) - R.E.M.
08 - Trou Macacq - Squirrel Nut Zippers
09 - Zoot Suit - Flying Neutrinos
10 - It's A Good Day - Perry Como
11 - Political Science - Randy Newman
12 - A Little Belief - Celeste Prince
13 - Adam & Eve Love Theme - Steve Dorff
 
X Lossless Decoder version 20101128 (126.0)

XLD extraction logfile from 2010-12-02 19:24:04 -0500

Various Artists / Blast From The Past

Used drive : HL-DT-ST DVDRW GS21N (revision SA18)

Ripper mode : CDParanoia III 10.2Disable audio cache : OK for the drive with a cache less than 2750KiBMake use of C2 pointers : NORead offset correction : 667Max retry count : 100Gap status : Analyzed, Appended

TOC of the extracted CD Track | Start | Length | Start sector | End sector --------------------------------------------------------- 1 | 00:00:00 | 03:49:55 | 0 | 17229 2 | 03:49:55 | 02:31:32 | 17230 | 28586 3 | 06:21:12 | 03:48:25 | 28587 | 45711 4 | 10:09:37 | 03:51:00 | 45712 | 63036 5 | 14:00:37 | 05:30:58 | 63037 | 87844 6 | 19:31:20 | 03:57:32 | 87845 | 105651 7 | 23:28:52 | 04:04:35 | 105652 | 123986 8 | 27:33:12 | 03:18:20 | 123987 | 138856 9 | 30:51:32 | 03:39:68 | 138857 | 155349 10 | 34:31:25 | 01:45:15 | 155350 | 163239 11 | 36:16:40 | 02:00:47 | 163240 | 172286 12 | 38:17:12 | 03:30:68 | 172287 | 188104 13 | 41:48:05 | 03:24:00 | 188105 | 203404

List of alternate offset correction values # | Absolute | Relative | Confidence ------------------------------------------ 1 | 1009 | 342 | 3

AccurateRip Summary Track 01 : OK (confidence 7) Track 02 : OK (confidence 7) Track 03 : OK (confidence 7) Track 04 : OK (confidence 7) Track 05 : OK (confidence 7) Track 06 : OK (confidence 7) Track 07 : OK (confidence 6) Track 08 : OK (confidence 6) Track 09 : OK (confidence 7) Track 10 : OK (confidence 7) Track 11 : OK (confidence 7) Track 12 : OK (confidence 6) Track 13 : OK (confidence 6) ->All tracks accurately ripped.

All Tracks Album gain : -7.25 dB Peak : 0.988556 Statistics Read error : 0 Skipped (treated as error) : 0 Edge jitter error (maybe fixed) : 0 Atom jitter error (maybe fixed) : 0 Drift error (maybe fixed) : 0 Dropped bytes error (maybe fixed) : 0 Duplicated bytes error (maybe fixed) : 0

Track 01 Filename : /Users/ALake/Music/XLD/Compilations - Blast From The Past - FLAC/01 - I See the Sun.flac Pre-gap length : 00:02:00

Track gain : -6.35 dB Peak : 0.983917 CRC32 hash (test run) : 463758B7 CRC32 hash : 463758B7 CRC32 hash (skip zero) : 788DF343 AccurateRip signature : B105D3BB ->Accurately ripped! (confidence 7) Statistics Read error : 0 Skipped (treated as error) : 0 Edge jitter error (maybe fixed) : 0 Atom jitter error (maybe fixed) : 0 Drift error (maybe fixed) : 0 Dropped bytes error (maybe fixed) : 0 Duplicated bytes error (maybe fixed) : 0 Inconsistency in error sectors : 0

Track 02 Filename : /Users/ALake/Music/XLD/Compilations - Blast From The Past - FLAC/02 - So Long Toots.flac

Track gain : -8.02 dB Peak : 0.933258 CRC32 hash (test run) : 2AF34746 CRC32 hash : 2AF34746 CRC32 hash (skip zero) : F8E72474 AccurateRip signature : CD766052 ->Accurately ripped! (confidence 7) Statistics Read error : 0 Skipped (treated as error) : 0 Edge jitter error (maybe fixed) : 0 Atom jitter error (maybe fixed) : 0 Drift error (maybe fixed) : 0 Dropped bytes error (maybe fixed) : 0 Duplicated bytes error (maybe fixed) : 0 Inconsistency in error sectors : 0

Track 03 Filename : /Users/ALake/Music/XLD/Compilations - Blast From The Past - FLAC/03 - Honey Please.flac Pre-gap length : 00:01:02

Track gain : -7.52 dB Peak : 0.974640 CRC32 hash (test run) : B52DA988 CRC32 hash : B52DA988 CRC32 hash (skip zero) : 670A3E41 AccurateRip signature : 6EA78C7C ->Accurately ripped! (confidence 7) Statistics Read error : 0 Skipped (treated as error) : 0 Edge jitter error (maybe fixed) : 0 Atom jitter error (maybe fixed) : 0 Drift error (maybe fixed) : 0 Dropped bytes error (maybe fixed) : 0 Duplicated bytes error (maybe fixed) : 0 Inconsistency in error sectors : 0

Track 04 Filename : /Users/ALake/Music/XLD/Compilations - Blast From The Past - FLAC/04 - Rhinoceros.flac Pre-gap length : 00:01:00

Track gain : -7.14 dB Peak : 0.969940 CRC32 hash (test run) : DA2B8615 CRC32 hash : DA2B8615 CRC32 hash (skip zero) : D9E6B64C AccurateRip signature : FFDA580E ->Accurately ripped! (confidence 7) Statistics Read error : 0 Skipped (treated as error) : 0 Edge jitter error (maybe fixed) : 0 Atom jitter error (maybe fixed) : 0 Drift error (maybe fixed) : 0 Dropped bytes error (maybe fixed) : 0 Duplicated bytes error (maybe fixed) : 0 Inconsistency in error sectors : 0

Track 05 Filename : /Users/ALake/Music/XLD/Compilations - Blast From The Past - FLAC/05 - Pretty Babies.flac

Track gain : -6.68 dB Peak : 0.966064 CRC32 hash (test run) : 8239249A CRC32 hash : 8239249A CRC32 hash (skip zero) : 2F26FB36 AccurateRip signature : 3F4C3746 ->Accurately ripped! (confidence 7) Statistics Read error : 0 Skipped (treated as error) : 0 Edge jitter error (maybe fixed) : 0 Atom jitter error (maybe fixed) : 0 Drift error (maybe fixed) : 0 Dropped bytes error (maybe fixed) : 0 Duplicated bytes error (maybe fixed) : 0 Inconsistency in error sectors : 0

Track 06 Filename : /Users/ALake/Music/XLD/Compilations - Blast From The Past - FLAC/06 - I Will Buy You a New Life.flac

Track gain : -7.45 dB Peak : 0.887665 CRC32 hash (test run) : 3C355E11 CRC32 hash : 3C355E11 CRC32 hash (skip zero) : 322D0431 AccurateRip signature : 09DF7014 ->Accurately ripped! (confidence 7) Statistics Read error : 0 Skipped (treated as error) : 0 Edge jitter error (maybe fixed) : 0 Atom jitter error (maybe fixed) : 0 Drift error (maybe fixed) : 0 Dropped bytes error (maybe fixed) : 0 Duplicated bytes error (maybe fixed) : 0 Inconsistency in error sectors : 0

Track 07 Filename : /Users/ALake/Music/XLD/Compilations - Blast From The Past - FLAC/07 - It's the End of the World As We Know It.flac

Track gain : -7.84 dB Peak : 0.988556 CRC32 hash (test run) : B85DAA2C CRC32 hash : B85DAA2C CRC32 hash (skip zero) : 2B5293FB AccurateRip signature : 1AEB3EAD ->Accurately ripped! (confidence 6) Statistics Read error : 0 Skipped (treated as error) : 0 Edge jitter error (maybe fixed) : 0 Atom jitter error (maybe fixed) : 0 Drift error (maybe fixed) : 0 Dropped bytes error (maybe fixed) : 0 Duplicated bytes error (maybe fixed) : 0 Inconsistency in error sectors : 0

Track 08 Filename : /Users/ALake/Music/XLD/Compilations - Blast From The Past - FLAC/08 - Trou Macacq.flac Pre-gap length : 00:01:12

Track gain : -6.95 dB Peak : 0.918762 CRC32 hash (test run) : AFD3478D CRC32 hash : AFD3478D CRC32 hash (skip zero) : 66671125 AccurateRip signature : E8859E91 ->Accurately ripped! (confidence 6) Statistics Read error : 0 Skipped (treated as error) : 0 Edge jitter error (maybe fixed) : 0 Atom jitter error (maybe fixed) : 0 Drift error (maybe fixed) : 0 Dropped bytes error (maybe fixed) : 0 Duplicated bytes error (maybe fixed) : 0 Inconsistency in error sectors : 0

Track 09 Filename : /Users/ALake/Music/XLD/Compilations - Blast From The Past - FLAC/09 - Mr. Zoot Suit.flac Pre-gap length : 00:01:35

Track gain : -7.06 dB Peak : 0.988556 CRC32 hash (test run) : EDEA19D0 CRC32 hash : EDEA19D0 CRC32 hash (skip zero) : 9EC802D3 AccurateRip signature : 09E6BF1A ->Accurately ripped! (confidence 7) Statistics Read error : 0 Skipped (treated as error) : 0 Edge jitter error (maybe fixed) : 0 Atom jitter error (maybe fixed) : 0 Drift error (maybe fixed) : 0 Dropped bytes error (maybe fixed) : 0 Duplicated bytes error (maybe fixed) : 0 Inconsistency in error sectors : 0

Track 10 Filename : /Users/ALake/Music/XLD/Compilations - Blast From The Past - FLAC/10 - It's a Good Day.flac Pre-gap length : 00:01:40

Track gain : -9.52 dB Peak : 0.975922 CRC32 hash (test run) : 1EF78581 CRC32 hash : 1EF78581 CRC32 hash (skip zero) : 3D451C40 AccurateRip signature : ACA99FA1 ->Accurately ripped! (confidence 7) Statistics Read error : 0 Skipped (treated as error) : 0 Edge jitter error (maybe fixed) : 0 Atom jitter error (maybe fixed) : 0 Drift error (maybe fixed) : 0 Dropped bytes error (maybe fixed) : 0 Duplicated bytes error (maybe fixed) : 0 Inconsistency in error sectors : 0

Track 11 Filename : /Users/ALake/Music/XLD/Compilations - Blast From The Past - FLAC/11 - Political Science.flac

Track gain : -5.87 dB Peak : 0.973236 CRC32 hash (test run) : 57BAF811 CRC32 hash : 57BAF811 CRC32 hash (skip zero) : 6D204833 AccurateRip signature : B380490F ->Accurately ripped! (confidence 7) Statistics Read error : 0 Skipped (treated as error) : 0 Edge jitter error (maybe fixed) : 0 Atom jitter error (maybe fixed) : 0 Drift error (maybe fixed) : 0 Dropped bytes error (maybe fixed) : 0 Duplicated bytes error (maybe fixed) : 0 Inconsistency in error sectors : 0

Track 12 Filename : /Users/ALake/Music/XLD/Compilations - Blast From The Past - FLAC/12 - A Little Belief.flac

Track gain : -3.61 dB Peak : 0.948090 CRC32 hash (test run) : ED5C7693 CRC32 hash : ED5C7693 CRC32 hash (skip zero) : 48813E71 AccurateRip signature : 726216F6 ->Accurately ripped! (confidence 6) Statistics Read error : 0 Skipped (treated as error) : 0 Edge jitter error (maybe fixed) : 0 Atom jitter error (maybe fixed) : 0 Drift error (maybe fixed) : 0 Dropped bytes error (maybe fixed) : 0 Duplicated bytes error (maybe fixed) : 0 Inconsistency in error sectors : 0

Track 13 Filename : /Users/ALake/Music/XLD/Compilations - Blast From The Past - FLAC/13 - Adam & Eve Love Theme.flac Pre-gap length : 00:01:63

Track gain : -3.87 dB Peak : 0.969604 CRC32 hash (test run) : FF87DC5D CRC32 hash : FF87DC5D CRC32 hash (skip zero) : DAE68FE9 AccurateRip signature : 202A554D ->Accurately ripped! (confidence 6) Statistics Read error : 0 Skipped (treated as error) : 0 Edge jitter error (maybe fixed) : 0 Atom jitter error (maybe fixed) : 0 Drift error (maybe fixed) : 0 Dropped bytes error (maybe fixed) : 0 Duplicated bytes error (maybe fixed) : 0 Inconsistency in error sectors : 0

No errors occurred

End of status report
 
TITLE "Blast From The Past"CATALOG 0724349869028REM GENRE "Soundtrack"REM DATE 1998REM DISCNUMBER 1REM TOTALDISCS 1REM DISCID 9C0A980DFILE "01 - I See the Sun.wav" WAVE TRACK 01 AUDIO TITLE "I See the Sun" PERFORMER "Tommy Henriksen" ISRC USCA29800856 INDEX 01 00:00:00FILE "02 - So Long Toots.wav" WAVE TRACK 02 AUDIO TITLE "So Long Toots" PERFORMER "Cherry Poppin' Daddies" ISRC USMJ19801657 INDEX 01 00:00:00 TRACK 03 AUDIO TITLE "Honey Please" PERFORMER "Sonichrome" ISRC USCA29800315 INDEX 00 02:30:30FILE "03 - Honey Please.wav" WAVE INDEX 01 00:00:00 TRACK 04 AUDIO TITLE "Rhinoceros" PERFORMER "Block" ISRC USJA19800014 INDEX 00 03:47:25FILE "04 - Rhinoceros.wav" WAVE INDEX 01 00:00:00FILE "05 - Pretty Babies.wav" WAVE TRACK 05 AUDIO TITLE "Pretty Babies" PERFORMER "Dishwalla" ISRC USAM19500644 INDEX 01 00:00:00FILE "06 - I Will Buy You a New Life.wav" WAVE TRACK 06 AUDIO TITLE "I Will Buy You a New Life" PERFORMER "Everclear" ISRC USCA29700206 INDEX 01 00:00:00FILE "07 - It's the End of the World As We Know It.wav" WAVE TRACK 07 AUDIO TITLE "It's the End of the World As We Know It" PERFORMER "R.E.M." ISRC USEM38700020 INDEX 01 00:00:00 TRACK 08 AUDIO TITLE "Trou Macacq" PERFORMER "Squirrel Nut Zippers" INDEX 00 04:03:23FILE "08 - Trou Macacq.wav" WAVE INDEX 01 00:00:00 TRACK 09 AUDIO TITLE "Mr. Zoot Suit" PERFORMER "Flying Neutrinos" ISRC USGR19800138 INDEX 00 03:16:60FILE "09 - Mr. Zoot Suit.wav" WAVE INDEX 01 00:00:00 TRACK 10 AUDIO TITLE "It's a Good Day" PERFORMER "Perry Como" ISRC USRC15508170 INDEX 00 03:38:28FILE "10 - It's a Good Day.wav" WAVE INDEX 01 00:00:00FILE "11 - Political Science.wav" WAVE TRACK 11 AUDIO TITLE "Political Science" PERFORMER "Randy Newman" ISRC USRE19800784 INDEX 01 00:00:00FILE "12 - A Little Belief.wav" WAVE TRACK 12 AUDIO TITLE "A Little Belief" PERFORMER "Celeste Prince" ISRC USJA19800017 INDEX 01 00:00:00 TRACK 13 AUDIO TITLE "Adam & Eve Love Theme" PERFORMER "Steve Dorff" INDEX 00 03:29:05FILE "13 - Adam & Eve Love Theme.wav" WAVE INDEX 01 00:00:00


Трекер:  [ 16-Май-2011 19:49 ]

  

Скачать .torrent

Размер .torrent файла 13 KB


Размер: 306 MB
Хэш (hash) релиза: 12e35c224cbb17357c6e99489abe308acabf7359

Еще никто не оставлял запись к записи скачать торрент VA - Взрыв из прошлого Blast from the Past - 1999, FLAC . Будь первым!

!Обратная связь