Скачать через торрент музыку История одной девушки Historia De Una Chica Sola бесплатно без регистрации torrent

Если у вас наблюдаются проблемы со скриншотами, переходом по ссылками, скачиванием торрентов - проблемы в блокировщике рекламы AdBlock. #хорошегоДня!


Статистика раздачи
Размер:  267 MB   |    Зарегистрирован:  1 год 4 месяца   |    .torrent скачан:  19 раз   |   
Раздают:  1  
   
Загрузка...
 
Автор Сообщение

Galfimbul

avatar Galfimbul


История одной девушки ● Historia De Una Chica Sola ● Story of a Girl Alone
ЖанрGenre: Score
КомпозиторComposer: Angelo Francesco Lavagnino
Год выпуска дискаCD release: 2010
Год выпуска фильмаMovie release: 1969
Производитель дискаCD manufacturer: NovoDisc Group, Spain
Издатель (лейбл)Label: Quartet Records
Номер по каталогуCatalog #: QRSCE008
АудиокодекCodec: FLAC (*.flac)
Тип рипаRip type: tracks+.cue
Битрейт аудиоBit rate: lossless
ПродолжительностьDuration: 00:54:19
ИсточникSource: собственный рип ● own rip - Release # FX-343
Наличие сканов в раздачeScans included: 600 dpi JPG
СсылкиLinks: Кинопоиск | IMDB | Wikipedia | SoundtrackCollector
MP3: <a href="viewtopic.php?t=999999999999" class="postLink">coming soon</a>
01. Ana's Waltz [0:03:36.17]
02. The Red Rolls-Royce [0:01:38.63]
03. Jacques Brel / Ne Me Quitte Pas [0:03:44.32]
04. The Breaking [0:02:20.32]
05. The Tragedy Of A Lover Who Loves [0:03:27.25]
06. Carrousel [0:01:20.67]
07. Oysters And White Wine [0:01:12.64]
08. Several Possibilities [0:01:22.17]
09. Stan & Olie [0:01:18.07]
10. A Girl Alone [0:01:48.26]
11. The Loneliness [0:02:23.27]
12. Shake [0:04:32.49]
13. Piano Source 1 [0:01:23.67]
14. Piano Source 2 [0:01:05.06]
15. Piano Source 3 [0:03:23.55]
16. Piano Source 4 [0:04:50.18]
17. Piano Source 5 [0:01:28.74]
18. Barcelona Kaleidoscope [0:08:27.72]
19. Story Of A Lonely Girl [0:04:55.04]
Exact Audio Copy V1.1 from 23. June 2015

EAC extraction logfile from 19. July 2016, 17:29

Angelo Francesco Lavagnino / Historia De Una Chica Sola

Used drive : PLEXTOR CD-R PX-230A Adapter: 1 ID: 0

Read mode : SecureUtilize accurate stream : YesDefeat audio cache : YesMake use of C2 pointers : No

Read offset correction : 738Overread into Lead-In and Lead-Out : NoFill up missing offset samples with silence : YesDelete leading and trailing silent blocks : NoNull samples used in CRC calculations : YesUsed interface : Native Win32 interface for Win NT & 2000Gap handling : Appended to previous track

Used output format : User Defined EncoderSelected bitrate : 1024 kBit/sQuality : HighAdd ID3 tag : NoCommand line compressor : C:\Program Files (x86)\Exact Audio Copy\FLAC\FLAC.EXEAdditional command line options : -6 -V -T "ARTIST=%artist%" -T "TITLE=%title%" -T "ALBUM=%albumtitle%" -T "DATE=%year%"-T "TRACKNUMBER=%tracknr%" -T "GENRE=%genre%" -T "COMMENT=%comment%" -T "ALBUMARTIST=%albuminterpret%" -T "COMPOSER=%composer%"-T "DISCNUMBER=%cdnumber%" -T "TOTALDISCS=%totalcds%" -T "TOTALTRACKS=%numtracks%" %source% -o %dest%

TOC of the extracted CD

Track | Start | Length | Start sector | End sector --------------------------------------------------------- 1 | 0:00.00 | 3:36.17 | 0 | 16216 2 | 3:36.17 | 1:38.63 | 16217 | 23629 3 | 5:15.05 | 3:44.32 | 23630 | 40461 4 | 8:59.37 | 2:20.32 | 40462 | 50993 5 | 11:19.69 | 3:27.25 | 50994 | 66543 6 | 14:47.19 | 1:20.67 | 66544 | 72610 7 | 16:08.11 | 1:12.64 | 72611 | 78074 8 | 17:21.00 | 1:22.17 | 78075 | 84241 9 | 18:43.17 | 1:18.07 | 84242 | 90098 10 | 20:01.24 | 1:48.26 | 90099 | 98224 11 | 21:49.50 | 2:23.27 | 98225 | 108976 12 | 24:13.02 | 4:32.49 | 108977 | 129425 13 | 28:45.51 | 1:23.67 | 129426 | 135717 14 | 30:09.43 | 1:05.06 | 135718 | 140598 15 | 31:14.49 | 3:23.55 | 140599 | 155878 16 | 34:38.29 | 4:50.18 | 155879 | 177646 17 | 39:28.47 | 1:28.74 | 177647 | 184320 18 | 40:57.46 | 8:27.72 | 184321 | 222417 19 | 49:25.43 | 4:55.04 | 222418 | 244546

Track 1

Filename C:\Music\01 - Angelo Francesco Lavagnino - Ana's Waltz.wav

Pre-gap length 0:00:02.00

Peak level 100.0 % Extraction speed 5.1 X Track quality 100.0 % Test CRC F56B1075 Copy CRC F56B1075 Accurately ripped (confidence 2) [FB9A6152] (AR v2) Copy OK

Track 2

Filename C:\Music\02 - Angelo Francesco Lavagnino - The Red Rolls-Royce.wav

Pre-gap length 0:00:00.71

Peak level 100.0 % Extraction speed 4.5 X Track quality 100.0 % Test CRC 42C7675D Copy CRC 42C7675D Accurately ripped (confidence 2) [A6EF2B20] (AR v2) Copy OK

Track 3

Filename C:\Music\03 - Angelo Francesco Lavagnino - Brel, Jacques , Ne Me Quitte Pas.wav

Pre-gap length 0:00:01.29

Peak level 100.0 % Extraction speed 4.0 X Track quality 99.9 % Test CRC A08AA5B7 Copy CRC A08AA5B7 Accurately ripped (confidence 2) [002B571A] (AR v2) Copy OK

Track 4

Filename C:\Music\04 - Angelo Francesco Lavagnino - The Breaking.wav

Pre-gap length 0:00:02.01

Peak level 100.0 % Extraction speed 3.5 X Track quality 99.9 % Test CRC C0384163 Copy CRC C0384163 Accurately ripped (confidence 2) [551C7392] (AR v2) Copy OK

Track 5

Filename C:\Music\05 - Angelo Francesco Lavagnino - The Tragedy Of A Lover Who Loves.wav

Pre-gap length 0:00:01.62

Peak level 100.0 % Extraction speed 4.2 X Track quality 100.0 % Test CRC 166D4E91 Copy CRC 166D4E91 Accurately ripped (confidence 2) [8AEED066] (AR v2) Copy OK

Track 6

Filename C:\Music\06 - Angelo Francesco Lavagnino - Carrousel.wav

Pre-gap length 0:00:02.10

Peak level 88.7 % Extraction speed 3.6 X Track quality 100.0 % Test CRC C76AC13F Copy CRC C76AC13F Accurately ripped (confidence 2) [4985A154] (AR v2) Copy OK

Track 7

Filename C:\Music\07 - Angelo Francesco Lavagnino - Oysters And White Wine.wav

Pre-gap length 0:00:01.65

Peak level 90.6 % Extraction speed 4.0 X Track quality 100.0 % Test CRC D6A1D258 Copy CRC D6A1D258 Accurately ripped (confidence 2) [DAF5782A] (AR v2) Copy OK

Track 8

Filename C:\Music\08 - Angelo Francesco Lavagnino - Several Possibilities.wav

Pre-gap length 0:00:01.71

Peak level 100.0 % Extraction speed 4.1 X Track quality 100.0 % Test CRC 30209202 Copy CRC 30209202 Accurately ripped (confidence 2) [88915051] (AR v2) Copy OK

Track 9

Filename C:\Music\09 - Angelo Francesco Lavagnino - Stan & Olie.wav

Pre-gap length 0:00:02.01

Peak level 100.0 % Extraction speed 4.1 X Track quality 100.0 % Test CRC C4C8F9F6 Copy CRC C4C8F9F6 Accurately ripped (confidence 2) [7AA97392] (AR v2) Copy OK

Track 10

Filename C:\Music\10 - Angelo Francesco Lavagnino - A Girl Alone.wav

Pre-gap length 0:00:02.00

Peak level 100.0 % Extraction speed 4.5 X Track quality 100.0 % Test CRC 6AD53FF1 Copy CRC 6AD53FF1 Accurately ripped (confidence 2) [10E8A1D5] (AR v2) Copy OK

Track 11

Filename C:\Music\11 - Angelo Francesco Lavagnino - The Loneliness.wav

Pre-gap length 0:00:02.01

Peak level 100.0 % Extraction speed 4.0 X Track quality 100.0 % Test CRC F4D094D1 Copy CRC F4D094D1 Accurately ripped (confidence 2) [5762A6DB] (AR v2) Copy OK

Track 12

Filename C:\Music\12 - Angelo Francesco Lavagnino - Shake.wav

Pre-gap length 0:00:01.69

Peak level 85.0 % Extraction speed 5.0 X Track quality 100.0 % Test CRC A08F84B9 Copy CRC A08F84B9 Accurately ripped (confidence 2) [5D869D67] (AR v2) Copy OK

Track 13

Filename C:\Music\13 - Angelo Francesco Lavagnino - Piano Source 1.wav

Pre-gap length 0:00:04.57

Peak level 99.0 % Extraction speed 4.2 X Track quality 100.0 % Test CRC 62E41CDF Copy CRC 62E41CDF Accurately ripped (confidence 2) [122075C7] (AR v2) Copy OK

Track 14

Filename C:\Music\14 - Angelo Francesco Lavagnino - Piano Source 2.wav

Pre-gap length 0:00:02.31

Peak level 100.0 % Extraction speed 2.7 X Track quality 99.8 % Test CRC D6D7BAED Copy CRC D6D7BAED Accurately ripped (confidence 2) [85FCB2D1] (AR v2) Copy OK

Track 15

Filename C:\Music\15 - Angelo Francesco Lavagnino - Piano Source 3.wav

Pre-gap length 0:00:02.24

Peak level 100.0 % Extraction speed 4.6 X Track quality 100.0 % Test CRC 7F9BB7E1 Copy CRC 7F9BB7E1 Accurately ripped (confidence 2) [FC2AC793] (AR v2) Copy OK

Track 16

Filename C:\Music\16 - Angelo Francesco Lavagnino - Piano Source 4.wav

Pre-gap length 0:00:02.08

Peak level 100.0 % Extraction speed 4.0 X Track quality 100.0 % Test CRC D70B53CE Copy CRC D70B53CE Accurately ripped (confidence 2) [2A4B5631] (AR v2) Copy OK

Track 17

Filename C:\Music\17 - Angelo Francesco Lavagnino - Piano Source 5.wav

Pre-gap length 0:00:02.21

Peak level 89.7 % Extraction speed 2.8 X Track quality 99.8 % Test CRC DD80E185 Copy CRC DD80E185 Accurately ripped (confidence 2) [6030CBC1] (AR v2) Copy OK

Track 18

Filename C:\Music\18 - Angelo Francesco Lavagnino - Barcelona Kaleidoscope.wav

Pre-gap length 0:00:05.69

Peak level 73.1 % Extraction speed 3.5 X Track quality 99.9 % Test CRC 8A6DD472 Copy CRC 8A6DD472 Accurately ripped (confidence 1) [86051330] (AR v2) Copy OK

Track 19

Filename C:\Music\19 - Angelo Francesco Lavagnino - Story Of A Lonely Girl.wav

Pre-gap length 0:00:04.40

Peak level 100.0 % Extraction speed 4.9 X Track quality 100.0 % Test CRC 0B772067 Copy CRC 0B772067 Accurately ripped (confidence 2) [DF9CC3D4] (AR v2) Copy OK

All tracks accurately ripped

No errors occurred

End of status report

---- CUETools DB Plugin V2.1.6

[CTDB TOCID: poTNf.rgG7zedaqtSv4bhvAUReY-] foundSubmit result: poTNf.rgG7zedaqtSv4bhvAUReY- has been confirmedTrack | CTDB Status 1 | (3/3) Accurately ripped 2 | (3/3) Accurately ripped 3 | (3/3) Accurately ripped 4 | (3/3) Accurately ripped 5 | (3/3) Accurately ripped 6 | (3/3) Accurately ripped 7 | (3/3) Accurately ripped 8 | (3/3) Accurately ripped 9 | (3/3) Accurately ripped 10 | (3/3) Accurately ripped 11 | (3/3) Accurately ripped 12 | (3/3) Accurately ripped 13 | (3/3) Accurately ripped 14 | (3/3) Accurately ripped 15 | (3/3) Accurately ripped 16 | (3/3) Accurately ripped 17 | (3/3) Accurately ripped 18 | (2/3) Accurately ripped 19 | (3/3) Accurately ripped

==== Log checksum 70CFF5B0C091E192C32D8D0E45277C8C4C8201C3D21304D14F39B127609BABC3 ====
REM GENRE SoundtrackREM DATE 1969REM DISCID FA0CBC13REM COMMENT "ExactAudioCopy v1.1 - Release # FX-343"PERFORMER "Angelo Francesco Lavagnino"TITLE "Historia De Una Chica Sola"FILE "01 - Ana's Waltz.wav" WAVE TRACK 01 AUDIO TITLE "Ana's Waltz" PERFORMER "Angelo Francesco Lavagnino" INDEX 01 00:00:00 TRACK 02 AUDIO TITLE "The Red Rolls-Royce" PERFORMER "Angelo Francesco Lavagnino" INDEX 00 03:35:21FILE "02 - The Red Rolls-Royce.wav" WAVE INDEX 01 00:00:00 TRACK 03 AUDIO TITLE "Ne Me Quitte Pas" PERFORMER "Jacques Brel" INDEX 00 01:37:34FILE "03 - Brel, Jacques , Ne Me Quitte Pas.wav" WAVE INDEX 01 00:00:00 TRACK 04 AUDIO TITLE "The Breaking" PERFORMER "Angelo Francesco Lavagnino" INDEX 00 03:42:31FILE "04 - The Breaking.wav" WAVE INDEX 01 00:00:00 TRACK 05 AUDIO TITLE "The Tragedy Of A Lover Who Loves" PERFORMER "Angelo Francesco Lavagnino" INDEX 00 02:18:45FILE "05 - The Tragedy Of A Lover Who Loves.wav" WAVE INDEX 01 00:00:00 TRACK 06 AUDIO TITLE "Carrousel" PERFORMER "Angelo Francesco Lavagnino" INDEX 00 03:25:15FILE "06 - Carrousel.wav" WAVE INDEX 01 00:00:00 TRACK 07 AUDIO TITLE "Oysters And White Wine" PERFORMER "Angelo Francesco Lavagnino" INDEX 00 01:19:02FILE "07 - Oysters And White Wine.wav" WAVE INDEX 01 00:00:00 TRACK 08 AUDIO TITLE "Several Possibilities" PERFORMER "Angelo Francesco Lavagnino" INDEX 00 01:10:68FILE "08 - Several Possibilities.wav" WAVE INDEX 01 00:00:00 TRACK 09 AUDIO TITLE "Stan & Olie" PERFORMER "Angelo Francesco Lavagnino" INDEX 00 01:20:16FILE "09 - Stan & Olie.wav" WAVE INDEX 01 00:00:00 TRACK 10 AUDIO TITLE "A Girl Alone" PERFORMER "Angelo Francesco Lavagnino" INDEX 00 01:16:07FILE "10 - A Girl Alone.wav" WAVE INDEX 01 00:00:00 TRACK 11 AUDIO TITLE "The Loneliness" PERFORMER "Angelo Francesco Lavagnino" INDEX 00 01:46:25FILE "11 - The Loneliness.wav" WAVE INDEX 01 00:00:00 TRACK 12 AUDIO TITLE "Shake" PERFORMER "Angelo Francesco Lavagnino" INDEX 00 02:21:33FILE "12 - Shake.wav" WAVE INDEX 01 00:00:00 TRACK 13 AUDIO TITLE "Piano Source 1" PERFORMER "Angelo Francesco Lavagnino" INDEX 00 04:27:67FILE "13 - Piano Source 1.wav" WAVE INDEX 01 00:00:00 TRACK 14 AUDIO TITLE "Piano Source 2" PERFORMER "Angelo Francesco Lavagnino" INDEX 00 01:21:36FILE "14 - Piano Source 2.wav" WAVE INDEX 01 00:00:00 TRACK 15 AUDIO TITLE "Piano Source 3" PERFORMER "Angelo Francesco Lavagnino" INDEX 00 01:02:57FILE "15 - Piano Source 3.wav" WAVE INDEX 01 00:00:00 TRACK 16 AUDIO TITLE "Piano Source 4" PERFORMER "Angelo Francesco Lavagnino" INDEX 00 03:21:47FILE "16 - Piano Source 4.wav" WAVE INDEX 01 00:00:00 TRACK 17 AUDIO TITLE "Piano Source 5" PERFORMER "Angelo Francesco Lavagnino" INDEX 00 04:47:72FILE "17 - Piano Source 5.wav" WAVE INDEX 01 00:00:00 TRACK 18 AUDIO TITLE "Barcelona Kaleidoscope" PERFORMER "Angelo Francesco Lavagnino" INDEX 00 01:23:05FILE "18 - Barcelona Kaleidoscope.wav" WAVE INDEX 01 00:00:00 TRACK 19 AUDIO TITLE "Story Of A Lonely Girl" PERFORMER "Angelo Francesco Lavagnino" INDEX 00 08:23:32FILE "19 - Story Of A Lonely Girl.wav" WAVE INDEX 01 00:00:00


Трекер:  [ 19-Июл-2016 20:00 ]

  

Скачать .torrent

Размер .torrent файла 12 KB


Размер: 267 MB
Хэш (hash) релиза: 037c14688fb0604cdbb88acf386aece26619e1b4

Торренты, похожие на История одной девушки Historia De Una Chica Sola скачать торрент

Форум Название Автор Размер S L Добавлен
Саундтреки к фильмам и мультфильмам (mp3) ·· (Score) История одной девушки / Historia De Una Chica Sola / Story of a Girl Alone (by Angelo Francesco Lavagnino) - 2010 (1969), MP3 (tracks) 320 kbps Galfimbul 148432834142 MB 0 0 1468953671

21:41

19-Июл-16

Еще никто не оставлял запись к записи скачать торрент История одной девушки Historia De Una Chica Sola . Будь первым!

!Обратная связь