Скачать через торрент музыку Супермен Superman: The Animated Series бесплатно без регистрации torrent

Если у вас наблюдаются проблемы со скриншотами, переходом по ссылками, скачиванием торрентов - проблемы в блокировщике рекламы AdBlock. #хорошегоДня!


Статистика раздачи
Размер:  1.62 GB   |    Зарегистрирован:  1 год 4 месяца   |    .torrent скачан:  14 раз   |   
Раздают:  1  
   
Загрузка...
 
Автор Сообщение

Galfimbul

avatar Galfimbul


Супермен / Superman: The Animated Series
Жанр: Score
Композитор: Kristopher Carter
Год выпуска диска: 2014
Год выпуска фильма: 1996-2000

Страна-производитель диска: USA
Издатель (лейбл): La-La Land Records
Номер по каталогу: LLLCD 1276
Аудиокодек: FLAC (*.flac)

Тип рипа: tracks+.cue
Битрейт аудио: lossless
Продолжительность: 05:15:26
Источник: скачано с what.cd
Наличие сканов в содержимом раздачи: да
01 - Shirley Walker - Superman: The Animated Series - Main Title

The Last Son of Krypton, Part I
02 - Lolita Ritmanis - Krypton Opening / Monster Attack
03 - Lolita Ritmanis - Family Theme
04 - Lolita Ritmanis - Earthquake / Jor-El Appeals
05 - Lolita Ritmanis - Brainiac Confrontation
06 - Lolita Ritmanis - Jor-El Escapes Arrest / Jor-El Outside
07 - Lolita Ritmanis - Decision to Send Kal-El
08 - Lolita Ritmanis - Brainiac Leaves Krypton / Kal-El Leaves Krypton

The Last Son of Krypton, Part II
09 - Michael McCuistion - Recap (The Last Son of Krypton, Part II)
10 - Michael McCuistion - Kal-El Lands on Earth / Couple Find Kal-El
11 - Michael McCuistion - Clark's Abilities / Clark Meets His Parents
12 - Michael McCuistion - Clark's First Flight
13 - Michael McCuistion - News Program Source
14 - Michael McCuistion - Industrial Film Source
15 - Michael McCuistion - Superman Rescues Lois / Missile Hits Airliner

The Last Son of Krypton, Part III
16 - Harvey R. Cohen - Recap (The Last Son of Krypton, Part III)
17 - Harvey R. Cohen - Superman Saves Airliner
18 - Harvey R. Cohen - Clark's Identity Crisis
19 - Harvey R. Cohen - Lois Abducts Bibbo / Lois Meets John
20 - Harvey R. Cohen - Clark Recognizes Ship / Orders to Kill Lois
21 - Harvey R. Cohen - Robot Loose in City
22 - Harvey R. Cohen - Lois Gets Story

Monkey Fun
23 - Lolita Ritmanis - Family Pet
24 - Lolita Ritmanis - Titano Lost and Found
25 - Lolita Ritmanis - Monkey Business / Babysitting with Fleas / Bacteria Attack
26 - Lolita Ritmanis - Jimmy Runs Away
27 - Lolita Ritmanis - Monkeys on the Loose / Superman Cages Lions
28 - Lolita Ritmanis - Titano at the Dock
29 - Lolita Ritmanis - Titano / Amusement Park
30 - Lolita Ritmanis - Superman vs. Titano
31 - Lolita Ritmanis - Pop Goes the Weasel
32 - Lolita Ritmanis - Titano Relocated

Tools of the Trade
33 - Kristopher Carter - Tank Attack
34 - Kristopher Carter - Meet Kanto / Mannheim Gets Gloves
35 - Kristopher Carter - Train Wreck / Train Robbery
36 - Kristopher Carter - To the Rescue
37 - Kristopher Carter - Tuprin Resigns
38 - Kristopher Carter - Prisoner Turpin / Superman Finds Turpin / Turpin Saves Superman
39 - Kristopher Carter - Superman Thanks Turpin / Planet Apokolips
40 - Kristopher Carter - Train Wreck / Train Robbery (Alternate) [Bonus Track]

41 - Shirley Walker - Superman - The Animated Series - Video End Credits

The Last Son of Krypton, Part III (Bonus Music and Effects Track)
42 - Harvey R. Cohen, Michael McCuistion and Lolita Ritmanis - Superman Destroys Robot / Superman Spurns Lex / Brainiac Returns
Exact Audio Copy V1.0 beta 3 from 29. August 2011

EAC extraction logfile from 7. February 2014, 15:47

Shirley Walker / Superman: The Animated Series OST Disc 1

Used drive : MATSHITADVD-RAM UJ8B0 Adapter: 0 ID: 0

Read mode : SecureUtilize accurate stream : YesDefeat audio cache : NoMake use of C2 pointers : No

Read offset correction : 102Overread into Lead-In and Lead-Out : NoFill up missing offset samples with silence : YesDelete leading and trailing silent blocks : NoNull samples used in CRC calculations : YesUsed interface : Native Win32 interface for Win NT & 2000Gap handling : Appended to previous track

Used output format : User Defined EncoderSelected bitrate : 128 kBit/sQuality : HighAdd ID3 tag : YesCommand line compressor : C:\Program Files (x86)\Exact Audio Copy\Flac\flac.exeAdditional command line options : -T "artist=%artist%" -T "title=%title%" -T "album=%albumtitle%" -T "date=%year%" -T "tracknumber=%tracknr%" -T "genre=%genre%" -5 %source%

TOC of the extracted CD

Track | Start | Length | Start sector | End sector --------------------------------------------------------- 1 | 0:00.00 | 1:06.26 | 0 | 4975 2 | 1:06.26 | 2:35.24 | 4976 | 16624 3 | 3:41.50 | 1:11.60 | 16625 | 22009 4 | 4:53.35 | 1:58.42 | 22010 | 30901 5 | 6:52.02 | 2:14.12 | 30902 | 40963 6 | 9:06.14 | 1:52.06 | 40964 | 49369 7 | 10:58.20 | 3:00.73 | 49370 | 62942 8 | 13:59.18 | 1:45.66 | 62943 | 70883 9 | 15:45.09 | 1:03.30 | 70884 | 75638 10 | 16:48.39 | 2:08.52 | 75639 | 85290 11 | 18:57.16 | 3:19.00 | 85291 | 100215 12 | 22:16.16 | 2:24.16 | 100216 | 111031 13 | 24:40.32 | 0:31.56 | 111032 | 113412 14 | 25:12.13 | 1:09.54 | 113413 | 118641 15 | 26:21.67 | 3:14.24 | 118642 | 133215 16 | 29:36.16 | 0:58.52 | 133216 | 137617 17 | 30:34.68 | 2:39.37 | 137618 | 149579 18 | 33:14.30 | 0:56.31 | 149580 | 153810 19 | 34:10.61 | 1:45.41 | 153811 | 161726 20 | 35:56.27 | 2:04.71 | 161727 | 171097 21 | 38:01.23 | 2:08.24 | 171098 | 180721 22 | 40:09.47 | 1:05.68 | 180722 | 185664 23 | 41:15.40 | 1:56.24 | 185665 | 194388 24 | 43:11.64 | 2:05.47 | 194389 | 203810 25 | 45:17.36 | 2:06.47 | 203811 | 213307 26 | 47:24.08 | 1:00.65 | 213308 | 217872 27 | 48:24.73 | 1:53.39 | 217873 | 226386 28 | 50:18.37 | 1:52.48 | 226387 | 234834 29 | 52:11.10 | 1:37.02 | 234835 | 242111 30 | 53:48.12 | 1:39.14 | 242112 | 249550 31 | 55:27.26 | 0:36.40 | 249551 | 252290 32 | 56:03.66 | 1:15.57 | 252291 | 257972 33 | 57:19.48 | 3:00.70 | 257973 | 271542 34 | 60:20.43 | 1:21.45 | 271543 | 277662 35 | 61:42.13 | 1:30.63 | 277663 | 284475 36 | 63:13.01 | 1:43.50 | 284476 | 292250 37 | 64:56.51 | 1:10.44 | 292251 | 297544 38 | 66:07.20 | 3:54.39 | 297545 | 315133 39 | 70:01.59 | 1:23.16 | 315134 | 321374 40 | 71:25.00 | 1:50.53 | 321375 | 329677 41 | 73:15.53 | 2:38.69 | 329678 | 341596 42 | 75:54.47 | 3:02.60 | 341597 | 355306

Track 1

Filename F:\FLAC H D\Superman TAS 4-Disc set\CD1\01 - Main Title.wav

Pre-gap length 0:00:02.00

Peak level 99.9 % Extraction speed 1.9 X Track quality 100.0 % Test CRC ADF9E718 Copy CRC ADF9E718 Accurately ripped (confidence 1) [135D3A15] (AR v2) Copy OK

Track 2

Filename F:\FLAC H D\Superman TAS 4-Disc set\CD1\02 - Krypton Opening , Monster Attack.wav

Pre-gap length 0:00:01.81

Peak level 98.9 % Extraction speed 2.1 X Track quality 100.0 % Test CRC F6A417EF Copy CRC F6A417EF Accurately ripped (confidence 1) [E0F12ED0] (AR v2) Copy OK

Track 3

Filename F:\FLAC H D\Superman TAS 4-Disc set\CD1\03 - Family Theme.wav

Peak level 20.0 % Extraction speed 2.2 X Track quality 100.0 % Test CRC 71A3EB87 Copy CRC 71A3EB87 Accurately ripped (confidence 1) [B9490226] (AR v2) Copy OK

Track 4

Filename F:\FLAC H D\Superman TAS 4-Disc set\CD1\04 - Earthquake , Jor-El Appeals.wav

Peak level 94.9 % Extraction speed 2.3 X Track quality 100.0 % Test CRC 03E9E5EE Copy CRC 03E9E5EE Accurately ripped (confidence 1) [6CF8AAF4] (AR v2) Copy OK

Track 5

Filename F:\FLAC H D\Superman TAS 4-Disc set\CD1\05 - Brainiac Confrontation.wav

Peak level 81.5 % Extraction speed 2.4 X Track quality 100.0 % Test CRC 9D58287E Copy CRC 9D58287E Accurately ripped (confidence 1) [B81BE25F] (AR v2) Copy OK

Track 6

Filename F:\FLAC H D\Superman TAS 4-Disc set\CD1\06 - Jor-El Escapes Arrest , Jor-El Outside.wav

Peak level 91.9 % Extraction speed 2.5 X Track quality 100.0 % Test CRC 8A8B8A0D Copy CRC 8A8B8A0D Accurately ripped (confidence 1) [417E159E] (AR v2) Copy OK

Track 7

Filename F:\FLAC H D\Superman TAS 4-Disc set\CD1\07 - Decision to Send Kal-El.wav

Peak level 94.6 % Extraction speed 2.6 X Track quality 100.0 % Test CRC AD3BAD55 Copy CRC AD3BAD55 Accurately ripped (confidence 1) [7E54C3EE] (AR v2) Copy OK

Track 8

Filename F:\FLAC H D\Superman TAS 4-Disc set\CD1\08 - Brainiac Leaves Krypton , Kal-El Leaves Krypton.wav

Peak level 91.9 % Extraction speed 2.6 X Track quality 99.8 % Test CRC A0FD621B Copy CRC A0FD621B Accurately ripped (confidence 1) [B62506D8] (AR v2) Copy OK

Track 9

Filename F:\FLAC H D\Superman TAS 4-Disc set\CD1\09 - Recap (The Last Son of Krypton, Part II).wav

Pre-gap length 0:00:03.17

Peak level 74.5 % Extraction speed 2.5 X Track quality 99.8 % Test CRC 3A6664F1 Copy CRC 3A6664F1 Accurately ripped (confidence 1) [FBBBCA2E] (AR v2) Copy OK

Track 10

Filename F:\FLAC H D\Superman TAS 4-Disc set\CD1\10 - Kal-El Lands on Earth , Couple Find Kal-El.wav

Peak level 97.2 % Extraction speed 2.8 X Track quality 100.0 % Test CRC C2B7E5FE Copy CRC C2B7E5FE Accurately ripped (confidence 1) [B71FA847] (AR v2) Copy OK

Track 11

Filename F:\FLAC H D\Superman TAS 4-Disc set\CD1\11 - Clark's Abilities , Clark Meets His Parents.wav

Peak level 99.4 % Extraction speed 2.9 X Track quality 100.0 % Test CRC 9487B3CE Copy CRC 9487B3CE Accurately ripped (confidence 1) [4F198B9D] (AR v2) Copy OK

Track 12

Filename F:\FLAC H D\Superman TAS 4-Disc set\CD1\12 - Clark's First Flight.wav

Peak level 98.1 % Extraction speed 3.0 X Track quality 100.0 % Test CRC 31BEADBC Copy CRC 31BEADBC Accurately ripped (confidence 1) [B55C8451] (AR v2) Copy OK

Track 13

Filename F:\FLAC H D\Superman TAS 4-Disc set\CD1\13 - News Program Source.wav

Peak level 98.7 % Extraction speed 2.8 X Track quality 100.0 % Test CRC 50FBB475 Copy CRC 50FBB475 Accurately ripped (confidence 1) [71B4EA85] (AR v2) Copy OK

Track 14

Filename F:\FLAC H D\Superman TAS 4-Disc set\CD1\14 - Industrial Film Source.wav

Peak level 97.7 % Extraction speed 2.9 X Track quality 99.8 % Test CRC E7641FB7 Copy CRC E7641FB7 Accurately ripped (confidence 1) [A7EBABBF] (AR v2) Copy OK

Track 15

Filename F:\FLAC H D\Superman TAS 4-Disc set\CD1\15 - Superman Rescues Lois , Missile Hits Airliner.wav

Peak level 100.0 % Extraction speed 3.2 X Track quality 100.0 % Test CRC 1FEBFD98 Copy CRC 1FEBFD98 Accurately ripped (confidence 1) [0D1957A8] (AR v2) Copy OK

Track 16

Filename F:\FLAC H D\Superman TAS 4-Disc set\CD1\16 - Recap (The Last Son of Krypton, Part III).wav

Pre-gap length 0:00:01.38

Peak level 81.7 % Extraction speed 3.1 X Track quality 100.0 % Test CRC 21ECF8F8 Copy CRC 21ECF8F8 Accurately ripped (confidence 1) [0BC4C8E0] (AR v2) Copy OK

Track 17

Filename F:\FLAC H D\Superman TAS 4-Disc set\CD1\17 - Superman Saves Airliner.wav

Peak level 89.9 % Extraction speed 3.3 X Track quality 100.0 % Test CRC 0B3A1035 Copy CRC 0B3A1035 Accurately ripped (confidence 1) [2A0859B9] (AR v2) Copy OK

Track 18

Filename F:\FLAC H D\Superman TAS 4-Disc set\CD1\18 - Clark's Identity Crisis.wav

Peak level 49.8 % Extraction speed 3.1 X Track quality 99.8 % Test CRC 47A60B11 Copy CRC 47A60B11 Accurately ripped (confidence 1) [9234DF46] (AR v2) Copy OK

Track 19

Filename F:\FLAC H D\Superman TAS 4-Disc set\CD1\19 - Lois Abducts Bibbo , Lois Meets John.wav

Peak level 72.3 % Extraction speed 3.4 X Track quality 99.8 % Test CRC BB0C23CB Copy CRC BB0C23CB Accurately ripped (confidence 1) [52086412] (AR v2) Copy OK

Track 20

Filename F:\FLAC H D\Superman TAS 4-Disc set\CD1\20 - Clark Recognizes Ship , Orders to Kill Lois.wav

Peak level 99.2 % Extraction speed 3.5 X Track quality 100.0 % Test CRC 153738CB Copy CRC 153738CB Accurately ripped (confidence 1) [F3BEAD8D] (AR v2) Copy OK

Track 21

Filename F:\FLAC H D\Superman TAS 4-Disc set\CD1\21 - Robot Loose in City.wav

Peak level 92.8 % Extraction speed 3.5 X Track quality 100.0 % Test CRC 51F3BD31 Copy CRC 51F3BD31 Accurately ripped (confidence 1) [E6B6652D] (AR v2) Copy OK

Track 22

Filename F:\FLAC H D\Superman TAS 4-Disc set\CD1\22 - Lois Gets Story.wav

Peak level 82.8 % Extraction speed 3.5 X Track quality 100.0 % Test CRC A2DB5AB2 Copy CRC A2DB5AB2 Accurately ripped (confidence 1) [D420EB23] (AR v2) Copy OK

Track 23

Filename F:\FLAC H D\Superman TAS 4-Disc set\CD1\23 - Family Pet.wav

Pre-gap length 0:00:03.24

Peak level 98.1 % Extraction speed 3.6 X Track quality 100.0 % Test CRC D0C42ED2 Copy CRC D0C42ED2 Accurately ripped (confidence 1) [D5F25DEF] (AR v2) Copy OK

Track 24

Filename F:\FLAC H D\Superman TAS 4-Disc set\CD1\24 - Titano Lost and Found.wav

Peak level 98.8 % Extraction speed 3.7 X Track quality 100.0 % Test CRC 63C5223A Copy CRC 63C5223A Accurately ripped (confidence 1) [84C26FF7] (AR v2) Copy OK

Track 25

Filename F:\FLAC H D\Superman TAS 4-Disc set\CD1\25 - Monkey Business , Babysitting With Fleas , Bacteria Attack.wav

Peak level 97.9 % Extraction speed 3.8 X Track quality 100.0 % Test CRC 7471097F Copy CRC 7471097F Accurately ripped (confidence 1) [72C58C4C] (AR v2) Copy OK

Track 26

Filename F:\FLAC H D\Superman TAS 4-Disc set\CD1\26 - Jimmy Runs Away.wav

Peak level 97.6 % Extraction speed 3.7 X Track quality 100.0 % Test CRC B8FC0EAE Copy CRC B8FC0EAE Accurately ripped (confidence 1) [FA1BED3C] (AR v2) Copy OK

Track 27

Filename F:\FLAC H D\Superman TAS 4-Disc set\CD1\27 - Monkeys on the Loose , Superman Cages Lions.wav

Peak level 97.8 % Extraction speed 3.7 X Track quality 99.9 % Test CRC 67A509D9 Copy CRC 67A509D9 Accurately ripped (confidence 1) [4353367C] (AR v2) Copy OK

Track 28

Filename F:\FLAC H D\Superman TAS 4-Disc set\CD1\28 - Titano at the Dock.wav

Peak level 97.7 % Extraction speed 3.9 X Track quality 100.0 % Test CRC 8AA66F92 Copy CRC 8AA66F92 Accurately ripped (confidence 1) [14DECF2A] (AR v2) Copy OK

Track 29

Filename F:\FLAC H D\Superman TAS 4-Disc set\CD1\29 - Titano , Amusement Park.wav

Peak level 98.0 % Extraction speed 3.9 X Track quality 100.0 % Test CRC F0F1A52A Copy CRC F0F1A52A Accurately ripped (confidence 1) [88DCC116] (AR v2) Copy OK

Track 30

Filename F:\FLAC H D\Superman TAS 4-Disc set\CD1\30 - Superman vs. Titano.wav

Peak level 98.2 % Extraction speed 3.9 X Track quality 100.0 % Test CRC 9929A57A Copy CRC 9929A57A Accurately ripped (confidence 1) [E458B454] (AR v2) Copy OK

Track 31

Filename F:\FLAC H D\Superman TAS 4-Disc set\CD1\31 - Pop Goes the Weasel (Traditional, arr. L. Ritmanis).wav

Peak level 28.6 % Extraction speed 3.3 X Track quality 99.7 % Test CRC ACAB14CA Copy CRC ACAB14CA Accurately ripped (confidence 1) [C5150765] (AR v2) Copy OK

Track 32

Filename F:\FLAC H D\Superman TAS 4-Disc set\CD1\32 - Titano Relocated.wav

Peak level 97.8 % Extraction speed 4.0 X Track quality 100.0 % Test CRC 3B91F67A Copy CRC 3B91F67A Accurately ripped (confidence 1) [CA2C1C4A] (AR v2) Copy OK

Track 33

Filename F:\FLAC H D\Superman TAS 4-Disc set\CD1\33 - Tank Attack.wav

Pre-gap length 0:00:02.89

Peak level 100.0 % Extraction speed 4.0 X Track quality 99.9 % Test CRC 4EDB9ADE Copy CRC 4EDB9ADE Accurately ripped (confidence 1) [FDEF4C22] (AR v2) Copy OK

Track 34

Filename F:\FLAC H D\Superman TAS 4-Disc set\CD1\34 - Meet Kanto , Mannheim Gets Gloves.wav

Peak level 97.5 % Extraction speed 4.0 X Track quality 100.0 % Test CRC D3E66F82 Copy CRC D3E66F82 Accurately ripped (confidence 1) [FC0FCB86] (AR v2) Copy OK

Track 35

Filename F:\FLAC H D\Superman TAS 4-Disc set\CD1\35 - Train Wreck , Train Robbery.wav

Peak level 99.6 % Extraction speed 4.1 X Track quality 100.0 % Test CRC 5B1ECE59 Copy CRC 5B1ECE59 Accurately ripped (confidence 1) [2AB2455B] (AR v2) Copy OK

Track 36

Filename F:\FLAC H D\Superman TAS 4-Disc set\CD1\36 - To the Rescue.wav

Peak level 97.9 % Extraction speed 4.2 X Track quality 100.0 % Test CRC 5A37DA0A Copy CRC 5A37DA0A Accurately ripped (confidence 1) [85CB32A6] (AR v2) Copy OK

Track 37

Filename F:\FLAC H D\Superman TAS 4-Disc set\CD1\37 - Turpin Resigns.wav

Peak level 98.0 % Extraction speed 4.2 X Track quality 100.0 % Test CRC B24E8D5E Copy CRC B24E8D5E Accurately ripped (confidence 1) [5FBD2F23] (AR v2) Copy OK

Track 38

Filename F:\FLAC H D\Superman TAS 4-Disc set\CD1\38 - Prisoner Turpin , Superman Finds Turpin , Turpin Saves Superman.wav

Peak level 98.0 % Extraction speed 4.4 X Track quality 100.0 % Test CRC EB295E1D Copy CRC EB295E1D Accurately ripped (confidence 1) [0653A42A] (AR v2) Copy OK

Track 39

Filename F:\FLAC H D\Superman TAS 4-Disc set\CD1\39 - Superman Thanks Turpin , Planet Apokolips.wav

Peak level 97.9 % Extraction speed 4.3 X Track quality 100.0 % Test CRC B2432AB5 Copy CRC B2432AB5 Accurately ripped (confidence 1) [21DF7465] (AR v2) Copy OK

Track 40

Filename F:\FLAC H D\Superman TAS 4-Disc set\CD1\40 - Train Wreck , Train Robbery (Alternate).wav

Pre-gap length 0:00:03.20

Peak level 98.6 % Extraction speed 4.4 X Track quality 100.0 % Test CRC 7EC249C8 Copy CRC 7EC249C8 Accurately ripped (confidence 1) [32BB26F1] (AR v2) Copy OK

Track 41

Filename F:\FLAC H D\Superman TAS 4-Disc set\CD1\41 - End Credits.wav

Pre-gap length 0:00:02.45

Peak level 99.0 % Extraction speed 4.6 X Track quality 100.0 % Test CRC F7BBD224 Copy CRC F7BBD224 Accurately ripped (confidence 1) [B5F9AB5A] (AR v2) Copy OK

Track 42

Filename F:\FLAC H D\Superman TAS 4-Disc set\CD1\42 - Superman Destroys Robot , Superman Spurns Lex , Brainiac Returns (Bonus- Music and FX).wav

Pre-gap length 0:00:04.32

Peak level 98.9 % Extraction speed 4.2 X Track quality 100.0 % Test CRC BC5EBFBD Copy CRC BC5EBFBD Accurately ripped (confidence 1) [330FE122] (AR v2) Copy OK

All tracks accurately ripped

No errors occurred

End of status report

==== Log checksum F2640CA9A04F0CFAADD299C5E76F9CE7C62FA73A5FDB67C7AB0150651376714D ====
REM GENRE SoundtrackREM DATE 1996REM DISCID 8312812AREM COMMENT "ExactAudioCopy v1.0b3"PERFORMER "Shirley Walker"TITLE "Superman: The Animated Series OST Disc 1"FILE "01 - Superman- The Animated Series - Main Title.wav" WAVE TRACK 01 AUDIO TITLE "Superman: The Animated Series - Main Title" PERFORMER "Shirley Walker" INDEX 01 00:00:00 TRACK 02 AUDIO TITLE "Krypton Opening / Monster Attack" PERFORMER "Lolita Ritmanis" INDEX 00 01:04:40FILE "02 - Krypton Opening - Monster Attack.wav" WAVE INDEX 01 00:00:00FILE "03 - Family Theme.wav" WAVE TRACK 03 AUDIO TITLE "Family Theme" PERFORMER "Lolita Ritmanis" INDEX 01 00:00:00FILE "04 - Earthquake - Jor-El Appeals.wav" WAVE TRACK 04 AUDIO TITLE "Earthquake / Jor-El Appeals" PERFORMER "Lolita Ritmanis" INDEX 01 00:00:00FILE "05 - Brainiac Confrontation.wav" WAVE TRACK 05 AUDIO TITLE "Brainiac Confrontation" PERFORMER "Lolita Ritmanis" INDEX 01 00:00:00FILE "06 - Jor-El Escapes Arrest - Jor-El Outside.wav" WAVE TRACK 06 AUDIO TITLE "Jor-El Escapes Arrest / Jor-El Outside" PERFORMER "Lolita Ritmanis" INDEX 01 00:00:00FILE "07 - Decision to Send Kal-El.wav" WAVE TRACK 07 AUDIO TITLE "Decision to Send Kal-El" PERFORMER "Lolita Ritmanis" INDEX 01 00:00:00FILE "08 - Brainiac Leaves Krypton - Kal-El Leaves Krypton.wav" WAVE TRACK 08 AUDIO TITLE "Brainiac Leaves Krypton / Kal-El Leaves Krypton" PERFORMER "Lolita Ritmanis" INDEX 01 00:00:00 TRACK 09 AUDIO TITLE "Recap (The Last Son of Krypton, Part II)" PERFORMER "Michael McCuistion" INDEX 00 01:42:53FILE "09 - Recap (The Last Son of Krypton, Part II).wav" WAVE INDEX 01 00:00:00FILE "10 - Kal-El Lands on Earth - Couple Find Kal-El.wav" WAVE TRACK 10 AUDIO TITLE "Kal-El Lands on Earth / Couple Find Kal-El" PERFORMER "Michael McCuistion" INDEX 01 00:00:00FILE "11 - Clark's Abilities - Clark Meets His Parents.wav" WAVE TRACK 11 AUDIO TITLE "Clark's Abilities / Clark Meets His Parents" PERFORMER "Michael McCuistion" INDEX 01 00:00:00FILE "12 - Clark's First Flight.wav" WAVE TRACK 12 AUDIO TITLE "Clark's First Flight" PERFORMER "Michael McCuistion" INDEX 01 00:00:00FILE "13 - News Program Source.wav" WAVE TRACK 13 AUDIO TITLE "News Program Source" PERFORMER "Michael McCuistion" INDEX 01 00:00:00FILE "14 - Industrial Film Source.wav" WAVE TRACK 14 AUDIO TITLE "Industrial Film Source" PERFORMER "Michael McCuistion" INDEX 01 00:00:00FILE "15 - Superman Rescues Lois - Missile Hits Airliner.wav" WAVE TRACK 15 AUDIO TITLE "Superman Rescues Lois / Missile Hits Airliner" PERFORMER "Michael McCuistion" INDEX 01 00:00:00 TRACK 16 AUDIO TITLE "Recap (The Last Son of Krypton, Part III)" PERFORMER "Harvey R. Cohen" INDEX 00 03:12:70FILE "16 - Recap (The Last Son of Krypton, Part III).wav" WAVE INDEX 01 00:00:00FILE "17 - Superman Saves Airliner.wav" WAVE TRACK 17 AUDIO TITLE "Superman Saves Airliner" PERFORMER "Harvey R. Cohen" INDEX 01 00:00:00FILE "18 - Clark's Identity Crisis.wav" WAVE TRACK 18 AUDIO TITLE "Clark's Identity Crisis" PERFORMER "Harvey R. Cohen" INDEX 01 00:00:00FILE "19 - Lois Abducts Bibbo - Lois Meets John.wav" WAVE TRACK 19 AUDIO TITLE "Lois Abducts Bibbo / Lois Meets John" PERFORMER "Harvey R. Cohen" INDEX 01 00:00:00FILE "20 - Clark Recognizes Ship - Orders to Kill Lois.wav" WAVE TRACK 20 AUDIO TITLE "Clark Recognizes Ship / Orders to Kill Lois" PERFORMER "Harvey R. Cohen" INDEX 01 00:00:00FILE "21 - Robot Loose in City.wav" WAVE TRACK 21 AUDIO TITLE "Robot Loose in City" PERFORMER "Harvey R. Cohen" INDEX 01 00:00:00FILE "22 - Lois Gets Story.wav" WAVE TRACK 22 AUDIO TITLE "Lois Gets Story" PERFORMER "Harvey R. Cohen" INDEX 01 00:00:00 TRACK 23 AUDIO TITLE "Family Pet" PERFORMER "Lolita Ritmanis" INDEX 00 01:02:50FILE "23 - Family Pet.wav" WAVE INDEX 01 00:00:00FILE "24 - Titano Lost and Found.wav" WAVE TRACK 24 AUDIO TITLE "Titano Lost and Found" PERFORMER "Lolita Ritmanis" INDEX 01 00:00:00FILE "25 - Monkey Business - Babysitting With Fleas - Bacteria Attack.wav" WAVE TRACK 25 AUDIO TITLE "Monkey Business / Babysitting With Fleas / Bacteria Attack" PERFORMER "Lolita Ritmanis" INDEX 01 00:00:00FILE "26 - Jimmy Runs Away.wav" WAVE TRACK 26 AUDIO TITLE "Jimmy Runs Away" PERFORMER "Lolita Ritmanis" INDEX 01 00:00:00FILE "27 - Monkeys on the Loose - Superman Cages Lions.wav" WAVE TRACK 27 AUDIO TITLE "Monkeys on the Loose / Superman Cages Lions" PERFORMER "Lolita Ritmanis" INDEX 01 00:00:00FILE "28 - Titano at the Dock.wav" WAVE TRACK 28 AUDIO TITLE "Titano at the Dock" PERFORMER "Lolita Ritmanis" INDEX 01 00:00:00FILE "29 - Titano - Amusement Park.wav" WAVE TRACK 29 AUDIO TITLE "Titano / Amusement Park" PERFORMER "Lolita Ritmanis" INDEX 01 00:00:00FILE "30 - Superman vs. Titano.wav" WAVE TRACK 30 AUDIO TITLE "Superman vs. Titano" PERFORMER "Lolita Ritmanis" INDEX 01 00:00:00FILE "31 - Pop Goes the Weasel (Traditional, arr. L. Ritmanis).wav" WAVE TRACK 31 AUDIO TITLE "Pop Goes the Weasel (Traditional, arr. L. Ritmanis)" PERFORMER "Lolita Ritmanis" INDEX 01 00:00:00FILE "32 - Titano Relocated.wav" WAVE TRACK 32 AUDIO TITLE "Titano Relocated" PERFORMER "Lolita Ritmanis" INDEX 01 00:00:00 TRACK 33 AUDIO TITLE "Tank Attack" PERFORMER "Kristopher Carter" INDEX 00 01:12:65FILE "33 - Tank Attack.wav" WAVE INDEX 01 00:00:00FILE "34 - Meet Kanto - Mannheim Gets Gloves.wav" WAVE TRACK 34 AUDIO TITLE "Meet Kanto / Mannheim Gets Gloves" PERFORMER "Kristopher Carter" INDEX 01 00:00:00FILE "35 - Train Wreck - Train Robbery.wav" WAVE TRACK 35 AUDIO TITLE "Train Wreck / Train Robbery" PERFORMER "Kristopher Carter" INDEX 01 00:00:00FILE "36 - To the Rescue.wav" WAVE TRACK 36 AUDIO TITLE "To the Rescue" PERFORMER "Kristopher Carter" INDEX 01 00:00:00FILE "37 - Turpin Resigns.wav" WAVE TRACK 37 AUDIO TITLE "Turpin Resigns" PERFORMER "Kristopher Carter" INDEX 01 00:00:00FILE "38 - Prisoner Turpin - Superman Finds Turpin - Turpin Saves Superman.wav" WAVE TRACK 38 AUDIO TITLE "Prisoner Turpin / Superman Finds Turpin / Turpin Saves Superman" PERFORMER "Kristopher Carter" INDEX 01 00:00:00FILE "39 - Superman Thanks Turpin - Planet Apokolips.wav" WAVE TRACK 39 AUDIO TITLE "Superman Thanks Turpin / Planet Apokolips" PERFORMER "Kristopher Carter" INDEX 01 00:00:00 TRACK 40 AUDIO TITLE "Train Wreck / Train Robbery (Alternate)" PERFORMER "Kristopher Carter" INDEX 00 01:20:01FILE "40 - Train Wreck - Train Robbery (Alternate).wav" WAVE INDEX 01 00:00:00 TRACK 41 AUDIO TITLE "Superman: The Animated Series - End Credits" PERFORMER "Shirley Walker" INDEX 00 01:48:19FILE "41 - Superman- The Animated Series - End Credits.wav" WAVE INDEX 01 00:00:00 TRACK 42 AUDIO TITLE "Superman Destroys Robot / Superman Spurns Lex / Brainiac Returns" PERFORMER "Harvey R. Cohen, Michael McCuistion, Lolita Ritmanis" INDEX 00 02:34:45FILE "42 - Superman Destroys Robot - Superman Spurns Lex - Brainiac Returns.wav" WAVE INDEX 01 00:00:00
01 - Shirley Walker - The New Batman / Superman Adventures - Main Title

World's Finest, Part I
02 - Michael McCuistion - Closing Time / Joke in the Box Source / Batman Takes Evidence
03 - Michael McCuistion - Terrorists on Plane
04 - Michael McCuistion - Lois Talks to Superman / Lois Beats Herself Up
05 - Michael McCuistion - Joker Abducts Lex
06 - Michael McCuistion - Lex and Joker Make a Deal / Lois Meets Bruce
07 - Michael McCuistion - Joker Undoes Carlini
08 - Michael McCuistion - WayneLex T-7
09 - Michael McCuistion - First Dance
10 - Michael McCuistion - Batman Shows Up / Binko's Bad Night / Batman Bugs Superman

World's Finest, Part II
11 - Michael McCuistion - Recap (World's Finest, Part II)
12 - Michael McCuistion - Bruce and Lois Go Out / Joker Crashes Date / Joker's Plan
13 - Michael McCuistion - Batwing Takes off / Superman Meets Joker
14 - Michael McCuistion - Batman Saves Superman
15 - Michael McCuistion - Batman Makes His Exit
16 - Michael McCuistion - Harley Cheers Up Joker / Lex Meets with Joker
17 - Michael McCuistion - Batman Pays Lex a Visit / Superman Flies By
18 - Michael McCuistion - Jet Pac Transportation / Joker Uses Robot

World's Finest, Part III
19 - Michael McCuistion - Recap (World's Finest, Part III)
20 - Michael McCuistion - Ship in Distress
21 - Michael McCuistion - Batman Drops in / Batman Unmasked / Superman Stops Robot
22 - Michael McCuistion - Batman Has to Leave / Lex Sets Up Joker
23 - Lolita Ritmanis - Arrival at Lab / Robots Battle Superman / Batman Gets to Lexwing
24 - Michael McCuistion - Lexwing Crashes
25 - Michael McCuistion - Bruce Returns to Gotham

Mxyzpixilated
26 - Harvey R. Cohen - Stopping Traffic / Reading the Comics / The Statue Moves
27 - Harvey R. Cohen - Chickens / Setting the Rules
28 - Harvey R. Cohen - A Close Shave / Proofreading / Apartment Source
29 - Harvey R. Cohen - Building Battle Suit
30 - Harvey R. Cohen - Clark's Calendar / Office Menagerie / Aerial Chase
31 - Harvey R. Cohen - Why am I Eating This

Father's Day
32 - Shirley Walker - Scream Machine Lands / Superman vs. Machine
33 - Shirley Walker - Desaad's Tricky Plan
34 - Shirley Walker - Kalibak Comes to Earth / Kalibak Trashes Minerva
35 - Shirley Walker - Kalibak Ambushes Superman
36 - Shirley Walker - Superman vs. Kalibak / Fight on Train Track
37 - Shirley Walker - Battle Continues / Power Struggle
38 - Shirley Walker - Darkseid Beams Superman
39 - Shirley Walker - Restaurant Source (Bonus Track)

40 - Shirley Walker - The New Batman / Superman Adventures - End Credits
Exact Audio Copy V1.0 beta 3 from 29. August 2011

EAC extraction logfile from 7. February 2014, 17:13

Various / Superman: The Animated Series OST Disc 2

Used drive : MATSHITADVD-RAM UJ8B0 Adapter: 0 ID: 0

Read mode : SecureUtilize accurate stream : YesDefeat audio cache : NoMake use of C2 pointers : No

Read offset correction : 102Overread into Lead-In and Lead-Out : NoFill up missing offset samples with silence : YesDelete leading and trailing silent blocks : NoNull samples used in CRC calculations : YesUsed interface : Native Win32 interface for Win NT & 2000Gap handling : Appended to previous track

Used output format : User Defined EncoderSelected bitrate : 128 kBit/sQuality : HighAdd ID3 tag : YesCommand line compressor : C:\Program Files (x86)\Exact Audio Copy\Flac\flac.exeAdditional command line options : -T "artist=%artist%" -T "title=%title%" -T "album=%albumtitle%" -T "date=%year%" -T "tracknumber=%tracknr%" -T "genre=%genre%" -5 %source%

TOC of the extracted CD

Track | Start | Length | Start sector | End sector --------------------------------------------------------- 1 | 0:00.00 | 1:04.74 | 0 | 4873 2 | 1:04.74 | 1:34.34 | 4874 | 11957 3 | 2:39.33 | 1:11.14 | 11958 | 17296 4 | 3:50.47 | 0:58.22 | 17297 | 21668 5 | 4:48.69 | 1:20.03 | 21669 | 27671 6 | 6:08.72 | 1:41.68 | 27672 | 35314 7 | 7:50.65 | 1:26.59 | 35315 | 41823 8 | 9:17.49 | 0:51.62 | 41824 | 45710 9 | 10:09.36 | 1:11.10 | 45711 | 51045 10 | 11:20.46 | 3:31.14 | 51046 | 66884 11 | 14:51.60 | 0:36.29 | 66885 | 69613 12 | 15:28.14 | 2:22.54 | 69614 | 80317 13 | 17:50.68 | 1:39.15 | 80318 | 87757 14 | 19:30.08 | 3:07.55 | 87758 | 101837 15 | 22:37.63 | 0:29.20 | 101838 | 104032 16 | 23:07.08 | 2:01.26 | 104033 | 113133 17 | 25:08.34 | 1:14.23 | 113134 | 118706 18 | 26:22.57 | 1:14.37 | 118707 | 124293 19 | 27:37.19 | 0:32.69 | 124294 | 126762 20 | 28:10.13 | 1:44.59 | 126763 | 134621 21 | 29:54.72 | 1:29.70 | 134622 | 141366 22 | 31:24.67 | 1:27.61 | 141367 | 147952 23 | 32:52.53 | 6:04.17 | 147953 | 175269 24 | 38:56.70 | 2:21.65 | 175270 | 185909 25 | 41:18.60 | 1:12.01 | 185910 | 191310 26 | 42:30.61 | 2:38.55 | 191311 | 203215 27 | 45:09.41 | 3:23.36 | 203216 | 218476 28 | 48:33.02 | 3:51.38 | 218477 | 235839 29 | 52:24.40 | 1:53.48 | 235840 | 244362 30 | 54:18.13 | 4:50.25 | 244363 | 266137 31 | 59:08.38 | 1:01.10 | 266138 | 270722 32 | 60:09.48 | 3:50.46 | 270723 | 288018 33 | 64:00.19 | 1:25.49 | 288019 | 294442 34 | 65:25.68 | 1:55.50 | 294443 | 303117 35 | 67:21.43 | 0:47.55 | 303118 | 306697 36 | 68:09.23 | 2:03.72 | 306698 | 315994 37 | 70:13.20 | 3:25.01 | 315995 | 331370 38 | 73:38.21 | 2:22.23 | 331371 | 342043 39 | 76:00.44 | 1:08.55 | 342044 | 347198 40 | 77:09.24 | 1:48.00 | 347199 | 355298

Track 1

Filename F:\FLAC H D\Superman TAS 4-Disc set\CD2\01 - The New Batman,Superman Adventures - Main Title.wav

Pre-gap length 0:00:02.00

Peak level 99.4 % Extraction speed 4.0 X Track quality 100.0 % Test CRC 34DA05C8 Copy CRC 34DA05C8 Accurately ripped (confidence 1) [78FCC224] (AR v2) Copy OK

Track 2

Filename F:\FLAC H D\Superman TAS 4-Disc set\CD2\02 - Closing Time,Joke in the Box Source,Batman Takes Evidence.wav

Pre-gap length 0:00:02.06

Peak level 97.5 % Extraction speed 4.3 X Track quality 100.0 % Test CRC EC811F16 Copy CRC EC811F16 Accurately ripped (confidence 1) [6FB61A4A] (AR v2) Copy OK

Track 3

Filename F:\FLAC H D\Superman TAS 4-Disc set\CD2\03 - Terrorists on Plane.wav

Peak level 98.3 % Extraction speed 4.4 X Track quality 100.0 % Test CRC 76A9AFA9 Copy CRC 76A9AFA9 Accurately ripped (confidence 1) [3B013FF1] (AR v2) Copy OK

Track 4

Filename F:\FLAC H D\Superman TAS 4-Disc set\CD2\04 - Lois Talks to Superman,Lois Beats Herself Up.wav

Peak level 87.0 % Extraction speed 4.4 X Track quality 100.0 % Test CRC 51967CB0 Copy CRC 51967CB0 Accurately ripped (confidence 1) [B7484A37] (AR v2) Copy OK

Track 5

Filename F:\FLAC H D\Superman TAS 4-Disc set\CD2\05 - Joker Abducts Lex.wav

Peak level 97.7 % Extraction speed 4.4 X Track quality 99.8 % Test CRC D76BADB8 Copy CRC D76BADB8 Accurately ripped (confidence 1) [FF3A3DD8] (AR v2) Copy OK

Track 6

Filename F:\FLAC H D\Superman TAS 4-Disc set\CD2\06 - Lex & Joker Make a Deal,Lois Meets Bruce.wav

Peak level 59.4 % Extraction speed 4.6 X Track quality 99.8 % Test CRC 73C46399 Copy CRC 73C46399 Accurately ripped (confidence 1) [3549A641] (AR v2) Copy OK

Track 7

Filename F:\FLAC H D\Superman TAS 4-Disc set\CD2\07 - Joker Undoes Carlini.wav

Peak level 97.6 % Extraction speed 4.9 X Track quality 100.0 % Test CRC 0977C077 Copy CRC 0977C077 Accurately ripped (confidence 1) [3B1E107B] (AR v2) Copy OK

Track 8

Filename F:\FLAC H D\Superman TAS 4-Disc set\CD2\08 - WayneLex.wav

Peak level 81.0 % Extraction speed 4.9 X Track quality 100.0 % Test CRC A1314E35 Copy CRC A1314E35 Accurately ripped (confidence 1) [2122DDC1] (AR v2) Copy OK

Track 9

Filename F:\FLAC H D\Superman TAS 4-Disc set\CD2\09 - First Dance.wav

Peak level 64.3 % Extraction speed 5.1 X Track quality 100.0 % Test CRC 38F369E4 Copy CRC 38F369E4 Accurately ripped (confidence 1) [3CF0AE58] (AR v2) Copy OK

Track 10

Filename F:\FLAC H D\Superman TAS 4-Disc set\CD2\10 - Batman Shows Up,Binko's Bad Night,Batman Bugs Superman.wav

Peak level 99.2 % Extraction speed 5.5 X Track quality 100.0 % Test CRC 9C432B80 Copy CRC 9C432B80 Accurately ripped (confidence 1) [CB0C74B1] (AR v2) Copy OK

Track 11

Filename F:\FLAC H D\Superman TAS 4-Disc set\CD2\11 - Recap (World's Finest, Part II).wav

Pre-gap length 0:00:01.97

Peak level 73.8 % Extraction speed 5.0 X Track quality 100.0 % Test CRC 7EFFBEC2 Copy CRC 7EFFBEC2 Accurately ripped (confidence 1) [C439DF8F] (AR v2) Copy OK

Track 12

Filename F:\FLAC H D\Superman TAS 4-Disc set\CD2\12 - Bruce and Lois Go Out,Joker Crashes Date,Joker's Plan.wav

Peak level 98.6 % Extraction speed 5.7 X Track quality 99.9 % Test CRC A18F0C91 Copy CRC A18F0C91 Accurately ripped (confidence 1) [A426AD9F] (AR v2) Copy OK

Track 13

Filename F:\FLAC H D\Superman TAS 4-Disc set\CD2\13 - Batwing Takes Off,Superman Meets Joker.wav

Peak level 97.5 % Extraction speed 5.8 X Track quality 100.0 % Test CRC 1F75751E Copy CRC 1F75751E Accurately ripped (confidence 1) [62CDE27A] (AR v2) Copy OK

Track 14

Filename F:\FLAC H D\Superman TAS 4-Disc set\CD2\14 - Batman Saves Superman.wav

Peak level 98.5 % Extraction speed 6.2 X Track quality 100.0 % Test CRC FB03B286 Copy CRC FB03B286 Accurately ripped (confidence 1) [4D8B425A] (AR v2) Copy OK

Track 15

Filename F:\FLAC H D\Superman TAS 4-Disc set\CD2\15 - Batman Makes His Exit.wav

Peak level 55.8 % Extraction speed 5.6 X Track quality 100.0 % Test CRC 07B8B0C1 Copy CRC 07B8B0C1 Accurately ripped (confidence 1) [D5F58EAB] (AR v2) Copy OK

Track 16

Filename F:\FLAC H D\Superman TAS 4-Disc set\CD2\16 - Harley Cheers Up Joker,Lex Meets With Joker.wav

Peak level 97.7 % Extraction speed 6.3 X Track quality 100.0 % Test CRC 68612667 Copy CRC 68612667 Accurately ripped (confidence 1) [8DC7C6A7] (AR v2) Copy OK

Track 17

Filename F:\FLAC H D\Superman TAS 4-Disc set\CD2\17 - Batman Pays Lex a Visit,Superman Flies By.wav

Peak level 98.2 % Extraction speed 6.2 X Track quality 100.0 % Test CRC 9F6AD442 Copy CRC 9F6AD442 Accurately ripped (confidence 1) [0416C9F8] (AR v2) Copy OK

Track 18

Filename F:\FLAC H D\Superman TAS 4-Disc set\CD2\18 - Jet Pac Transportation,Joker Uses Robot.wav

Peak level 97.2 % Extraction speed 6.4 X Track quality 100.0 % Test CRC A740D756 Copy CRC A740D756 Accurately ripped (confidence 1) [C50EC786] (AR v2) Copy OK

Track 19

Filename F:\FLAC H D\Superman TAS 4-Disc set\CD2\19 - Recap (World's Finest, Part III).wav

Pre-gap length 0:00:02.45

Peak level 97.7 % Extraction speed 5.9 X Track quality 100.0 % Test CRC 4F8DA096 Copy CRC 4F8DA096 Accurately ripped (confidence 1) [56D6ECE6] (AR v2) Copy OK

Track 20

Filename F:\FLAC H D\Superman TAS 4-Disc set\CD2\20 - Ship in Distress.wav

Peak level 97.7 % Extraction speed 6.6 X Track quality 100.0 % Test CRC 181A3663 Copy CRC 181A3663 Accurately ripped (confidence 1) [B1EF9D9F] (AR v2) Copy OK

Track 21

Filename F:\FLAC H D\Superman TAS 4-Disc set\CD2\21 - Batman Drops In,Batman Unmasked,Superman Stops Robot.wav

Peak level 98.6 % Extraction speed 6.6 X Track quality 99.8 % Test CRC D327FF78 Copy CRC D327FF78 Accurately ripped (confidence 1) [CAB47C33] (AR v2) Copy OK

Track 22

Filename F:\FLAC H D\Superman TAS 4-Disc set\CD2\22 - Batman Has to Leave,Lex Sets Up Joker.wav

Peak level 97.6 % Extraction speed 6.7 X Track quality 100.0 % Test CRC B21FAD14 Copy CRC B21FAD14 Accurately ripped (confidence 1) [4CC4C419] (AR v2) Copy OK

Track 23

Filename F:\FLAC H D\Superman TAS 4-Disc set\CD2\23 - Arrival at Lab,Robots Battle Superman,Batman Gets to Lexwing.wav

Peak level 98.5 % Extraction speed 7.2 X Track quality 99.9 % Test CRC 16C8BA6B Copy CRC 16C8BA6B Accurately ripped (confidence 1) [D0F57116] (AR v2) Copy OK

Track 24

Filename F:\FLAC H D\Superman TAS 4-Disc set\CD2\24 - Lexwing Crashes.wav

Peak level 98.3 % Extraction speed 7.4 X Track quality 100.0 % Test CRC 96F7C0F0 Copy CRC 96F7C0F0 Accurately ripped (confidence 1) [C47AC5AE] (AR v2) Copy OK

Track 25

Filename F:\FLAC H D\Superman TAS 4-Disc set\CD2\25 - Bruce Returns to Gotham.wav

Peak level 97.0 % Extraction speed 7.1 X Track quality 99.8 % Test CRC 7A27AB66 Copy CRC 7A27AB66 Accurately ripped (confidence 1) [19B97C6B] (AR v2) Copy OK

Track 26

Filename F:\FLAC H D\Superman TAS 4-Disc set\CD2\26 - Stopping Traffic,Reading the Comics,The Statue Moves.wav

Pre-gap length 0:00:04.13

Peak level 80.7 % Extraction speed 7.7 X Track quality 100.0 % Test CRC B01C00F8 Copy CRC B01C00F8 Accurately ripped (confidence 1) [25AE953A] (AR v2) Copy OK

Track 27

Filename F:\FLAC H D\Superman TAS 4-Disc set\CD2\27 - Chickens,Setting the Rules.wav

Peak level 97.1 % Extraction speed 7.8 X Track quality 99.9 % Test CRC FD4A5EBE Copy CRC FD4A5EBE Accurately ripped (confidence 1) [64AC10B8] (AR v2) Copy OK

Track 28

Filename F:\FLAC H D\Superman TAS 4-Disc set\CD2\28 - A Close Shave,Proofreading,Apartment Source.wav

Peak level 97.4 % Extraction speed 8.1 X Track quality 100.0 % Test CRC 854BE2B2 Copy CRC 854BE2B2 Accurately ripped (confidence 1) [BF74BAE8] (AR v2) Copy OK

Track 29

Filename F:\FLAC H D\Superman TAS 4-Disc set\CD2\29 - Building Battle Suit.wav

Peak level 89.4 % Extraction speed 8.1 X Track quality 100.0 % Test CRC 193F614A Copy CRC 193F614A Accurately ripped (confidence 1) [CC218F7F] (AR v2) Copy OK

Track 30

Filename F:\FLAC H D\Superman TAS 4-Disc set\CD2\30 - Clark's Calendar,Office Menagerie,Aerial Chase.wav

Peak level 93.1 % Extraction speed 8.6 X Track quality 100.0 % Test CRC 186F9C2C Copy CRC 186F9C2C Accurately ripped (confidence 1) [3DDCFE81] (AR v2) Copy OK

Track 31

Filename F:\FLAC H D\Superman TAS 4-Disc set\CD2\31 - Why Am I Eating This.wav

Peak level 90.4 % Extraction speed 8.1 X Track quality 100.0 % Test CRC ED348C33 Copy CRC ED348C33 Accurately ripped (confidence 1) [66DBF56D] (AR v2) Copy OK

Track 32

Filename F:\FLAC H D\Superman TAS 4-Disc set\CD2\32 - Scream Machine Lands,Superman vs. Machine.wav

Pre-gap length 0:00:05.40

Peak level 100.0 % Extraction speed 8.8 X Track quality 100.0 % Test CRC 3225834B Copy CRC 3225834B Accurately ripped (confidence 1) [12EB09B5] (AR v2) Copy OK

Track 33

Filename F:\FLAC H D\Superman TAS 4-Disc set\CD2\33 - Desaad's Tricky Plan.wav

Peak level 78.6 % Extraction speed 8.0 X Track quality 99.8 % Test CRC 9D3AED3E Copy CRC 9D3AED3E Accurately ripped (confidence 1) [59ABDDA2] (AR v2) Copy OK

Track 34

Filename F:\FLAC H D\Superman TAS 4-Disc set\CD2\34 - Kalibak Comes to Earth,Kalibak Trashes Minerva.wav

Peak level 91.1 % Extraction speed 8.8 X Track quality 100.0 % Test CRC C75F8B02 Copy CRC C75F8B02 Accurately ripped (confidence 1) [A6FACCB3] (AR v2) Copy OK

Track 35

Filename F:\FLAC H D\Superman TAS 4-Disc set\CD2\35 - Kalibak Ambushes Superman.wav

Peak level 91.0 % Extraction speed 8.2 X Track quality 100.0 % Test CRC D64AAC99 Copy CRC D64AAC99 Accurately ripped (confidence 1) [44DD4D38] (AR v2) Copy OK

Track 36

Filename F:\FLAC H D\Superman TAS 4-Disc set\CD2\36 - Superman vs. Kalibak,Fight on Train Track.wav

Peak level 95.7 % Extraction speed 8.9 X Track quality 100.0 % Test CRC 59AE647B Copy CRC 59AE647B Accurately ripped (confidence 1) [E15368CB] (AR v2) Copy OK

Track 37

Filename F:\FLAC H D\Superman TAS 4-Disc set\CD2\37 - Battle Continues,Power Struggle.wav

Peak level 96.7 % Extraction speed 9.3 X Track quality 100.0 % Test CRC BF0FA2E0 Copy CRC BF0FA2E0 Accurately ripped (confidence 1) [776EAC9E] (AR v2) Copy OK

Track 38

Filename F:\FLAC H D\Superman TAS 4-Disc set\CD2\38 - Darkseid Beams Superman.wav

Peak level 99.6 % Extraction speed 9.2 X Track quality 100.0 % Test CRC 40ED3789 Copy CRC 40ED3789 Accurately ripped (confidence 1) [87576665] (AR v2) Copy OK

Track 39

Filename F:\FLAC H D\Superman TAS 4-Disc set\CD2\39 - Restaurant Source.wav

Pre-gap length 0:00:01.74

Peak level 42.1 % Extraction speed 8.1 X Track quality 99.8 % Test CRC 01A19EDC Copy CRC 01A19EDC Accurately ripped (confidence 1) [8AFCC4AD] (AR v2) Copy OK

Track 40

Filename F:\FLAC H D\Superman TAS 4-Disc set\CD2\40 - The New Batman,Superman Adventures - End Credits.wav

Pre-gap length 0:00:03.78

Peak level 98.9 % Extraction speed 9.2 X Track quality 100.0 % Test CRC 46B6BD9F Copy CRC 46B6BD9F Accurately ripped (confidence 1) [F22441F6] (AR v2) Copy OK

All tracks accurately ripped

No errors occurred

End of status report

==== Log checksum 79876DDA7A46B5A5E919BF3028CEE17D6CEAEDD2EDBC69E10D678887332F7D31 ====
REM GENRE SoundtrackREM DATE 2014REM DISCID 38128128REM COMMENT "ExactAudioCopy v1.0b3"PERFORMER "Various"TITLE "Superman: The Animated Series OST Disc 2"FILE "01 - The New Batman-Superman Adventures - Main Title.wav" WAVE TRACK 01 AUDIO TITLE "The New Batman/Superman Adventures - Main Title" PERFORMER "Shirley Walker" INDEX 01 00:00:00 TRACK 02 AUDIO TITLE "Closing Time / Joke in the Box Source / Batman Takes Evidence" PERFORMER "Michael McCuistion & Shirley Walker" INDEX 00 01:02:69FILE "02 - Closing Time - Joke in the Box Source - Batman Takes Evidence.wav" WAVE INDEX 01 00:00:00FILE "03 - Terrorists on Plane.wav" WAVE TRACK 03 AUDIO TITLE "Terrorists on Plane" PERFORMER "Michael McCuistion & Shirley Walker" INDEX 01 00:00:00FILE "04 - Lois Talks to Superman - Lois Beats Herself Up.wav" WAVE TRACK 04 AUDIO TITLE "Lois Talks to Superman / Lois Beats Herself Up" PERFORMER "Michael McCuistion" INDEX 01 00:00:00FILE "05 - Joker Abducts Lex.wav" WAVE TRACK 05 AUDIO TITLE "Joker Abducts Lex" PERFORMER "Michael McCuistion" INDEX 01 00:00:00FILE "06 - Lex & Joker Make a Deal - Lois Meets Bruce.wav" WAVE TRACK 06 AUDIO TITLE "Lex & Joker Make a Deal / Lois Meets Bruce" PERFORMER "Michael McCuistion" INDEX 01 00:00:00FILE "07 - Joker Undoes Carlini.wav" WAVE TRACK 07 AUDIO TITLE "Joker Undoes Carlini" PERFORMER "Michael McCuistion" INDEX 01 00:00:00FILE "08 - WayneLex.wav" WAVE TRACK 08 AUDIO TITLE "WayneLex" PERFORMER "Michael McCuistion" INDEX 01 00:00:00FILE "09 - First Dance.wav" WAVE TRACK 09 AUDIO TITLE "First Dance" PERFORMER "Michael McCuistion" INDEX 01 00:00:00FILE "10 - Batman Shows Up - Binko's Bad Night - Batman Bugs Superman.wav" WAVE TRACK 10 AUDIO TITLE "Batman Shows Up / Binko's Bad Night / Batman Bugs Superman" PERFORMER "Michael McCuistion" INDEX 01 00:00:00 TRACK 11 AUDIO TITLE "Recap (World's Finest, Part II)" PERFORMER "Michael McCuistion" INDEX 00 03:29:16FILE "11 - Recap (World's Finest, Part II).wav" WAVE INDEX 01 00:00:00FILE "12 - Bruce and Lois Go Out - Joker Crashes Date - Joker's Plan.wav" WAVE TRACK 12 AUDIO TITLE "Bruce and Lois Go Out / Joker Crashes Date / Joker's Plan" PERFORMER "Michael McCuistion" INDEX 01 00:00:00FILE "13 - Batwing Takes Off - Superman Meets Joker.wav" WAVE TRACK 13 AUDIO TITLE "Batwing Takes Off / Superman Meets Joker" PERFORMER "Michael McCuistion" INDEX 01 00:00:00FILE "14 - Batman Saves Superman.wav" WAVE TRACK 14 AUDIO TITLE "Batman Saves Superman" PERFORMER "Michael McCuistion" INDEX 01 00:00:00FILE "15 - Batman Makes His Exit.wav" WAVE TRACK 15 AUDIO TITLE "Batman Makes His Exit" PERFORMER "Michael McCuistion" INDEX 01 00:00:00FILE "16 - Harley Cheers Up Joker - Lex Meets With Joker.wav" WAVE TRACK 16 AUDIO TITLE "Harley Cheers Up Joker / Lex Meets With Joker" PERFORMER "Michael McCuistion" INDEX 01 00:00:00FILE "17 - Batman Pays Lex a Visit - Superman Flies By.wav" WAVE TRACK 17 AUDIO TITLE "Batman Pays Lex a Visit / Superman Flies By" PERFORMER "Michael McCuistion" INDEX 01 00:00:00FILE "18 - Jet Pac Transportation - Joker Uses Robot.wav" WAVE TRACK 18 AUDIO TITLE "Jet Pac Transportation / Joker Uses Robot" PERFORMER "Michael McCuistion" INDEX 01 00:00:00 TRACK 19 AUDIO TITLE "Recap (World's Finest, Part III)" PERFORMER "Michael McCuistion" INDEX 00 01:12:03FILE "19 - Recap (World's Finest, Part III).wav" WAVE INDEX 01 00:00:00FILE "20 - Ship in Distress.wav" WAVE TRACK 20 AUDIO TITLE "Ship in Distress" PERFORMER "Michael McCuistion" INDEX 01 00:00:00FILE "21 - Batman Drops In - Batman Unmasked - Superman Stops Robot.wav" WAVE TRACK 21 AUDIO TITLE "Batman Drops In / Batman Unmasked / Superman Stops Robot" PERFORMER "Michael McCuistion" INDEX 01 00:00:00FILE "22 - Batman Has to Leave - Lex Sets Up Joker.wav" WAVE TRACK 22 AUDIO TITLE "Batman Has to Leave / Lex Sets Up Joker" PERFORMER "Michael McCuistion" INDEX 01 00:00:00FILE "23 - Arrival at Lab - Robots Battle Superman - Batman Gets to Lexwing.wav" WAVE TRACK 23 AUDIO TITLE "Arrival at Lab / Robots Battle Superman / Batman Gets to Lexwing" PERFORMER "Lolita Ritmanis" INDEX 01 00:00:00FILE "24 - Lexwing Crashes.wav" WAVE TRACK 24 AUDIO TITLE "Lexwing Crashes" PERFORMER "Michael McCuistion" INDEX 01 00:00:00FILE "25 - Bruce Returns to Gotham.wav" WAVE TRACK 25 AUDIO TITLE "Bruce Returns to Gotham" PERFORMER "Michael McCuistion" INDEX 01 00:00:00 TRACK 26 AUDIO TITLE "Stopping Traffic / Reading the Comics / The Statue Moves" PERFORMER "Harvey R. Cohen" INDEX 00 01:07:66FILE "26 - Stopping Traffic - Reading the Comics - The Statue Moves.wav" WAVE INDEX 01 00:00:00FILE "27 - Chickens - Setting the Rules.wav" WAVE TRACK 27 AUDIO TITLE "Chickens / Setting the Rules" PERFORMER "Harvey R. Cohen" INDEX 01 00:00:00FILE "28 - A Close Shave - Proofreading - Apartment Source.wav" WAVE TRACK 28 AUDIO TITLE "A Close Shave / Proofreading / Apartment Source" PERFORMER "Harvey R. Cohen & Shirley Walker" INDEX 01 00:00:00FILE "29 - Building Battle Suit.wav" WAVE TRACK 29 AUDIO TITLE "Building Battle Suit" PERFORMER "Harvey R. Cohen" INDEX 01 00:00:00FILE "30 - Clark's Calendar - Office Menagerie - Aerial Chase.wav" WAVE TRACK 30 AUDIO TITLE "Clark's Calendar / Office Menagerie / Aerial Chase" PERFORMER "Harvey R. Cohen & Shirley Walker" INDEX 01 00:00:00FILE "31 - Why Am I Eating This.wav" WAVE TRACK 31 AUDIO TITLE "Why Am I Eating This?" PERFORMER "Harvey R. Cohen" INDEX 01 00:00:00 TRACK 32 AUDIO TITLE "Scream Machine Lands / Superman vs. Machine" PERFORMER "Shirley Walker" INDEX 00 00:55:55FILE "32 - Scream Machine Lands - Superman vs. Machine.wav" WAVE INDEX 01 00:00:00FILE "33 - Desaad's Tricky Plan.wav" WAVE TRACK 33 AUDIO TITLE "Desaad's Tricky Plan" PERFORMER "Shirley Walker" INDEX 01 00:00:00FILE "34 - Kalibak Comes to Earth - Kalibak Trashes Minerva.wav" WAVE TRACK 34 AUDIO TITLE "Kalibak Comes to Earth / Kalibak Trashes Minerva" PERFORMER "Shirley Walker" INDEX 01 00:00:00FILE "35 - Kalibak Ambushes Superman.wav" WAVE TRACK 35 AUDIO TITLE "Kalibak Ambushes Superman" PERFORMER "Shirley Walker" INDEX 01 00:00:00FILE "36 - Superman vs. Kalibak - Fight on Train Track.wav" WAVE TRACK 36 AUDIO TITLE "Superman vs. Kalibak / Fight on Train Track" PERFORMER "Shirley Walker" INDEX 01 00:00:00FILE "37 - Battle Continues - Power Struggle.wav" WAVE TRACK 37 AUDIO TITLE "Battle Continues / Power Struggle" PERFORMER "Shirley Walker" INDEX 01 00:00:00FILE "38 - Darkseid Beams Superman.wav" WAVE TRACK 38 AUDIO TITLE "Darkseid Beams Superman" PERFORMER "Shirley Walker" INDEX 01 00:00:00 TRACK 39 AUDIO TITLE "Restaurant Source" PERFORMER "Shirley Walker" INDEX 00 02:20:42FILE "39 - Restaurant Source.wav" WAVE INDEX 01 00:00:00 TRACK 40 AUDIO TITLE "The New Batman-Superman Adventures - End Credits" PERFORMER "Shirley Walker" INDEX 00 01:04:71FILE "40 - The New Batman-Superman Adventures - End Credits.wav" WAVE INDEX 01 00:00:00
01 - Shirley Walker - Superman: The Animated Series - Twenty-Second Promo

In Brightest Day...
02 - Michael McCuistion - Kyle Catches Thief
03 - Michael McCuistion - Abin Makes Ring Choose / Ring Chooses Kyle
04 - Michael McCuistion - Kyle is Green Lantern
05 - Michael McCuistion - Superman Finds Abin / Sinestro Wants the Ring
06 - Michael McCuistion - Superman Meets Guardian
07 - Michael McCuistion - Kyle Saves Little Girl / Fight Continues
08 - Michael McCuistion - Superman Helps Council / Fight for Power / Kyle Wins Battle
09 - Michael McCuistion - Kyle's Their Man

A Little Piece of Home
10 - Kristopher Carter - Break-in at the Museum
11 - Kristopher Carter - Lex Sees Superman Weak / Waiting for a Reaction
12 - Kristopher Carter - Lois Gets a Phone Call / Steal Treasury Plates / No Deal with Lex
13 - Kristopher Carter - Lois Visits S.T.A.R. Labs / Superman vs. Dinosaur / Superman Throws Rock

Livewire
14 - Harvey R. Cohen - Wake-Up Source
15 - Harvey R. Cohen - Construction Crane / Prevents Crane Accident
16 - Harvey R. Cohen - Centennial Park Source
17 - Harvey R. Cohen - Leslie Becomes Livewire
18 - Harvey R. Cohen - Livewire Checks Out
19 - Harvey R. Cohen - Metamorphosis Complete
20 - Harvey R. Cohen - She Turns off the Light / Tower of Power is Back
21 - Harvey R. Cohen - Superman Averts Planes
22 - Harvey R. Cohen - Livewire Gets Recharged / Caution Sign

Apokolips...Now!, Part I
23 - Kristopher Carter - Maggie Brings Cash
24 - Kristopher Carter - Hovercraft Steals Truck / Superman Fights Craft / Superman and Broken Glass
25 - Kristopher Carter - Darkseid Arrives / Orion Arrives
26 - Kristopher Carter - New Genesis and Apokolips
27 - Kristopher Carter - Air Base Battle / Orion Zaps Hovercraft / Orion Wins at Air Base
28 - Kristopher Carter - Mannheim at Power Plant
29 - Kristopher Carter - Orion Goes Back
30 - Kristopher Carter - Power Plant Explodes / Superman Sees Explosion

Apokolips...Now!, Part II
31 - Kristopher Carter - Recap
32 - Kristopher Carter - Hamilton Has Bad News
33 - Kristopher Carter - Meet Steppenwolf
34 - Kristopher Carter - Steppenwolf Arrives / Missiles Bring Down Superman
35 - Kristopher Carter - Demons Take Over City / Attack of the Demons
36 - Kristopher Carter - Superman Puts Out Fire
37 - Kristopher Carter - Darkseid Appears
38 - Kristopher Carter - Dan Fights Demons
39 - Kristopher Carter - Apokoliptic War Machine / Darkseid Takes Control
40 - Kristopher Carter - Orion to the Rescue / Dan's Funeral

41 - Shirley Walker - The New Batman / Superman Adventures - Twenty-Second Promo
Exact Audio Copy V1.0 beta 3 from 29. August 2011

EAC extraction logfile from 7. February 2014, 17:13

Various / Superman: The Animated Series OST Disc 2

Used drive : MATSHITADVD-RAM UJ8B0 Adapter: 0 ID: 0

Read mode : SecureUtilize accurate stream : YesDefeat audio cache : NoMake use of C2 pointers : No

Read offset correction : 102Overread into Lead-In and Lead-Out : NoFill up missing offset samples with silence : YesDelete leading and trailing silent blocks : NoNull samples used in CRC calculations : YesUsed interface : Native Win32 interface for Win NT & 2000Gap handling : Appended to previous track

Used output format : User Defined EncoderSelected bitrate : 128 kBit/sQuality : HighAdd ID3 tag : YesCommand line compressor : C:\Program Files (x86)\Exact Audio Copy\Flac\flac.exeAdditional command line options : -T "artist=%artist%" -T "title=%title%" -T "album=%albumtitle%" -T "date=%year%" -T "tracknumber=%tracknr%" -T "genre=%genre%" -5 %source%

TOC of the extracted CD

Track | Start | Length | Start sector | End sector --------------------------------------------------------- 1 | 0:00.00 | 1:04.74 | 0 | 4873 2 | 1:04.74 | 1:34.34 | 4874 | 11957 3 | 2:39.33 | 1:11.14 | 11958 | 17296 4 | 3:50.47 | 0:58.22 | 17297 | 21668 5 | 4:48.69 | 1:20.03 | 21669 | 27671 6 | 6:08.72 | 1:41.68 | 27672 | 35314 7 | 7:50.65 | 1:26.59 | 35315 | 41823 8 | 9:17.49 | 0:51.62 | 41824 | 45710 9 | 10:09.36 | 1:11.10 | 45711 | 51045 10 | 11:20.46 | 3:31.14 | 51046 | 66884 11 | 14:51.60 | 0:36.29 | 66885 | 69613 12 | 15:28.14 | 2:22.54 | 69614 | 80317 13 | 17:50.68 | 1:39.15 | 80318 | 87757 14 | 19:30.08 | 3:07.55 | 87758 | 101837 15 | 22:37.63 | 0:29.20 | 101838 | 104032 16 | 23:07.08 | 2:01.26 | 104033 | 113133 17 | 25:08.34 | 1:14.23 | 113134 | 118706 18 | 26:22.57 | 1:14.37 | 118707 | 124293 19 | 27:37.19 | 0:32.69 | 124294 | 126762 20 | 28:10.13 | 1:44.59 | 126763 | 134621 21 | 29:54.72 | 1:29.70 | 134622 | 141366 22 | 31:24.67 | 1:27.61 | 141367 | 147952 23 | 32:52.53 | 6:04.17 | 147953 | 175269 24 | 38:56.70 | 2:21.65 | 175270 | 185909 25 | 41:18.60 | 1:12.01 | 185910 | 191310 26 | 42:30.61 | 2:38.55 | 191311 | 203215 27 | 45:09.41 | 3:23.36 | 203216 | 218476 28 | 48:33.02 | 3:51.38 | 218477 | 235839 29 | 52:24.40 | 1:53.48 | 235840 | 244362 30 | 54:18.13 | 4:50.25 | 244363 | 266137 31 | 59:08.38 | 1:01.10 | 266138 | 270722 32 | 60:09.48 | 3:50.46 | 270723 | 288018 33 | 64:00.19 | 1:25.49 | 288019 | 294442 34 | 65:25.68 | 1:55.50 | 294443 | 303117 35 | 67:21.43 | 0:47.55 | 303118 | 306697 36 | 68:09.23 | 2:03.72 | 306698 | 315994 37 | 70:13.20 | 3:25.01 | 315995 | 331370 38 | 73:38.21 | 2:22.23 | 331371 | 342043 39 | 76:00.44 | 1:08.55 | 342044 | 347198 40 | 77:09.24 | 1:48.00 | 347199 | 355298

Track 1

Filename F:\FLAC H D\Superman TAS 4-Disc set\CD2\01 - The New Batman,Superman Adventures - Main Title.wav

Pre-gap length 0:00:02.00

Peak level 99.4 % Extraction speed 4.0 X Track quality 100.0 % Test CRC 34DA05C8 Copy CRC 34DA05C8 Accurately ripped (confidence 1) [78FCC224] (AR v2) Copy OK

Track 2

Filename F:\FLAC H D\Superman TAS 4-Disc set\CD2\02 - Closing Time,Joke in the Box Source,Batman Takes Evidence.wav

Pre-gap length 0:00:02.06

Peak level 97.5 % Extraction speed 4.3 X Track quality 100.0 % Test CRC EC811F16 Copy CRC EC811F16 Accurately ripped (confidence 1) [6FB61A4A] (AR v2) Copy OK

Track 3

Filename F:\FLAC H D\Superman TAS 4-Disc set\CD2\03 - Terrorists on Plane.wav

Peak level 98.3 % Extraction speed 4.4 X Track quality 100.0 % Test CRC 76A9AFA9 Copy CRC 76A9AFA9 Accurately ripped (confidence 1) [3B013FF1] (AR v2) Copy OK

Track 4

Filename F:\FLAC H D\Superman TAS 4-Disc set\CD2\04 - Lois Talks to Superman,Lois Beats Herself Up.wav

Peak level 87.0 % Extraction speed 4.4 X Track quality 100.0 % Test CRC 51967CB0 Copy CRC 51967CB0 Accurately ripped (confidence 1) [B7484A37] (AR v2) Copy OK

Track 5

Filename F:\FLAC H D\Superman TAS 4-Disc set\CD2\05 - Joker Abducts Lex.wav

Peak level 97.7 % Extraction speed 4.4 X Track quality 99.8 % Test CRC D76BADB8 Copy CRC D76BADB8 Accurately ripped (confidence 1) [FF3A3DD8] (AR v2) Copy OK

Track 6

Filename F:\FLAC H D\Superman TAS 4-Disc set\CD2\06 - Lex & Joker Make a Deal,Lois Meets Bruce.wav

Peak level 59.4 % Extraction speed 4.6 X Track quality 99.8 % Test CRC 73C46399 Copy CRC 73C46399 Accurately ripped (confidence 1) [3549A641] (AR v2) Copy OK

Track 7

Filename F:\FLAC H D\Superman TAS 4-Disc set\CD2\07 - Joker Undoes Carlini.wav

Peak level 97.6 % Extraction speed 4.9 X Track quality 100.0 % Test CRC 0977C077 Copy CRC 0977C077 Accurately ripped (confidence 1) [3B1E107B] (AR v2) Copy OK

Track 8

Filename F:\FLAC H D\Superman TAS 4-Disc set\CD2\08 - WayneLex.wav

Peak level 81.0 % Extraction speed 4.9 X Track quality 100.0 % Test CRC A1314E35 Copy CRC A1314E35 Accurately ripped (confidence 1) [2122DDC1] (AR v2) Copy OK

Track 9

Filename F:\FLAC H D\Superman TAS 4-Disc set\CD2\09 - First Dance.wav

Peak level 64.3 % Extraction speed 5.1 X Track quality 100.0 % Test CRC 38F369E4 Copy CRC 38F369E4 Accurately ripped (confidence 1) [3CF0AE58] (AR v2) Copy OK

Track 10

Filename F:\FLAC H D\Superman TAS 4-Disc set\CD2\10 - Batman Shows Up,Binko's Bad Night,Batman Bugs Superman.wav

Peak level 99.2 % Extraction speed 5.5 X Track quality 100.0 % Test CRC 9C432B80 Copy CRC 9C432B80 Accurately ripped (confidence 1) [CB0C74B1] (AR v2) Copy OK

Track 11

Filename F:\FLAC H D\Superman TAS 4-Disc set\CD2\11 - Recap (World's Finest, Part II).wav

Pre-gap length 0:00:01.97

Peak level 73.8 % Extraction speed 5.0 X Track quality 100.0 % Test CRC 7EFFBEC2 Copy CRC 7EFFBEC2 Accurately ripped (confidence 1) [C439DF8F] (AR v2) Copy OK

Track 12

Filename F:\FLAC H D\Superman TAS 4-Disc set\CD2\12 - Bruce and Lois Go Out,Joker Crashes Date,Joker's Plan.wav

Peak level 98.6 % Extraction speed 5.7 X Track quality 99.9 % Test CRC A18F0C91 Copy CRC A18F0C91 Accurately ripped (confidence 1) [A426AD9F] (AR v2) Copy OK

Track 13

Filename F:\FLAC H D\Superman TAS 4-Disc set\CD2\13 - Batwing Takes Off,Superman Meets Joker.wav

Peak level 97.5 % Extraction speed 5.8 X Track quality 100.0 % Test CRC 1F75751E Copy CRC 1F75751E Accurately ripped (confidence 1) [62CDE27A] (AR v2) Copy OK

Track 14

Filename F:\FLAC H D\Superman TAS 4-Disc set\CD2\14 - Batman Saves Superman.wav

Peak level 98.5 % Extraction speed 6.2 X Track quality 100.0 % Test CRC FB03B286 Copy CRC FB03B286 Accurately ripped (confidence 1) [4D8B425A] (AR v2) Copy OK

Track 15

Filename F:\FLAC H D\Superman TAS 4-Disc set\CD2\15 - Batman Makes His Exit.wav

Peak level 55.8 % Extraction speed 5.6 X Track quality 100.0 % Test CRC 07B8B0C1 Copy CRC 07B8B0C1 Accurately ripped (confidence 1) [D5F58EAB] (AR v2) Copy OK

Track 16

Filename F:\FLAC H D\Superman TAS 4-Disc set\CD2\16 - Harley Cheers Up Joker,Lex Meets With Joker.wav

Peak level 97.7 % Extraction speed 6.3 X Track quality 100.0 % Test CRC 68612667 Copy CRC 68612667 Accurately ripped (confidence 1) [8DC7C6A7] (AR v2) Copy OK

Track 17

Filename F:\FLAC H D\Superman TAS 4-Disc set\CD2\17 - Batman Pays Lex a Visit,Superman Flies By.wav

Peak level 98.2 % Extraction speed 6.2 X Track quality 100.0 % Test CRC 9F6AD442 Copy CRC 9F6AD442 Accurately ripped (confidence 1) [0416C9F8] (AR v2) Copy OK

Track 18

Filename F:\FLAC H D\Superman TAS 4-Disc set\CD2\18 - Jet Pac Transportation,Joker Uses Robot.wav

Peak level 97.2 % Extraction speed 6.4 X Track quality 100.0 % Test CRC A740D756 Copy CRC A740D756 Accurately ripped (confidence 1) [C50EC786] (AR v2) Copy OK

Track 19

Filename F:\FLAC H D\Superman TAS 4-Disc set\CD2\19 - Recap (World's Finest, Part III).wav

Pre-gap length 0:00:02.45

Peak level 97.7 % Extraction speed 5.9 X Track quality 100.0 % Test CRC 4F8DA096 Copy CRC 4F8DA096 Accurately ripped (confidence 1) [56D6ECE6] (AR v2) Copy OK

Track 20

Filename F:\FLAC H D\Superman TAS 4-Disc set\CD2\20 - Ship in Distress.wav

Peak level 97.7 % Extraction speed 6.6 X Track quality 100.0 % Test CRC 181A3663 Copy CRC 181A3663 Accurately ripped (confidence 1) [B1EF9D9F] (AR v2) Copy OK

Track 21

Filename F:\FLAC H D\Superman TAS 4-Disc set\CD2\21 - Batman Drops In,Batman Unmasked,Superman Stops Robot.wav

Peak level 98.6 % Extraction speed 6.6 X Track quality 99.8 % Test CRC D327FF78 Copy CRC D327FF78 Accurately ripped (confidence 1) [CAB47C33] (AR v2) Copy OK

Track 22

Filename F:\FLAC H D\Superman TAS 4-Disc set\CD2\22 - Batman Has to Leave,Lex Sets Up Joker.wav

Peak level 97.6 % Extraction speed 6.7 X Track quality 100.0 % Test CRC B21FAD14 Copy CRC B21FAD14 Accurately ripped (confidence 1) [4CC4C419] (AR v2) Copy OK

Track 23

Filename F:\FLAC H D\Superman TAS 4-Disc set\CD2\23 - Arrival at Lab,Robots Battle Superman,Batman Gets to Lexwing.wav

Peak level 98.5 % Extraction speed 7.2 X Track quality 99.9 % Test CRC 16C8BA6B Copy CRC 16C8BA6B Accurately ripped (confidence 1) [D0F57116] (AR v2) Copy OK

Track 24

Filename F:\FLAC H D\Superman TAS 4-Disc set\CD2\24 - Lexwing Crashes.wav

Peak level 98.3 % Extraction speed 7.4 X Track quality 100.0 % Test CRC 96F7C0F0 Copy CRC 96F7C0F0 Accurately ripped (confidence 1) [C47AC5AE] (AR v2) Copy OK

Track 25

Filename F:\FLAC H D\Superman TAS 4-Disc set\CD2\25 - Bruce Returns to Gotham.wav

Peak level 97.0 % Extraction speed 7.1 X Track quality 99.8 % Test CRC 7A27AB66 Copy CRC 7A27AB66 Accurately ripped (confidence 1) [19B97C6B] (AR v2) Copy OK

Track 26

Filename F:\FLAC H D\Superman TAS 4-Disc set\CD2\26 - Stopping Traffic,Reading the Comics,The Statue Moves.wav

Pre-gap length 0:00:04.13

Peak level 80.7 % Extraction speed 7.7 X Track quality 100.0 % Test CRC B01C00F8 Copy CRC B01C00F8 Accurately ripped (confidence 1) [25AE953A] (AR v2) Copy OK

Track 27

Filename F:\FLAC H D\Superman TAS 4-Disc set\CD2\27 - Chickens,Setting the Rules.wav

Peak level 97.1 % Extraction speed 7.8 X Track quality 99.9 % Test CRC FD4A5EBE Copy CRC FD4A5EBE Accurately ripped (confidence 1) [64AC10B8] (AR v2) Copy OK

Track 28

Filename F:\FLAC H D\Superman TAS 4-Disc set\CD2\28 - A Close Shave,Proofreading,Apartment Source.wav

Peak level 97.4 % Extraction speed 8.1 X Track quality 100.0 % Test CRC 854BE2B2 Copy CRC 854BE2B2 Accurately ripped (confidence 1) [BF74BAE8] (AR v2) Copy OK

Track 29

Filename F:\FLAC H D\Superman TAS 4-Disc set\CD2\29 - Building Battle Suit.wav

Peak level 89.4 % Extraction speed 8.1 X Track quality 100.0 % Test CRC 193F614A Copy CRC 193F614A Accurately ripped (confidence 1) [CC218F7F] (AR v2) Copy OK

Track 30

Filename F:\FLAC H D\Superman TAS 4-Disc set\CD2\30 - Clark's Calendar,Office Menagerie,Aerial Chase.wav

Peak level 93.1 % Extraction speed 8.6 X Track quality 100.0 % Test CRC 186F9C2C Copy CRC 186F9C2C Accurately ripped (confidence 1) [3DDCFE81] (AR v2) Copy OK

Track 31

Filename F:\FLAC H D\Superman TAS 4-Disc set\CD2\31 - Why Am I Eating This.wav

Peak level 90.4 % Extraction speed 8.1 X Track quality 100.0 % Test CRC ED348C33 Copy CRC ED348C33 Accurately ripped (confidence 1) [66DBF56D] (AR v2) Copy OK

Track 32

Filename F:\FLAC H D\Superman TAS 4-Disc set\CD2\32 - Scream Machine Lands,Superman vs. Machine.wav

Pre-gap length 0:00:05.40

Peak level 100.0 % Extraction speed 8.8 X Track quality 100.0 % Test CRC 3225834B Copy CRC 3225834B Accurately ripped (confidence 1) [12EB09B5] (AR v2) Copy OK

Track 33

Filename F:\FLAC H D\Superman TAS 4-Disc set\CD2\33 - Desaad's Tricky Plan.wav

Peak level 78.6 % Extraction speed 8.0 X Track quality 99.8 % Test CRC 9D3AED3E Copy CRC 9D3AED3E Accurately ripped (confidence 1) [59ABDDA2] (AR v2) Copy OK

Track 34

Filename F:\FLAC H D\Superman TAS 4-Disc set\CD2\34 - Kalibak Comes to Earth,Kalibak Trashes Minerva.wav

Peak level 91.1 % Extraction speed 8.8 X Track quality 100.0 % Test CRC C75F8B02 Copy CRC C75F8B02 Accurately ripped (confidence 1) [A6FACCB3] (AR v2) Copy OK

Track 35

Filename F:\FLAC H D\Superman TAS 4-Disc set\CD2\35 - Kalibak Ambushes Superman.wav

Peak level 91.0 % Extraction speed 8.2 X Track quality 100.0 % Test CRC D64AAC99 Copy CRC D64AAC99 Accurately ripped (confidence 1) [44DD4D38] (AR v2) Copy OK

Track 36

Filename F:\FLAC H D\Superman TAS 4-Disc set\CD2\36 - Superman vs. Kalibak,Fight on Train Track.wav

Peak level 95.7 % Extraction speed 8.9 X Track quality 100.0 % Test CRC 59AE647B Copy CRC 59AE647B Accurately ripped (confidence 1) [E15368CB] (AR v2) Copy OK

Track 37

Filename F:\FLAC H D\Superman TAS 4-Disc set\CD2\37 - Battle Continues,Power Struggle.wav

Peak level 96.7 % Extraction speed 9.3 X Track quality 100.0 % Test CRC BF0FA2E0 Copy CRC BF0FA2E0 Accurately ripped (confidence 1) [776EAC9E] (AR v2) Copy OK

Track 38

Filename F:\FLAC H D\Superman TAS 4-Disc set\CD2\38 - Darkseid Beams Superman.wav

Peak level 99.6 % Extraction speed 9.2 X Track quality 100.0 % Test CRC 40ED3789 Copy CRC 40ED3789 Accurately ripped (confidence 1) [87576665] (AR v2) Copy OK

Track 39

Filename F:\FLAC H D\Superman TAS 4-Disc set\CD2\39 - Restaurant Source.wav

Pre-gap length 0:00:01.74

Peak level 42.1 % Extraction speed 8.1 X Track quality 99.8 % Test CRC 01A19EDC Copy CRC 01A19EDC Accurately ripped (confidence 1) [8AFCC4AD] (AR v2) Copy OK

Track 40

Filename F:\FLAC H D\Superman TAS 4-Disc set\CD2\40 - The New Batman,Superman Adventures - End Credits.wav

Pre-gap length 0:00:03.78

Peak level 98.9 % Extraction speed 9.2 X Track quality 100.0 % Test CRC 46B6BD9F Copy CRC 46B6BD9F Accurately ripped (confidence 1) [F22441F6] (AR v2) Copy OK

All tracks accurately ripped

No errors occurred

End of status report

==== Log checksum 79876DDA7A46B5A5E919BF3028CEE17D6CEAEDD2EDBC69E10D678887332F7D31 ====
REM GENRE SoundtrackREM DATE 2014REM DISCID 38128128REM COMMENT "ExactAudioCopy v1.0b3"PERFORMER "Various"TITLE "Superman: The Animated Series OST Disc 2"FILE "01 - The New Batman-Superman Adventures - Main Title.wav" WAVE TRACK 01 AUDIO TITLE "The New Batman/Superman Adventures - Main Title" PERFORMER "Shirley Walker" INDEX 01 00:00:00 TRACK 02 AUDIO TITLE "Closing Time / Joke in the Box Source / Batman Takes Evidence" PERFORMER "Michael McCuistion & Shirley Walker" INDEX 00 01:02:69FILE "02 - Closing Time - Joke in the Box Source - Batman Takes Evidence.wav" WAVE INDEX 01 00:00:00FILE "03 - Terrorists on Plane.wav" WAVE TRACK 03 AUDIO TITLE "Terrorists on Plane" PERFORMER "Michael McCuistion & Shirley Walker" INDEX 01 00:00:00FILE "04 - Lois Talks to Superman - Lois Beats Herself Up.wav" WAVE TRACK 04 AUDIO TITLE "Lois Talks to Superman / Lois Beats Herself Up" PERFORMER "Michael McCuistion" INDEX 01 00:00:00FILE "05 - Joker Abducts Lex.wav" WAVE TRACK 05 AUDIO TITLE "Joker Abducts Lex" PERFORMER "Michael McCuistion" INDEX 01 00:00:00FILE "06 - Lex & Joker Make a Deal - Lois Meets Bruce.wav" WAVE TRACK 06 AUDIO TITLE "Lex & Joker Make a Deal / Lois Meets Bruce" PERFORMER "Michael McCuistion" INDEX 01 00:00:00FILE "07 - Joker Undoes Carlini.wav" WAVE TRACK 07 AUDIO TITLE "Joker Undoes Carlini" PERFORMER "Michael McCuistion" INDEX 01 00:00:00FILE "08 - WayneLex.wav" WAVE TRACK 08 AUDIO TITLE "WayneLex" PERFORMER "Michael McCuistion" INDEX 01 00:00:00FILE "09 - First Dance.wav" WAVE TRACK 09 AUDIO TITLE "First Dance" PERFORMER "Michael McCuistion" INDEX 01 00:00:00FILE "10 - Batman Shows Up - Binko's Bad Night - Batman Bugs Superman.wav" WAVE TRACK 10 AUDIO TITLE "Batman Shows Up / Binko's Bad Night / Batman Bugs Superman" PERFORMER "Michael McCuistion" INDEX 01 00:00:00 TRACK 11 AUDIO TITLE "Recap (World's Finest, Part II)" PERFORMER "Michael McCuistion" INDEX 00 03:29:16FILE "11 - Recap (World's Finest, Part II).wav" WAVE INDEX 01 00:00:00FILE "12 - Bruce and Lois Go Out - Joker Crashes Date - Joker's Plan.wav" WAVE TRACK 12 AUDIO TITLE "Bruce and Lois Go Out / Joker Crashes Date / Joker's Plan" PERFORMER "Michael McCuistion" INDEX 01 00:00:00FILE "13 - Batwing Takes Off - Superman Meets Joker.wav" WAVE TRACK 13 AUDIO TITLE "Batwing Takes Off / Superman Meets Joker" PERFORMER "Michael McCuistion" INDEX 01 00:00:00FILE "14 - Batman Saves Superman.wav" WAVE TRACK 14 AUDIO TITLE "Batman Saves Superman" PERFORMER "Michael McCuistion" INDEX 01 00:00:00FILE "15 - Batman Makes His Exit.wav" WAVE TRACK 15 AUDIO TITLE "Batman Makes His Exit" PERFORMER "Michael McCuistion" INDEX 01 00:00:00FILE "16 - Harley Cheers Up Joker - Lex Meets With Joker.wav" WAVE TRACK 16 AUDIO TITLE "Harley Cheers Up Joker / Lex Meets With Joker" PERFORMER "Michael McCuistion" INDEX 01 00:00:00FILE "17 - Batman Pays Lex a Visit - Superman Flies By.wav" WAVE TRACK 17 AUDIO TITLE "Batman Pays Lex a Visit / Superman Flies By" PERFORMER "Michael McCuistion" INDEX 01 00:00:00FILE "18 - Jet Pac Transportation - Joker Uses Robot.wav" WAVE TRACK 18 AUDIO TITLE "Jet Pac Transportation / Joker Uses Robot" PERFORMER "Michael McCuistion" INDEX 01 00:00:00 TRACK 19 AUDIO TITLE "Recap (World's Finest, Part III)" PERFORMER "Michael McCuistion" INDEX 00 01:12:03FILE "19 - Recap (World's Finest, Part III).wav" WAVE INDEX 01 00:00:00FILE "20 - Ship in Distress.wav" WAVE TRACK 20 AUDIO TITLE "Ship in Distress" PERFORMER "Michael McCuistion" INDEX 01 00:00:00FILE "21 - Batman Drops In - Batman Unmasked - Superman Stops Robot.wav" WAVE TRACK 21 AUDIO TITLE "Batman Drops In / Batman Unmasked / Superman Stops Robot" PERFORMER "Michael McCuistion" INDEX 01 00:00:00FILE "22 - Batman Has to Leave - Lex Sets Up Joker.wav" WAVE TRACK 22 AUDIO TITLE "Batman Has to Leave / Lex Sets Up Joker" PERFORMER "Michael McCuistion" INDEX 01 00:00:00FILE "23 - Arrival at Lab - Robots Battle Superman - Batman Gets to Lexwing.wav" WAVE TRACK 23 AUDIO TITLE "Arrival at Lab / Robots Battle Superman / Batman Gets to Lexwing" PERFORMER "Lolita Ritmanis" INDEX 01 00:00:00FILE "24 - Lexwing Crashes.wav" WAVE TRACK 24 AUDIO TITLE "Lexwing Crashes" PERFORMER "Michael McCuistion" INDEX 01 00:00:00FILE "25 - Bruce Returns to Gotham.wav" WAVE TRACK 25 AUDIO TITLE "Bruce Returns to Gotham" PERFORMER "Michael McCuistion" INDEX 01 00:00:00 TRACK 26 AUDIO TITLE "Stopping Traffic / Reading the Comics / The Statue Moves" PERFORMER "Harvey R. Cohen" INDEX 00 01:07:66FILE "26 - Stopping Traffic - Reading the Comics - The Statue Moves.wav" WAVE INDEX 01 00:00:00FILE "27 - Chickens - Setting the Rules.wav" WAVE TRACK 27 AUDIO TITLE "Chickens / Setting the Rules" PERFORMER "Harvey R. Cohen" INDEX 01 00:00:00FILE "28 - A Close Shave - Proofreading - Apartment Source.wav" WAVE TRACK 28 AUDIO TITLE "A Close Shave / Proofreading / Apartment Source" PERFORMER "Harvey R. Cohen & Shirley Walker" INDEX 01 00:00:00FILE "29 - Building Battle Suit.wav" WAVE TRACK 29 AUDIO TITLE "Building Battle Suit" PERFORMER "Harvey R. Cohen" INDEX 01 00:00:00FILE "30 - Clark's Calendar - Office Menagerie - Aerial Chase.wav" WAVE TRACK 30 AUDIO TITLE "Clark's Calendar / Office Menagerie / Aerial Chase" PERFORMER "Harvey R. Cohen & Shirley Walker" INDEX 01 00:00:00FILE "31 - Why Am I Eating This.wav" WAVE TRACK 31 AUDIO TITLE "Why Am I Eating This?" PERFORMER "Harvey R. Cohen" INDEX 01 00:00:00 TRACK 32 AUDIO TITLE "Scream Machine Lands / Superman vs. Machine" PERFORMER "Shirley Walker" INDEX 00 00:55:55FILE "32 - Scream Machine Lands - Superman vs. Machine.wav" WAVE INDEX 01 00:00:00FILE "33 - Desaad's Tricky Plan.wav" WAVE TRACK 33 AUDIO TITLE "Desaad's Tricky Plan" PERFORMER "Shirley Walker" INDEX 01 00:00:00FILE "34 - Kalibak Comes to Earth - Kalibak Trashes Minerva.wav" WAVE TRACK 34 AUDIO TITLE "Kalibak Comes to Earth / Kalibak Trashes Minerva" PERFORMER "Shirley Walker" INDEX 01 00:00:00FILE "35 - Kalibak Ambushes Superman.wav" WAVE TRACK 35 AUDIO TITLE "Kalibak Ambushes Superman" PERFORMER "Shirley Walker" INDEX 01 00:00:00FILE "36 - Superman vs. Kalibak - Fight on Train Track.wav" WAVE TRACK 36 AUDIO TITLE "Superman vs. Kalibak / Fight on Train Track" PERFORMER "Shirley Walker" INDEX 01 00:00:00FILE "37 - Battle Continues - Power Struggle.wav" WAVE TRACK 37 AUDIO TITLE "Battle Continues / Power Struggle" PERFORMER "Shirley Walker" INDEX 01 00:00:00FILE "38 - Darkseid Beams Superman.wav" WAVE TRACK 38 AUDIO TITLE "Darkseid Beams Superman" PERFORMER "Shirley Walker" INDEX 01 00:00:00 TRACK 39 AUDIO TITLE "Restaurant Source" PERFORMER "Shirley Walker" INDEX 00 02:20:42FILE "39 - Restaurant Source.wav" WAVE INDEX 01 00:00:00 TRACK 40 AUDIO TITLE "The New Batman-Superman Adventures - End Credits" PERFORMER "Shirley Walker" INDEX 00 01:04:71FILE "40 - The New Batman-Superman Adventures - End Credits.wav" WAVE INDEX 01 00:00:00
01 - Shirley Walker - Superman: The Animated Series - Ten-Second Promo

Little Girl Lost, Part I
02 - Lolita Ritmanis - Journey Through Space
03 - Lolita Ritmanis - Superman Enters Chamber / Kara's Story / Superman Finds Kara
04 - Lolita Ritmanis - Kara Flies
05 - Lolita Ritmanis - Intergang Interest / Intergang Arrives
06 - Lolita Ritmanis - Gang Fights Superman
07 - Lolita Ritmanis - Granny Knows Best / Kara Joins Jimmy
08 - Lolita Ritmanis - Following Gang into Building
09 - Lolita Ritmanis - Granny Takes Control

Little Girl Lost, Part II
10 - Lolita Ritmanis - Recap (Little Girl Lost, Part II)
11 - Lolita Ritmanis - Surrounded
12 - Lolita Ritmanis - Superman is Captured / Kara Leaves for Apokolips
13 - Lolita Ritmanis - Kara Arrives on Apokolips
14 - Lolita Ritmanis - Kara Escapes Parademons
15 - Lolita Ritmanis - Superman Kneels / Darkseid's Prediction / Get Back Home
16 - Lolita Ritmanis - Stop Comet / Superman Catches
17 - Lolita Ritmanis - Supergirl's OK

Feeding Time
18 - Michael McCuistion - Toxic Waste
19 - Michael McCuistion - Rudy Becomes Toxic / Goo on Superman's Finger
20 - Michael McCuistion - Parasite Saps Police
21 - Michael McCuistion - Parasite Visits LeBeau / Parasite Saps Superman's Energy
22 - Michael McCuistion - Parasite Can't Rob Bank
23 - Michael McCuistion - Parasite Attacks Clark / His New Meal Plan
24 - Michael McCuistion - Jimmy Gets Idea
25 - Michael McCuistion - Superman Saves Jimmy / Saved by a Bug

Legacy, Part I
26 - Shirley Walker - Planet Attack
27 - Shirley Walker - Leader Revealed
28 - Shirley Walker - Kal-El's Dream
29 - Shirley Walker - Brainwashed
30 - Shirley Walker - Supergirl Chases Robot
31 - Shirley Walker - Lex Knows
32 - Shirley Walker - Ready for Battle
33 - Shirley Walker - Kal-El Attacks Earth
34 - Shirley Walker - Lex Kills Kal-El

Legacy, Part II
35 - Shirley Walker - Recap (Legacy, Part II)
36 - Shirley Walker - Taken Prisoner
37 - Shirley Walker - Superman Tries to Escape
38 - Shirley Walker - Lois Springs Superman
39 - Shirley Walker - Lois Comforts Superman
40 - Shirley Walker - Return to Apokolips
41 - Shirley Walker - Superman vs. Furies
42 - Shirley Walker - Superman vs. Darkseid
43 - Shirley Walker - Darkseid Prevails
44 - Shirley Walker - Lois and Superman

45 - Shirley Walker - Superman: The Animated Series - End Credits
Exact Audio Copy V1.0 beta 3 from 29. August 2011

EAC extraction logfile from 7. February 2014, 17:13

Various / Superman: The Animated Series OST Disc 2

Used drive : MATSHITADVD-RAM UJ8B0 Adapter: 0 ID: 0

Read mode : SecureUtilize accurate stream : YesDefeat audio cache : NoMake use of C2 pointers : No

Read offset correction : 102Overread into Lead-In and Lead-Out : NoFill up missing offset samples with silence : YesDelete leading and trailing silent blocks : NoNull samples used in CRC calculations : YesUsed interface : Native Win32 interface for Win NT & 2000Gap handling : Appended to previous track

Used output format : User Defined EncoderSelected bitrate : 128 kBit/sQuality : HighAdd ID3 tag : YesCommand line compressor : C:\Program Files (x86)\Exact Audio Copy\Flac\flac.exeAdditional command line options : -T "artist=%artist%" -T "title=%title%" -T "album=%albumtitle%" -T "date=%year%" -T "tracknumber=%tracknr%" -T "genre=%genre%" -5 %source%

TOC of the extracted CD

Track | Start | Length | Start sector | End sector --------------------------------------------------------- 1 | 0:00.00 | 1:04.74 | 0 | 4873 2 | 1:04.74 | 1:34.34 | 4874 | 11957 3 | 2:39.33 | 1:11.14 | 11958 | 17296 4 | 3:50.47 | 0:58.22 | 17297 | 21668 5 | 4:48.69 | 1:20.03 | 21669 | 27671 6 | 6:08.72 | 1:41.68 | 27672 | 35314 7 | 7:50.65 | 1:26.59 | 35315 | 41823 8 | 9:17.49 | 0:51.62 | 41824 | 45710 9 | 10:09.36 | 1:11.10 | 45711 | 51045 10 | 11:20.46 | 3:31.14 | 51046 | 66884 11 | 14:51.60 | 0:36.29 | 66885 | 69613 12 | 15:28.14 | 2:22.54 | 69614 | 80317 13 | 17:50.68 | 1:39.15 | 80318 | 87757 14 | 19:30.08 | 3:07.55 | 87758 | 101837 15 | 22:37.63 | 0:29.20 | 101838 | 104032 16 | 23:07.08 | 2:01.26 | 104033 | 113133 17 | 25:08.34 | 1:14.23 | 113134 | 118706 18 | 26:22.57 | 1:14.37 | 118707 | 124293 19 | 27:37.19 | 0:32.69 | 124294 | 126762 20 | 28:10.13 | 1:44.59 | 126763 | 134621 21 | 29:54.72 | 1:29.70 | 134622 | 141366 22 | 31:24.67 | 1:27.61 | 141367 | 147952 23 | 32:52.53 | 6:04.17 | 147953 | 175269 24 | 38:56.70 | 2:21.65 | 175270 | 185909 25 | 41:18.60 | 1:12.01 | 185910 | 191310 26 | 42:30.61 | 2:38.55 | 191311 | 203215 27 | 45:09.41 | 3:23.36 | 203216 | 218476 28 | 48:33.02 | 3:51.38 | 218477 | 235839 29 | 52:24.40 | 1:53.48 | 235840 | 244362 30 | 54:18.13 | 4:50.25 | 244363 | 266137 31 | 59:08.38 | 1:01.10 | 266138 | 270722 32 | 60:09.48 | 3:50.46 | 270723 | 288018 33 | 64:00.19 | 1:25.49 | 288019 | 294442 34 | 65:25.68 | 1:55.50 | 294443 | 303117 35 | 67:21.43 | 0:47.55 | 303118 | 306697 36 | 68:09.23 | 2:03.72 | 306698 | 315994 37 | 70:13.20 | 3:25.01 | 315995 | 331370 38 | 73:38.21 | 2:22.23 | 331371 | 342043 39 | 76:00.44 | 1:08.55 | 342044 | 347198 40 | 77:09.24 | 1:48.00 | 347199 | 355298

Track 1

Filename F:\FLAC H D\Superman TAS 4-Disc set\CD2\01 - The New Batman,Superman Adventures - Main Title.wav

Pre-gap length 0:00:02.00

Peak level 99.4 % Extraction speed 4.0 X Track quality 100.0 % Test CRC 34DA05C8 Copy CRC 34DA05C8 Accurately ripped (confidence 1) [78FCC224] (AR v2) Copy OK

Track 2

Filename F:\FLAC H D\Superman TAS 4-Disc set\CD2\02 - Closing Time,Joke in the Box Source,Batman Takes Evidence.wav

Pre-gap length 0:00:02.06

Peak level 97.5 % Extraction speed 4.3 X Track quality 100.0 % Test CRC EC811F16 Copy CRC EC811F16 Accurately ripped (confidence 1) [6FB61A4A] (AR v2) Copy OK

Track 3

Filename F:\FLAC H D\Superman TAS 4-Disc set\CD2\03 - Terrorists on Plane.wav

Peak level 98.3 % Extraction speed 4.4 X Track quality 100.0 % Test CRC 76A9AFA9 Copy CRC 76A9AFA9 Accurately ripped (confidence 1) [3B013FF1] (AR v2) Copy OK

Track 4

Filename F:\FLAC H D\Superman TAS 4-Disc set\CD2\04 - Lois Talks to Superman,Lois Beats Herself Up.wav

Peak level 87.0 % Extraction speed 4.4 X Track quality 100.0 % Test CRC 51967CB0 Copy CRC 51967CB0 Accurately ripped (confidence 1) [B7484A37] (AR v2) Copy OK

Track 5

Filename F:\FLAC H D\Superman TAS 4-Disc set\CD2\05 - Joker Abducts Lex.wav

Peak level 97.7 % Extraction speed 4.4 X Track quality 99.8 % Test CRC D76BADB8 Copy CRC D76BADB8 Accurately ripped (confidence 1) [FF3A3DD8] (AR v2) Copy OK

Track 6

Filename F:\FLAC H D\Superman TAS 4-Disc set\CD2\06 - Lex & Joker Make a Deal,Lois Meets Bruce.wav

Peak level 59.4 % Extraction speed 4.6 X Track quality 99.8 % Test CRC 73C46399 Copy CRC 73C46399 Accurately ripped (confidence 1) [3549A641] (AR v2) Copy OK

Track 7

Filename F:\FLAC H D\Superman TAS 4-Disc set\CD2\07 - Joker Undoes Carlini.wav

Peak level 97.6 % Extraction speed 4.9 X Track quality 100.0 % Test CRC 0977C077 Copy CRC 0977C077 Accurately ripped (confidence 1) [3B1E107B] (AR v2) Copy OK

Track 8

Filename F:\FLAC H D\Superman TAS 4-Disc set\CD2\08 - WayneLex.wav

Peak level 81.0 % Extraction speed 4.9 X Track quality 100.0 % Test CRC A1314E35 Copy CRC A1314E35 Accurately ripped (confidence 1) [2122DDC1] (AR v2) Copy OK

Track 9

Filename F:\FLAC H D\Superman TAS 4-Disc set\CD2\09 - First Dance.wav

Peak level 64.3 % Extraction speed 5.1 X Track quality 100.0 % Test CRC 38F369E4 Copy CRC 38F369E4 Accurately ripped (confidence 1) [3CF0AE58] (AR v2) Copy OK

Track 10

Filename F:\FLAC H D\Superman TAS 4-Disc set\CD2\10 - Batman Shows Up,Binko's Bad Night,Batman Bugs Superman.wav

Peak level 99.2 % Extraction speed 5.5 X Track quality 100.0 % Test CRC 9C432B80 Copy CRC 9C432B80 Accurately ripped (confidence 1) [CB0C74B1] (AR v2) Copy OK

Track 11

Filename F:\FLAC H D\Superman TAS 4-Disc set\CD2\11 - Recap (World's Finest, Part II).wav

Pre-gap length 0:00:01.97

Peak level 73.8 % Extraction speed 5.0 X Track quality 100.0 % Test CRC 7EFFBEC2 Copy CRC 7EFFBEC2 Accurately ripped (confidence 1) [C439DF8F] (AR v2) Copy OK

Track 12

Filename F:\FLAC H D\Superman TAS 4-Disc set\CD2\12 - Bruce and Lois Go Out,Joker Crashes Date,Joker's Plan.wav

Peak level 98.6 % Extraction speed 5.7 X Track quality 99.9 % Test CRC A18F0C91 Copy CRC A18F0C91 Accurately ripped (confidence 1) [A426AD9F] (AR v2) Copy OK

Track 13

Filename F:\FLAC H D\Superman TAS 4-Disc set\CD2\13 - Batwing Takes Off,Superman Meets Joker.wav

Peak level 97.5 % Extraction speed 5.8 X Track quality 100.0 % Test CRC 1F75751E Copy CRC 1F75751E Accurately ripped (confidence 1) [62CDE27A] (AR v2) Copy OK

Track 14

Filename F:\FLAC H D\Superman TAS 4-Disc set\CD2\14 - Batman Saves Superman.wav

Peak level 98.5 % Extraction speed 6.2 X Track quality 100.0 % Test CRC FB03B286 Copy CRC FB03B286 Accurately ripped (confidence 1) [4D8B425A] (AR v2) Copy OK

Track 15

Filename F:\FLAC H D\Superman TAS 4-Disc set\CD2\15 - Batman Makes His Exit.wav

Peak level 55.8 % Extraction speed 5.6 X Track quality 100.0 % Test CRC 07B8B0C1 Copy CRC 07B8B0C1 Accurately ripped (confidence 1) [D5F58EAB] (AR v2) Copy OK

Track 16

Filename F:\FLAC H D\Superman TAS 4-Disc set\CD2\16 - Harley Cheers Up Joker,Lex Meets With Joker.wav

Peak level 97.7 % Extraction speed 6.3 X Track quality 100.0 % Test CRC 68612667 Copy CRC 68612667 Accurately ripped (confidence 1) [8DC7C6A7] (AR v2) Copy OK

Track 17

Filename F:\FLAC H D\Superman TAS 4-Disc set\CD2\17 - Batman Pays Lex a Visit,Superman Flies By.wav

Peak level 98.2 % Extraction speed 6.2 X Track quality 100.0 % Test CRC 9F6AD442 Copy CRC 9F6AD442 Accurately ripped (confidence 1) [0416C9F8] (AR v2) Copy OK

Track 18

Filename F:\FLAC H D\Superman TAS 4-Disc set\CD2\18 - Jet Pac Transportation,Joker Uses Robot.wav

Peak level 97.2 % Extraction speed 6.4 X Track quality 100.0 % Test CRC A740D756 Copy CRC A740D756 Accurately ripped (confidence 1) [C50EC786] (AR v2) Copy OK

Track 19

Filename F:\FLAC H D\Superman TAS 4-Disc set\CD2\19 - Recap (World's Finest, Part III).wav

Pre-gap length 0:00:02.45

Peak level 97.7 % Extraction speed 5.9 X Track quality 100.0 % Test CRC 4F8DA096 Copy CRC 4F8DA096 Accurately ripped (confidence 1) [56D6ECE6] (AR v2) Copy OK

Track 20

Filename F:\FLAC H D\Superman TAS 4-Disc set\CD2\20 - Ship in Distress.wav

Peak level 97.7 % Extraction speed 6.6 X Track quality 100.0 % Test CRC 181A3663 Copy CRC 181A3663 Accurately ripped (confidence 1) [B1EF9D9F] (AR v2) Copy OK

Track 21

Filename F:\FLAC H D\Superman TAS 4-Disc set\CD2\21 - Batman Drops In,Batman Unmasked,Superman Stops Robot.wav

Peak level 98.6 % Extraction speed 6.6 X Track quality 99.8 % Test CRC D327FF78 Copy CRC D327FF78 Accurately ripped (confidence 1) [CAB47C33] (AR v2) Copy OK

Track 22

Filename F:\FLAC H D\Superman TAS 4-Disc set\CD2\22 - Batman Has to Leave,Lex Sets Up Joker.wav

Peak level 97.6 % Extraction speed 6.7 X Track quality 100.0 % Test CRC B21FAD14 Copy CRC B21FAD14 Accurately ripped (confidence 1) [4CC4C419] (AR v2) Copy OK

Track 23

Filename F:\FLAC H D\Superman TAS 4-Disc set\CD2\23 - Arrival at Lab,Robots Battle Superman,Batman Gets to Lexwing.wav

Peak level 98.5 % Extraction speed 7.2 X Track quality 99.9 % Test CRC 16C8BA6B Copy CRC 16C8BA6B Accurately ripped (confidence 1) [D0F57116] (AR v2) Copy OK

Track 24

Filename F:\FLAC H D\Superman TAS 4-Disc set\CD2\24 - Lexwing Crashes.wav

Peak level 98.3 % Extraction speed 7.4 X Track quality 100.0 % Test CRC 96F7C0F0 Copy CRC 96F7C0F0 Accurately ripped (confidence 1) [C47AC5AE] (AR v2) Copy OK

Track 25

Filename F:\FLAC H D\Superman TAS 4-Disc set\CD2\25 - Bruce Returns to Gotham.wav

Peak level 97.0 % Extraction speed 7.1 X Track quality 99.8 % Test CRC 7A27AB66 Copy CRC 7A27AB66 Accurately ripped (confidence 1) [19B97C6B] (AR v2) Copy OK

Track 26

Filename F:\FLAC H D\Superman TAS 4-Disc set\CD2\26 - Stopping Traffic,Reading the Comics,The Statue Moves.wav

Pre-gap length 0:00:04.13

Peak level 80.7 % Extraction speed 7.7 X Track quality 100.0 % Test CRC B01C00F8 Copy CRC B01C00F8 Accurately ripped (confidence 1) [25AE953A] (AR v2) Copy OK

Track 27

Filename F:\FLAC H D\Superman TAS 4-Disc set\CD2\27 - Chickens,Setting the Rules.wav

Peak level 97.1 % Extraction speed 7.8 X Track quality 99.9 % Test CRC FD4A5EBE Copy CRC FD4A5EBE Accurately ripped (confidence 1) [64AC10B8] (AR v2) Copy OK

Track 28

Filename F:\FLAC H D\Superman TAS 4-Disc set\CD2\28 - A Close Shave,Proofreading,Apartment Source.wav

Peak level 97.4 % Extraction speed 8.1 X Track quality 100.0 % Test CRC 854BE2B2 Copy CRC 854BE2B2 Accurately ripped (confidence 1) [BF74BAE8] (AR v2) Copy OK

Track 29

Filename F:\FLAC H D\Superman TAS 4-Disc set\CD2\29 - Building Battle Suit.wav

Peak level 89.4 % Extraction speed 8.1 X Track quality 100.0 % Test CRC 193F614A Copy CRC 193F614A Accurately ripped (confidence 1) [CC218F7F] (AR v2) Copy OK

Track 30

Filename F:\FLAC H D\Superman TAS 4-Disc set\CD2\30 - Clark's Calendar,Office Menagerie,Aerial Chase.wav

Peak level 93.1 % Extraction speed 8.6 X Track quality 100.0 % Test CRC 186F9C2C Copy CRC 186F9C2C Accurately ripped (confidence 1) [3DDCFE81] (AR v2) Copy OK

Track 31

Filename F:\FLAC H D\Superman TAS 4-Disc set\CD2\31 - Why Am I Eating This.wav

Peak level 90.4 % Extraction speed 8.1 X Track quality 100.0 % Test CRC ED348C33 Copy CRC ED348C33 Accurately ripped (confidence 1) [66DBF56D] (AR v2) Copy OK

Track 32

Filename F:\FLAC H D\Superman TAS 4-Disc set\CD2\32 - Scream Machine Lands,Superman vs. Machine.wav

Pre-gap length 0:00:05.40

Peak level 100.0 % Extraction speed 8.8 X Track quality 100.0 % Test CRC 3225834B Copy CRC 3225834B Accurately ripped (confidence 1) [12EB09B5] (AR v2) Copy OK

Track 33

Filename F:\FLAC H D\Superman TAS 4-Disc set\CD2\33 - Desaad's Tricky Plan.wav

Peak level 78.6 % Extraction speed 8.0 X Track quality 99.8 % Test CRC 9D3AED3E Copy CRC 9D3AED3E Accurately ripped (confidence 1) [59ABDDA2] (AR v2) Copy OK

Track 34

Filename F:\FLAC H D\Superman TAS 4-Disc set\CD2\34 - Kalibak Comes to Earth,Kalibak Trashes Minerva.wav

Peak level 91.1 % Extraction speed 8.8 X Track quality 100.0 % Test CRC C75F8B02 Copy CRC C75F8B02 Accurately ripped (confidence 1) [A6FACCB3] (AR v2) Copy OK

Track 35

Filename F:\FLAC H D\Superman TAS 4-Disc set\CD2\35 - Kalibak Ambushes Superman.wav

Peak level 91.0 % Extraction speed 8.2 X Track quality 100.0 % Test CRC D64AAC99 Copy CRC D64AAC99 Accurately ripped (confidence 1) [44DD4D38] (AR v2) Copy OK

Track 36

Filename F:\FLAC H D\Superman TAS 4-Disc set\CD2\36 - Superman vs. Kalibak,Fight on Train Track.wav

Peak level 95.7 % Extraction speed 8.9 X Track quality 100.0 % Test CRC 59AE647B Copy CRC 59AE647B Accurately ripped (confidence 1) [E15368CB] (AR v2) Copy OK

Track 37

Filename F:\FLAC H D\Superman TAS 4-Disc set\CD2\37 - Battle Continues,Power Struggle.wav

Peak level 96.7 % Extraction speed 9.3 X Track quality 100.0 % Test CRC BF0FA2E0 Copy CRC BF0FA2E0 Accurately ripped (confidence 1) [776EAC9E] (AR v2) Copy OK

Track 38

Filename F:\FLAC H D\Superman TAS 4-Disc set\CD2\38 - Darkseid Beams Superman.wav

Peak level 99.6 % Extraction speed 9.2 X Track quality 100.0 % Test CRC 40ED3789 Copy CRC 40ED3789 Accurately ripped (confidence 1) [87576665] (AR v2) Copy OK

Track 39

Filename F:\FLAC H D\Superman TAS 4-Disc set\CD2\39 - Restaurant Source.wav

Pre-gap length 0:00:01.74

Peak level 42.1 % Extraction speed 8.1 X Track quality 99.8 % Test CRC 01A19EDC Copy CRC 01A19EDC Accurately ripped (confidence 1) [8AFCC4AD] (AR v2) Copy OK

Track 40

Filename F:\FLAC H D\Superman TAS 4-Disc set\CD2\40 - The New Batman,Superman Adventures - End Credits.wav

Pre-gap length 0:00:03.78

Peak level 98.9 % Extraction speed 9.2 X Track quality 100.0 % Test CRC 46B6BD9F Copy CRC 46B6BD9F Accurately ripped (confidence 1) [F22441F6] (AR v2) Copy OK

All tracks accurately ripped

No errors occurred

End of status report

==== Log checksum 79876DDA7A46B5A5E919BF3028CEE17D6CEAEDD2EDBC69E10D678887332F7D31 ====
REM GENRE SoundtrackREM DATE 2014REM DISCID 38128128REM COMMENT "ExactAudioCopy v1.0b3"PERFORMER "Various"TITLE "Superman: The Animated Series OST Disc 2"FILE "01 - The New Batman-Superman Adventures - Main Title.wav" WAVE TRACK 01 AUDIO TITLE "The New Batman/Superman Adventures - Main Title" PERFORMER "Shirley Walker" INDEX 01 00:00:00 TRACK 02 AUDIO TITLE "Closing Time / Joke in the Box Source / Batman Takes Evidence" PERFORMER "Michael McCuistion & Shirley Walker" INDEX 00 01:02:69FILE "02 - Closing Time - Joke in the Box Source - Batman Takes Evidence.wav" WAVE INDEX 01 00:00:00FILE "03 - Terrorists on Plane.wav" WAVE TRACK 03 AUDIO TITLE "Terrorists on Plane" PERFORMER "Michael McCuistion & Shirley Walker" INDEX 01 00:00:00FILE "04 - Lois Talks to Superman - Lois Beats Herself Up.wav" WAVE TRACK 04 AUDIO TITLE "Lois Talks to Superman / Lois Beats Herself Up" PERFORMER "Michael McCuistion" INDEX 01 00:00:00FILE "05 - Joker Abducts Lex.wav" WAVE TRACK 05 AUDIO TITLE "Joker Abducts Lex" PERFORMER "Michael McCuistion" INDEX 01 00:00:00FILE "06 - Lex & Joker Make a Deal - Lois Meets Bruce.wav" WAVE TRACK 06 AUDIO TITLE "Lex & Joker Make a Deal / Lois Meets Bruce" PERFORMER "Michael McCuistion" INDEX 01 00:00:00FILE "07 - Joker Undoes Carlini.wav" WAVE TRACK 07 AUDIO TITLE "Joker Undoes Carlini" PERFORMER "Michael McCuistion" INDEX 01 00:00:00FILE "08 - WayneLex.wav" WAVE TRACK 08 AUDIO TITLE "WayneLex" PERFORMER "Michael McCuistion" INDEX 01 00:00:00FILE "09 - First Dance.wav" WAVE TRACK 09 AUDIO TITLE "First Dance" PERFORMER "Michael McCuistion" INDEX 01 00:00:00FILE "10 - Batman Shows Up - Binko's Bad Night - Batman Bugs Superman.wav" WAVE TRACK 10 AUDIO TITLE "Batman Shows Up / Binko's Bad Night / Batman Bugs Superman" PERFORMER "Michael McCuistion" INDEX 01 00:00:00 TRACK 11 AUDIO TITLE "Recap (World's Finest, Part II)" PERFORMER "Michael McCuistion" INDEX 00 03:29:16FILE "11 - Recap (World's Finest, Part II).wav" WAVE INDEX 01 00:00:00FILE "12 - Bruce and Lois Go Out - Joker Crashes Date - Joker's Plan.wav" WAVE TRACK 12 AUDIO TITLE "Bruce and Lois Go Out / Joker Crashes Date / Joker's Plan" PERFORMER "Michael McCuistion" INDEX 01 00:00:00FILE "13 - Batwing Takes Off - Superman Meets Joker.wav" WAVE TRACK 13 AUDIO TITLE "Batwing Takes Off / Superman Meets Joker" PERFORMER "Michael McCuistion" INDEX 01 00:00:00FILE "14 - Batman Saves Superman.wav" WAVE TRACK 14 AUDIO TITLE "Batman Saves Superman" PERFORMER "Michael McCuistion" INDEX 01 00:00:00FILE "15 - Batman Makes His Exit.wav" WAVE TRACK 15 AUDIO TITLE "Batman Makes His Exit" PERFORMER "Michael McCuistion" INDEX 01 00:00:00FILE "16 - Harley Cheers Up Joker - Lex Meets With Joker.wav" WAVE TRACK 16 AUDIO TITLE "Harley Cheers Up Joker / Lex Meets With Joker" PERFORMER "Michael McCuistion" INDEX 01 00:00:00FILE "17 - Batman Pays Lex a Visit - Superman Flies By.wav" WAVE TRACK 17 AUDIO TITLE "Batman Pays Lex a Visit / Superman Flies By" PERFORMER "Michael McCuistion" INDEX 01 00:00:00FILE "18 - Jet Pac Transportation - Joker Uses Robot.wav" WAVE TRACK 18 AUDIO TITLE "Jet Pac Transportation / Joker Uses Robot" PERFORMER "Michael McCuistion" INDEX 01 00:00:00 TRACK 19 AUDIO TITLE "Recap (World's Finest, Part III)" PERFORMER "Michael McCuistion" INDEX 00 01:12:03FILE "19 - Recap (World's Finest, Part III).wav" WAVE INDEX 01 00:00:00FILE "20 - Ship in Distress.wav" WAVE TRACK 20 AUDIO TITLE "Ship in Distress" PERFORMER "Michael McCuistion" INDEX 01 00:00:00FILE "21 - Batman Drops In - Batman Unmasked - Superman Stops Robot.wav" WAVE TRACK 21 AUDIO TITLE "Batman Drops In / Batman Unmasked / Superman Stops Robot" PERFORMER "Michael McCuistion" INDEX 01 00:00:00FILE "22 - Batman Has to Leave - Lex Sets Up Joker.wav" WAVE TRACK 22 AUDIO TITLE "Batman Has to Leave / Lex Sets Up Joker" PERFORMER "Michael McCuistion" INDEX 01 00:00:00FILE "23 - Arrival at Lab - Robots Battle Superman - Batman Gets to Lexwing.wav" WAVE TRACK 23 AUDIO TITLE "Arrival at Lab / Robots Battle Superman / Batman Gets to Lexwing" PERFORMER "Lolita Ritmanis" INDEX 01 00:00:00FILE "24 - Lexwing Crashes.wav" WAVE TRACK 24 AUDIO TITLE "Lexwing Crashes" PERFORMER "Michael McCuistion" INDEX 01 00:00:00FILE "25 - Bruce Returns to Gotham.wav" WAVE TRACK 25 AUDIO TITLE "Bruce Returns to Gotham" PERFORMER "Michael McCuistion" INDEX 01 00:00:00 TRACK 26 AUDIO TITLE "Stopping Traffic / Reading the Comics / The Statue Moves" PERFORMER "Harvey R. Cohen" INDEX 00 01:07:66FILE "26 - Stopping Traffic - Reading the Comics - The Statue Moves.wav" WAVE INDEX 01 00:00:00FILE "27 - Chickens - Setting the Rules.wav" WAVE TRACK 27 AUDIO TITLE "Chickens / Setting the Rules" PERFORMER "Harvey R. Cohen" INDEX 01 00:00:00FILE "28 - A Close Shave - Proofreading - Apartment Source.wav" WAVE TRACK 28 AUDIO TITLE "A Close Shave / Proofreading / Apartment Source" PERFORMER "Harvey R. Cohen & Shirley Walker" INDEX 01 00:00:00FILE "29 - Building Battle Suit.wav" WAVE TRACK 29 AUDIO TITLE "Building Battle Suit" PERFORMER "Harvey R. Cohen" INDEX 01 00:00:00FILE "30 - Clark's Calendar - Office Menagerie - Aerial Chase.wav" WAVE TRACK 30 AUDIO TITLE "Clark's Calendar / Office Menagerie / Aerial Chase" PERFORMER "Harvey R. Cohen & Shirley Walker" INDEX 01 00:00:00FILE "31 - Why Am I Eating This.wav" WAVE TRACK 31 AUDIO TITLE "Why Am I Eating This?" PERFORMER "Harvey R. Cohen" INDEX 01 00:00:00 TRACK 32 AUDIO TITLE "Scream Machine Lands / Superman vs. Machine" PERFORMER "Shirley Walker" INDEX 00 00:55:55FILE "32 - Scream Machine Lands - Superman vs. Machine.wav" WAVE INDEX 01 00:00:00FILE "33 - Desaad's Tricky Plan.wav" WAVE TRACK 33 AUDIO TITLE "Desaad's Tricky Plan" PERFORMER "Shirley Walker" INDEX 01 00:00:00FILE "34 - Kalibak Comes to Earth - Kalibak Trashes Minerva.wav" WAVE TRACK 34 AUDIO TITLE "Kalibak Comes to Earth / Kalibak Trashes Minerva" PERFORMER "Shirley Walker" INDEX 01 00:00:00FILE "35 - Kalibak Ambushes Superman.wav" WAVE TRACK 35 AUDIO TITLE "Kalibak Ambushes Superman" PERFORMER "Shirley Walker" INDEX 01 00:00:00FILE "36 - Superman vs. Kalibak - Fight on Train Track.wav" WAVE TRACK 36 AUDIO TITLE "Superman vs. Kalibak / Fight on Train Track" PERFORMER "Shirley Walker" INDEX 01 00:00:00FILE "37 - Battle Continues - Power Struggle.wav" WAVE TRACK 37 AUDIO TITLE "Battle Continues / Power Struggle" PERFORMER "Shirley Walker" INDEX 01 00:00:00FILE "38 - Darkseid Beams Superman.wav" WAVE TRACK 38 AUDIO TITLE "Darkseid Beams Superman" PERFORMER "Shirley Walker" INDEX 01 00:00:00 TRACK 39 AUDIO TITLE "Restaurant Source" PERFORMER "Shirley Walker" INDEX 00 02:20:42FILE "39 - Restaurant Source.wav" WAVE INDEX 01 00:00:00 TRACK 40 AUDIO TITLE "The New Batman-Superman Adventures - End Credits" PERFORMER "Shirley Walker" INDEX 00 01:04:71FILE "40 - The New Batman-Superman Adventures - End Credits.wav" WAVE INDEX 01 00:00:00

CD1
Score: 95 (out of 100)
The following properties decreased the score:

'Defeat audio cache' should be yes. -5 points [5]

Log entry is fine!
CD2
Score: 95 (out of 100)
The following properties decreased the score:

'Defeat audio cache' should be yes. -5 points [5]

Log entry is fine!
CD3
Score: 95 (out of 100)
The following properties decreased the score:

'Defeat audio cache' should be yes. -5 points [5]

Log entry is fine!
CD4
Score: 95 (out of 100)
The following properties decreased the score:

'Defeat audio cache' should be yes. -5 points [5]

Log entry is fine!


Трекер:  [ 23-Июл-2016 12:00 ]

  

Скачать .torrent

Размер .torrent файла 31 KB


Размер: 1.62 GB
Хэш (hash) релиза: 1183b3741c1666ad6903de47f9953be8ec3cd5fd

Еще никто не оставлял запись к записи скачать торрент Супермен Superman: The Animated Series . Будь первым!

!Обратная связь