Скачать через торрент Ария по прозвищу Алая Пуля: Дважды «А» Hidan no Aria AA бесплатно Аниме Все серии на русском torrent

Если у вас наблюдаются проблемы со скриншотами, переходом по ссылками, скачиванием торрентов - проблемы в блокировщике рекламы AdBlock. #хорошегоДня!


Статистика раздачи
Размер:  82.29 GB   |    Зарегистрирован:  1 год 4 месяца   |    .torrent скачан:  19 раз   |   
Раздают:  1  
   
Загрузка...
 
Автор Сообщение

Galfimbul

avatar Galfimbul


Ария по прозвищу Алая Пуля: Дважды «А» / Hidan no Aria AA

Год выпуска: 2015
Страна: Япония
Жанр: приключения
Тип: TV
Продолжительность: 12 эп. по 24 мин.
Озвучка: нет

Русские субтитры: есть (отдельным файлом, формат .ass)
Перевод:
<ol class="post-ul">
StripDancer, Gaby
</ol>
Хардсаб: Нет
Режиссер: Кавабата Такаси
Студия: Dogakobo

Описание: Ария Кандзаки по прозвищу Алая Пуля – краса и гордость школы юных детективов японской столицы. И тут прошел слух, что Алая Пуля начала выбор Амики – младшей подруги-напарницы, которую согласно давним традициям будет лично курировать, обучать, а потом допустит до совместной работы. Считается, что силы и способности напарниц должны быть сравнимы, а в идеале – дополнять друг друга, но в жизни возможно все, и на призыв живой легенды откликнулись десятки претенденток.

Акари Мамия, новичок детективной школы – одна из самых преданных фанаток Кандзаки, и, конечно же, готова на все, чтобы быть рядом с кумиром. В силе и умениях Акари пока что не блещет, но какая разница, ведь людей сводит не статистика, а судьба! Мимолетная встреча показала Арии, что новая знакомая кроме решимости имеет серьезный потенциал, а также таит немало загадок – и она назвала Акари своей Амикой. Все верно, такие таланты надо беречь и выращивать, а не только бедного Киндзи гонять!

© Hollow, World Art

Качество: Blu-Ray Remux
Формат: MKV
Видео кодек: AVC
Аудио кодек: FLAC
Видео: 1920x1080 (16:9) 23,976 fps ~38,4 Mbps 8bit
Аудио:
Jap FLAC, 48000Hz, ~752 kbps 2ch

Чаптеры присутствуют.
01. Другая А / Another A
02. Опасные отношения / Dangerous Relationship
03. Принятие в Амики / Applying to Be an Amica
04. Квартет, часть 1 / Quartet, Part 1
05. Квартет, часть 2 / Quartet, Part 2
06. Просьба Дьявола / Little Devils` Request
07. Борьба за Акари / Struggle over Akari
08. В плену бассейна / Pool Trap
09. Теплый прием / Home Visit
10. Операция первая / First Mission
11. Противостояние / Showdown
12. Пара А / A Pair of As
Общее
Уникальный идентификатор : 191874544302691647197866180048870542148 (0x9059B16B51E185E883D88D9F05C98B44)
Полное имя : Z:\Anime Release - working\Hidan no Aria AA\[anti-raws]Hidan no Aria AA ep.01[BDRemux].mkv
Формат : Matroska
Версия формата : Version 4 / Version 2
Размер файла : 6,63 Гбайт
Продолжительность : 23 м.
Режим общего битрейта : Переменный
Общий поток : 40,0 Мбит/сек
Дата кодирования : UTC 2016-07-21 21:38:06
Программа кодирования : mkvmerge v9.3.1 ('Mask Machine') 64bit
Библиотека кодирования : libebml v1.3.4 + libmatroska v1.4.5

Видео
Идентификатор : 2
Формат : AVC
Формат/Информация : Advanced Video Codec
Профиль формата : High@L4.1
Параметр CABAC формата : Да
Параметр ReFrames формата : 4 кадра
Идентификатор кодека : V_MPEG4/ISO/AVC
Продолжительность : 23 м.
Вид битрейта : Переменный
Битрейт : 39,3 Мбит/сек
Максимальный битрейт : 40,0 Мбит/сек
Ширина : 1920 пикселей
Высота : 1080 пикселей
Соотношение сторон : 16:9
Режим частоты кадров : Постоянный
Частота кадров : 23,976 (24000/1001) кадра/сек
Цветовое пространство : YUV
Субдискретизация насыщенности : 4:2:0
Битовая глубина : 8 бит
Тип развёртки : Прогрессивная
Бит/(Пиксели*Кадры) : 0.790
Размер потока : 6,51 Гбайт (98%)
Default : Нет
Forced : Нет
Цветовой диапазон : Limited
Основные цвета : BT.709
Характеристики трансфера : BT.709
Коэффициенты матрицы : BT.709

Аудио
Идентификатор : 1
Формат : FLAC
Формат/Информация : Free Lossless Audio Codec
Идентификатор кодека : A_FLAC
Продолжительность : 23 м.
Вид битрейта : Переменный
Битрейт : 752 Кбит/сек
Каналы : 2 канала
Расположение каналов : Front: L R
Частота : 48,0 КГц
Частота кадров : 11,719 кадров/сек (4096 spf)
Битовая глубина : 16 бит
Размер потока : 128 Мбайт (2%)
Библиотека кодирования : libFLAC 1.2.1 (UTC 2007-09-17)
Язык : Japanese
Default : Да
Forced : Нет

Меню
00:00:00.000 : en:00:00:00.000
00:01:14.992 : en:00:01:14.992
00:02:45.040 : en:00:02:45.040
00:12:27.038 : en:00:12:27.038
00:21:56.023 : en:00:21:56.023
00:23:26.030 : en:00:23:26.030
<a href="viewtopic.php?t=5093482" class="postLink">...5093482</a>
<a href="viewtopic.php?t=5200335" class="postLink">...5200335</a>
--HDTVRip

Эта раздача - BDRemux


Трекер:  [ 24-Июл-2016 21:00 ]

  

Скачать .torrent

Размер .torrent файла 106 KB


Размер: 82.29 GB
Хэш (hash) релиза: 632f4f6d8760d5aaf3288b5363942df5ad1e99db
Подписка на обновления:

Торренты, похожие на Ария по прозвищу Алая Пуля: Дважды «А» Hidan no Aria AA скачать торрент

Форум Название Автор Размер S L Добавлен
Аниме | HD Rips ·· Ария по прозвищу Алая Пуля: Дважды «А» / Hidan no Aria AA / Aria the Scarlet Ammo AA [TV] [1-12 из 12] [Без хардсаба] [JAP, SUB] [2015 г., Экшен, Школа, приключения, HDTVRip] [720p] Galfimbul 43504687074.05 GB 0 0 1459527110

19:11

1-Апр-16

Еще никто не оставлял запись к записи скачать торрент Ария по прозвищу Алая Пуля: Дважды «А» Hidan no Aria AA . Будь первым!

!Обратная связь