Скачать через торрент музыку Игра престолов: Сезон 6 Game of Thrones: Season 6 бесплатно без регистрации torrent

Если у вас наблюдаются проблемы со скриншотами, переходом по ссылками, скачиванием торрентов - проблемы в блокировщике рекламы AdBlock. #хорошегоДня!


Статистика раздачи
Размер:  354 MB   |    Зарегистрирован:  1 год 4 месяца   |    .torrent скачан:  33 раза   |   
Раздают:  1  
   
Загрузка...
 
Автор Сообщение

Galfimbul

avatar Galfimbul


Игра престолов: Сезон 6 / Game of Thrones: Season 6 Жанр: Score | Композитор: Ramin Djawadi | Год выпуска диска: 2016
Аудиокодек: FLAC (*.flac) | Тип рипа: tracks+.cue | Битрейт аудио: lossless
Продолжительность: 01:12:23 | Источник: what.cd
Треклист:
1. Main Titles (1:51)
2. Blood of My Blood (3:35)
3. Light of the Seven (9:49)
4. Needle (2:56)
5. Coronation (1:46)
6. Feed the Hounds (3:08)
7. My Watch Has Ended (2:53)
8. The Red Woman (3:17)
9. Hold the Door (7:21)
10. Khaleesi (3:05)
11. Maester (2:52)
12. A Painless Death (3:22)
13. Reign (3:16)
14. Let's Play a Game (5:51)
15. Bastard (5:05)
16. Trust Each Other (3:09)
17. Winter Has Come (3:14)
18. Hear Me Roar (2:16)
19. The Winds of Winter (3:29)
Exact Audio Copy V1.0 beta 3 from 29. August 2011

EAC extraction logfile from 15. July 2016, 19:12

Ramin Djawadi / Game of Thrones (Music From The HBO Series Season 6)

Used drive : HL-DT-STBD-RE BH10LS38 Adapter: 0 ID: 0

Read mode : SecureUtilize accurate stream : YesDefeat audio cache : YesMake use of C2 pointers : No

Read offset correction : 667Overread into Lead-In and Lead-Out : NoFill up missing offset samples with silence : YesDelete leading and trailing silent blocks : NoNull samples used in CRC calculations : YesUsed interface : Native Win32 interface for Win NT & 2000Gap handling : Appended to previous track

Used output format : User Defined EncoderSelected bitrate : 768 kBit/sQuality : HighAdd ID3 tag : NoCommand line compressor : C:\Program Files (x86)\Exact Audio Copy\FLAC\FLAC.EXEAdditional command line options : -8 -V -T "ARTIST=%artist%" -T "TITLE=%title%" -T "ALBUM=%albumtitle%" -T "DATE=%year%" -T "TRACKNUMBER=%tracknr%" -T "GENRE=%genre%" -T "PERFORMER=%albuminterpret%" -T "COMPOSER=%composer%" %haslyrics%--tag-from-file=LYRICS="%lyricsfile%"%haslyrics% -T "ALBUMARTIST=%albumartist%" -T "ALBUM ARTIST=%albumartist%" -T "DISCNUMBER=%cdnumber%" -T "TOTALDISCS=%totalcds%" -T "TOTALTRACKS=%numtracks%" -T "COMMENT=%comment%" %source% -o %dest%

TOC of the extracted CD

Track | Start | Length | Start sector | End sector --------------------------------------------------------- 1 | 0:00.00 | 1:51.15 | 0 | 8339 2 | 1:51.15 | 3:35.20 | 8340 | 24484 3 | 5:26.35 | 9:49.07 | 24485 | 68666 4 | 15:15.42 | 2:56.11 | 68667 | 81877 5 | 18:11.53 | 1:46.46 | 81878 | 89873 6 | 19:58.24 | 3:08.16 | 89874 | 103989 7 | 23:06.40 | 2:54.00 | 103990 | 117039 8 | 26:00.40 | 3:17.09 | 117040 | 131823 9 | 29:17.49 | 7:21.67 | 131824 | 164965 10 | 36:39.41 | 3:05.53 | 164966 | 178893 11 | 39:45.19 | 2:52.50 | 178894 | 191843 12 | 42:37.69 | 3:22.11 | 191844 | 207004 13 | 46:00.05 | 3:16.20 | 207005 | 221724 14 | 49:16.25 | 5:51.23 | 221725 | 248072 15 | 55:07.48 | 5:05.14 | 248073 | 270961 16 | 60:12.62 | 3:09.41 | 270962 | 285177 17 | 63:22.28 | 3:14.53 | 285178 | 299780 18 | 66:37.06 | 2:16.68 | 299781 | 310048 19 | 68:53.74 | 3:29.07 | 310049 | 325730

Track 1

Filename C:\Rips\01 - Main Titles.wav

Pre-gap length 0:00:02.00

Peak level 97.7 % Extraction speed 0.8 X Track quality 99.9 % Test CRC 7A78DD66 Copy CRC 7A78DD66 Track not present in AccurateRip database Copy OK

Track 2

Filename C:\Rips\02 - Blood of My Blood.wav

Peak level 99.7 % Extraction speed 1.3 X Track quality 100.0 % Test CRC F2D20BD0 Copy CRC F2D20BD0 Track not present in AccurateRip database Copy OK

Track 3

Filename C:\Rips\03 - Light of the Seven.wav

Peak level 97.7 % Extraction speed 1.6 X Track quality 100.0 % Test CRC 799B59FD Copy CRC 799B59FD Track not present in AccurateRip database Copy OK

Track 4

Filename C:\Rips\04 - Needle.wav

Peak level 97.7 % Extraction speed 1.6 X Track quality 100.0 % Test CRC 68FAB371 Copy CRC 68FAB371 Track not present in AccurateRip database Copy OK

Track 5

Filename C:\Rips\05 - Coronation.wav

Peak level 97.7 % Extraction speed 1.4 X Track quality 100.0 % Test CRC AA125DFD Copy CRC AA125DFD Track not present in AccurateRip database Copy OK

Track 6

Filename C:\Rips\06 - Feed the Hounds.wav

Peak level 98.8 % Extraction speed 1.5 X Track quality 99.9 % Test CRC 2AAF6F86 Copy CRC 2AAF6F86 Track not present in AccurateRip database Copy OK

Track 7

Filename C:\Rips\07 - My Watch Has Ended.wav

Peak level 90.0 % Extraction speed 1.7 X Track quality 100.0 % Test CRC BC85248F Copy CRC BC85248F Track not present in AccurateRip database Copy OK

Track 8

Filename C:\Rips\08 - The Red Woman.wav

Peak level 97.7 % Extraction speed 1.8 X Track quality 100.0 % Test CRC 580E953F Copy CRC 580E953F Track not present in AccurateRip database Copy OK

Track 9

Filename C:\Rips\09 - Hold the Door.wav

Peak level 98.8 % Extraction speed 2.0 X Track quality 99.9 % Test CRC 1CC8B762 Copy CRC 1CC8B762 Track not present in AccurateRip database Copy OK

Track 10

Filename C:\Rips\10 - Khaleesi.wav

Peak level 97.7 % Extraction speed 2.0 X Track quality 100.0 % Test CRC F0BA2EEF Copy CRC F0BA2EEF Track not present in AccurateRip database Copy OK

Track 11

Filename C:\Rips\11 - Maester.wav

Peak level 94.1 % Extraction speed 2.1 X Track quality 100.0 % Test CRC 1A7A25B5 Copy CRC 1A7A25B5 Track not present in AccurateRip database Copy OK

Track 12

Filename C:\Rips\12 - A Painless Death.wav

Peak level 98.8 % Extraction speed 1.9 X Track quality 99.9 % Test CRC E55C1D62 Copy CRC E55C1D62 Track not present in AccurateRip database Copy OK

Track 13

Filename C:\Rips\13 - Reign.wav

Peak level 98.8 % Extraction speed 2.2 X Track quality 100.0 % Test CRC 97B80826 Copy CRC 97B80826 Track not present in AccurateRip database Copy OK

Track 14

Filename C:\Rips\14 - Let's Play a Game.wav

Peak level 97.7 % Extraction speed 2.5 X Track quality 100.0 % Test CRC A023DB0E Copy CRC A023DB0E Track not present in AccurateRip database Copy OK

Track 15

Filename C:\Rips\15 - Bastard.wav

Peak level 97.7 % Extraction speed 2.5 X Track quality 100.0 % Test CRC 1BFF5DD9 Copy CRC 1BFF5DD9 Track not present in AccurateRip database Copy OK

Track 16

Filename C:\Rips\16 - Trust Each Other.wav

Peak level 97.7 % Extraction speed 2.1 X Track quality 99.9 % Test CRC F52BE155 Copy CRC F52BE155 Track not present in AccurateRip database Copy OK

Track 17

Filename C:\Rips\17 - Winter Has Come.wav

Peak level 98.8 % Extraction speed 2.5 X Track quality 100.0 % Test CRC 07F7C6C6 Copy CRC 07F7C6C6 Track not present in AccurateRip database Copy OK

Track 18

Filename C:\Rips\18 - Hear Me Roar.wav

Peak level 98.8 % Extraction speed 2.4 X Track quality 100.0 % Test CRC 6617E341 Copy CRC 6617E341 Track not present in AccurateRip database Copy OK

Track 19

Filename C:\Rips\19 - The Winds of Winter.wav

Peak level 98.8 % Extraction speed 2.6 X Track quality 100.0 % Test CRC 1747BC47 Copy CRC 1747BC47 Track not present in AccurateRip database Copy OK

None of the tracks are present in the AccurateRip database

No errors occurred

End of status report

==== Log checksum CFC9C0DFD4A4ECF45F6A27F896EF9A2269BCB55D6EAA5BCBB5A902E1FA3EA1C3 ====
REM GENRE SoundtrackREM DATE 2016REM DISCID 1C10F713REM COMMENT "ExactAudioCopy v1.0b3"FILE "01 - Main Titles.wav" WAVE TRACK 01 AUDIO INDEX 01 00:00:00FILE "02 - Blood of My Blood.wav" WAVE TRACK 02 AUDIO INDEX 01 00:00:00FILE "03 - Light of the Seven.wav" WAVE TRACK 03 AUDIO INDEX 01 00:00:00FILE "04 - Needle.wav" WAVE TRACK 04 AUDIO INDEX 01 00:00:00FILE "05 - Coronation.wav" WAVE TRACK 05 AUDIO INDEX 01 00:00:00FILE "06 - Feed the Hounds.wav" WAVE TRACK 06 AUDIO INDEX 01 00:00:00FILE "07 - My Watch Has Ended.wav" WAVE TRACK 07 AUDIO INDEX 01 00:00:00FILE "08 - The Red Woman.wav" WAVE TRACK 08 AUDIO INDEX 01 00:00:00FILE "09 - Hold the Door.wav" WAVE TRACK 09 AUDIO INDEX 01 00:00:00FILE "10 - Khaleesi.wav" WAVE TRACK 10 AUDIO INDEX 01 00:00:00FILE "11 - Maester.wav" WAVE TRACK 11 AUDIO INDEX 01 00:00:00FILE "12 - A Painless Death.wav" WAVE TRACK 12 AUDIO INDEX 01 00:00:00FILE "13 - Reign.wav" WAVE TRACK 13 AUDIO INDEX 01 00:00:00FILE "14 - Let's Play a Game.wav" WAVE TRACK 14 AUDIO INDEX 01 00:00:00FILE "15 - Bastard.wav" WAVE TRACK 15 AUDIO INDEX 01 00:00:00FILE "16 - Trust Each Other.wav" WAVE TRACK 16 AUDIO INDEX 01 00:00:00FILE "17 - Winter Has Come.wav" WAVE TRACK 17 AUDIO INDEX 01 00:00:00FILE "18 - Hear Me Roar.wav" WAVE TRACK 18 AUDIO INDEX 01 00:00:00FILE "19 - The Winds of Winter.wav" WAVE TRACK 19 AUDIO INDEX 01 00:00:00


Трекер:  [ 27-Июл-2016 17:00 ]

  

Скачать .torrent

Размер .torrent файла 15 KB


Размер: 354 MB
Хэш (hash) релиза: 1b902ca4a37b48c5f9436067ad5621b263b33b54

Торренты, похожие на Игра престолов: Сезон 6 Game of Thrones: Season 6 скачать торрент

Форум Название Автор Размер S L Добавлен
Саундтреки к фильмам и мультфильмам (lossless) ·· (Score) Игра престолов: Сезон 6 / Game of Thrones: Season 6 (Ramin Djawadi) {WEB} - 2016, FLAC (tracks), lossless Galfimbul 455024656434 MB 0 0 1466730765

04:12

24-Июн-16

Саундтреки к фильмам и мультфильмам (mp3) ·· (Score) Игра престолов: Сезон 6 / Game of Thrones: Season 6 (Ramin Djawadi) - 2016, MP3, 320 kbps Galfimbul 220916780211 MB 0 0 1466730724

04:12

24-Июн-16

Еще никто не оставлял запись к записи скачать торрент Игра престолов: Сезон 6 Game of Thrones: Season 6 . Будь первым!

!Обратная связь