Скачать через торрент Сказание об Арслане бесплатно Аниме Все серии на русском torrent

Если у вас наблюдаются проблемы со скриншотами, переходом по ссылками, скачиванием торрентов - проблемы в блокировщике рекламы AdBlock. #хорошегоДня!


Статистика раздачи
Размер:  1.63 GB   |    Зарегистрирован:  1 год 4 месяца   |    .torrent скачан:  14 раз   |   
Раздают:  1  
   
Загрузка...
 
Автор Сообщение

Galfimbul

avatar Galfimbul



アルスラーン戦記 風塵乱舞Сказание об Арслане / Arslan Senki: Fuujin Ranbu
Страна: Япония
Год выпуска: 2016 г.
Жанр: приключения, фэнтези, драма
Тип: TV
Продолжительность: 8 эп. по ~ 25 мин
Режиссер: Абэ Нориюки
Студия: Liden Films



Описание: Сиквел первого сезона "Сказание об Арслане".
Арслан продолжает ожесточённую борьбу с Серебряной Маской. Несмотря на его героические усилия, ему по-прежнему не удаётся вырвать Королевство Парса из-под власти сил Луситании. Борьба за трон в самом разгаре, тем не менее, тут и там вспыхивают многочисленные локальные конфликты, которые необходимо решать.
Ну а самый главный вопрос из тех, что стоят перед Арсланом - кто же его родители? И готов ли он узнать правду?



Качество: HDTVRip
Тип релиза: Без хардсаба
Формат видео: MP4
Наличие линковки: Нет
Релиз/Автор рипа: [Leopard-Raws]
Видео: H264, 1280x720, 2 732 Kbps, 23.976 fps, 8 bit
Аудио: JAP, AAC; 192 kbps; 48000 Hz; 2ch
Перевод:
<ol class="post-ul">
русские субтитры: [YakuSub Studio] (внешним файлом);
Переводчик: Nika_Elrik; Оформление: Helge; Редактор: Harushechka.
русские субтитры: [tengri & Ryuji] (внешним файлом).
Переводчик/Оформление: tengri; Редактор: Ryuji.
</ol>
GeneralComplete name : D:\[Leopard-Raws] Arslan Senki - Fuujin Ranbu\[Leopard-Raws] Arslan Senki - Fuujin Ranbu - 01 RAW (TBS 1280x720 x264 AAC).mp4Format : MPEG-4Format profile : Base MediaCodec ID : isom (isom/avc1)File size : 513 MiBDuration : 24mn 30sOverall bit rate mode : VariableOverall bit rate : 2 927 KbpsEncoded date : UTC 2016-07-03 15:10:57Tagged date : UTC 2016-07-03 15:10:57

VideoID : 1Format : AVCFormat/Info : Advanced Video CodecFormat profile : High@L4.1Format settings, CABAC : YesFormat settings, ReFrames : 4 framesCodec ID : avc1Codec ID/Info : Advanced Video CodingDuration : 24mn 30sBit rate : 2 732 KbpsMaximum bit rate : 17.2 MbpsWidth : 1 280 pixelsHeight : 720 pixelsDisplay aspect ratio : 16:9Frame rate mode : ConstantFrame rate : 23.976 (24000/1001) fpsColor space : YUVChroma subsampling : 4:2:0Bit depth : 8 bitsScan type : ProgressiveBits/(Pixel*Frame) : 0.124Stream size : 479 MiB (93%)Title : 264:fps=23.976@GPAC0.5.1-DEV-rev4929Writing library : x264 core 129 r2245+729M 1a52e03Encoding settings : cabac=1 / ref=4 / deblock=1:1:-1 / analyse=0x3:0x113 / me=umh / subme=9 / psy=1 / fade_compensate=0.00 / psy_rd=1.00:0.00 / mixed_ref=1 / me_range=24 / chroma_me=1 / trellis=2 / 8x8dct=1 / cqm=0 / deadzone=21,11 / fast_pskip=1 / chroma_qp_offset=-2 / threads=8 / lookahead_threads=1 / sliced_threads=0 / nr=0 / decimate=1 / interlaced=0 / bluray_compat=0 / constrained_intra=0 / fgo=0 / bframes=9 / b_pyramid=2 / b_adapt=2 / b_bias=0 / direct=1 / weightb=1 / open_gop=0 / weightp=2 / keyint=240 / keyint_min=24 / scenecut=40 / intra_refresh=0 / rc=crf / mbtree=0 / crf=17.5 / qcomp=0.72 / qpmin=0 / qpmax=69 / qpstep=4 / ip_ratio=1.40 / pb_ratio=1.30 / aq=1:0.85Encoded date : UTC 2016-07-03 15:10:57Tagged date : UTC 2016-07-03 15:11:08Color range : LimitedColor primaries : BT.709Transfer characteristics : BT.709Matrix coefficients : BT.709

AudioID : 2Format : AACFormat/Info : Advanced Audio CodecFormat profile : LCCodec ID : 40Duration : 24mn 30sBit rate mode : VariableBit rate : 192 KbpsMaximum bit rate : 229 KbpsChannel(s) : 2 channelsChannel positions : Front: L RSampling rate : 48.0 KHzFrame rate : 46.875 fps (1024 spf)Compression mode : LossyStream size : 33.4 MiB (7%)Language : JapaneseEncoded date : UTC 2016-07-03 08:46:10Tagged date : UTC 2016-07-03 15:11:08
1 - The Turanian Army Invades
2 - The Monarch Versus the Conqueror
3 - Journey Horse, Sad and Solitary
4 - A City of Land and a City of Water


Трекер:  [ 27-Июл-2016 20:00 ]

  

Скачать .torrent

Размер .torrent файла 18 KB


Размер: 1.63 GB
Хэш (hash) релиза: 3da56bc2aa7eb2d13000992cd90f12e83b6da77a
Подписка на обновления:

Торренты, похожие на Сказание об Арслане скачать торрент

Форум Название Автор Размер S L Добавлен
Аниме | HD Rips ·· Сказание об Арслане / Сказание об Аслане / Arslan Senki [TV] [2 из >13] [без хардсаба] [JAP+SUB] [2015 г., приключения, фэнтези, HDTVRip] [720p] Galfimbul 772024636736 MB 0 0 1428853212

18:40

12-Апр-15

Аниме | HD Rips ·· Сказание об Арслане (ТВ-2) / Arslan Senki: Fuujin Ranbu (Абэ Нориюки) [TV] [8 из 8] [без хардсаба] [RUS(ext), JAP+SUB] [2016, фэнтези, BDRemux] [1080p] Galfimbul 5988167160155.77 GB 0 0 1506454269

22:31

26-Сен-17

Аниме | HD Rips ·· Сказание об Арслане (ТВ-2) / Arslan Senki: Fuujin Ranbu (Абэ Нориюки) [TV] [8 из 8] [без хардсаба] [RUS(ext), JAP+SUB] [2016, фэнтези, BDRip] [720p] Galfimbul 51371342534.78 GB 0 0 1503262945

00:02

21-Авг-17

Аниме | HD Rips ·· Сказание об Арслане (ТВ-1) / Arslan Senki / The Heroic Legend of Arslan (Абэ Нориюки) [TV] [25 из 25] [без хардсаба] [RUS(ext), JAP+SUB] [2015, фэнтези, BDRip] [720p] Galfimbul 1742555128916.23 GB 0 0 1497439889

14:31

14-Июн-17

Аниме | HD Rips ·· Сказание об Арслане (ТВ-1) / Arslan Senki / The Heroic Legend of Arslan (Абэ Нориюки) [TV] [25 из 25] [без хардсаба] [RUS(ext), JAP+SUB] [2015, фэнтези, BDRemux] [1080p] Galfimbul 177961637897165.74 GB 0 0 1495580990

02:09

24-Май-17

Аниме | HD Rips ·· Сказание об Арслане / Arslan Senki [TV] [25 из 25] [Без хардсаба] [RUS(int), JAP, SUB] [2015, приключения, экшен, HDTVRip] [720p] Galfimbul 98070682459.13 GB 0 0 1482914179

11:36

28-Дек-16

Аниме | Rips ·· Сказание об Арслане: Великая смута / Arslan Senki: Fuujin Ranbu [TV] [1-8 из 8] [Без хардсаба] [RUS(int), JAP, SUB] [2016, приключения, фэнтези, драма, HDTVRip] [720p] Galfimbul 36232246473.37 GB 0 0 1480957716

20:08

5-Дек-16

Аниме | HD Rips ·· Сказание об Арслане (ТВ-2) / Arslan Senki: Fuujin Ranbu [TV] [8 из 8] [Без хардсаба] [JAP+SUB] [2016 г., приключения, фэнтези, драма, HDTVRip] [720p] Galfimbul 33435784953.11 GB 0 0 1472074550

00:35

25-Авг-16

Аниме | HD Rips ·· Сказание об Арслане (ТВ-2) / Arslan Senki: Fuujin Ranbu [TV] [1-7 из 8] [Без хардсаба] [JAP+SUB] [2016 г., приключения, фэнтези, драма, HDTVRip] [720p] Galfimbul 29034262632.7 GB 0 0 1471456810

21:00

17-Авг-16

Аниме | HD Rips ·· Сказание об Арслане (ТВ-2) / Arslan Senki: Fuujin Ranbu [TV] [1-6 из 8] [Без хардсаба] [JAP+SUB] [2016 г., приключения, фэнтези, драма, HDTVRip] [720p] Galfimbul 24866494792.32 GB 0 0 1470938443

21:00

11-Авг-16

Аниме | HD Rips ·· Сказание об Арслане (ТВ-2) / Arslan Senki: Fuujin Ranbu [TV] [1-5 из 8] [Без хардсаба] [JAP+SUB] [2016 г., приключения, фэнтези, драма, HDTVRip] [720p] Galfimbul 21422665032 GB 0 0 1470251000

22:03

3-Авг-16

Аниме | HD Rips ·· Сказание об Арслане (ТВ-2) / Arslan Senki: Fuujin Ranbu [TV] [1-3 из 8] [Без хардсаба] [JAP+SUB] [2016 г., приключения, фэнтези, драма, HDTVRip] [720p] Galfimbul 13496361141.26 GB 0 0 1469039827

21:37

20-Июл-16

Аниме | HD Rips ·· Сказание об Арслане (ТВ-2) / Arslan Senki: Fuujin Ranbu [TV] [1-2 из 8] [Без хардсаба] [JAP+SUB] [2016 г., приключения, фэнтези, драма, HDTVRip] [720p] Galfimbul 1000534695954 MB 0 0 1468418295

16:58

13-Июл-16

Аниме | HD Rips ·· Сказание об Арслане (ТВ) / Arslan Senki / The Heroic Legend of Arslan (Абэ Нориюки) [TV] [4 из XX] [без хардсаба] [RUS(ext), JAP+SUB] [2015 г., фэнтези, BDRip] [720p] Galfimbul 31074902112.89 GB 0 0 1442145641

15:00

13-Сен-15

Аниме | Rips ·· Сказание об Арслане (ТВ) / Arslan Senki / The Heroic Legend of Arslan (Абэ Нориюки) [TV] [4 из XX] [без хардсаба] [RUS(ext), JAP+SUB] [2015 г., фэнтези, BDRip] [720p] Galfimbul 31319256572.92 GB 0 0 1442145614

15:00

13-Сен-15

Аниме | Rips ·· Сказание об Арслане / Arslan Senki [TV] [01-03 из >13] [Без хардсаба] [RUS(int), JAP] [2015 г., приключения, фэнтези, HDTVRip] Galfimbul 11811674821.1 GB 0 0 1429883471

16:51

24-Апр-15

Аниме | Rips ·· Сказание об Арслане / Arslan Senki [TV] [01-02 из >13] [Без хардсаба] [RUS(int), JAP] [2015 г., риключения, фэнтези, HDTVRip] Galfimbul 794562485758 MB 0 0 1429766026

08:13

23-Апр-15

Аниме | Rips ·· Сказание об Арслане / Arslan Senki [TV] [серия 1 из >13 эп.] [Без хардсаба] [JAP, RUS(ext), SUB] [2015 г., Экшен, Приключения, Драма, Фэнтези, Исторический, Сверхъестественное, HDTVRip] [720p] Galfimbul 385704838368 MB 0 0 1428517076

21:17

8-Апр-15

Аниме | HD Rips ·· Сказание об Арслане / Arslan Senki [TV] [01 из xx] [Без хардсаба] [RUS(int), JAP, SUB] [2015 г., приключения, экшен, HDTVRip] [720p] Galfimbul 385554150368 MB 0 0 1428420047

18:20

7-Апр-15

Еще никто не оставлял запись к записи скачать торрент Сказание об Арслане . Будь первым!

!Обратная связь