Скачать через торрент музыку Сокровище Собачьих островов Le trésor des Îles Chiennes бесплатно без регистрации torrent

Если у вас наблюдаются проблемы со скриншотами, переходом по ссылками, скачиванием торрентов - проблемы в блокировщике рекламы AdBlock. #хорошегоДня!


Статистика раздачи
Размер:  256 MB   |    Зарегистрирован:  1 год 4 месяца   |    .torrent скачан:  31 раз   |   
Раздают:  1  
   
Загрузка...
 
Автор Сообщение

Galfimbul

avatar Galfimbul


Le trésor des Îles Chiennes

Название альбома: Le trésor des Îles Chiennes
Жанр: Score, Punk, Industrial, New Wave, Minimal
Композитор: MKB Fraction Provisoire (Messageros Killers Boys)
Год выпуска диска: 1991
Год выпуска фильма: 1990
Страна-производитель диска: France
Издатель (лейбл): Zélig / Bondage Records
Номер по каталогу: HZ CD 9121
Аудиокодек: FLAC (*.flac)
Тип рипа: tracks+.cue
Битрейт аудио: lossless
Продолжительность: 00:49:42
Источник: собственный рип
сайт-источник/ник/другое: Собственныи Диск (Poupsicot88)
Наличие сканов в содержимом раздачи: нет
Треклист:
01. Welcome to the Bitch Islands
02. Hélicoptère ducal
03. Pièces du sommeil
04. Métropole du chaos
05. L'éveil au château de la peine
06. Descente sur la Cistereia
07. Passe des destitués
08. Tam-tams cannibales
09. Lagunas Hondo
10. Soleil trahi
11. Rumeur du grand large
12. Steppes de la Grande Chienne
13. Bar de l'Hôtel Palace
14. Désastre des escortes
15. Le chant des hyènes
Exact Audio Copy V1.1 from 23. June 2015

EAC extraction logfile from 2. May 2016, 15:15

MKB Fraction Provisoire / Le trésor des Îles Chiennes

Used drive : PLEXTOR DVDR PX-891SA Adapter: 1 ID: 0

Read mode : SecureUtilize accurate stream : YesDefeat audio cache : YesMake use of C2 pointers : No

Read offset correction : 6Overread into Lead-In and Lead-Out : NoFill up missing offset samples with silence : YesDelete leading and trailing silent blocks : NoNull samples used in CRC calculations : YesUsed interface : Native Win32 interface for Win NT & 2000Gap handling : Appended to previous track

Used output format : User Defined EncoderSelected bitrate : 1024 kBit/sQuality : HighAdd ID3 tag : NoCommand line compressor : C:\Program Files (x86)\Exact Audio Copy\Flac\flac.exeAdditional command line options : -6 -V -T "ARTIST=%artist%" -T "TITLE=%title%" -T "ALBUM=%albumtitle%" -T "DATE=%year%" -T "TRACKNUMBER=%tracknr%" -T "GENRE=%genre%" -T "COMMENT=%comment%" -T "BAND=%albuminterpret%" -T "ALBUMARTIST=%albuminterpret%" -T "COMPOSER=%composer%" %haslyrics%--tag-from-file=LYRICS="%lyricsfile%"%haslyrics% -T "DISCNUMBER=%cdnumber%" -T "TOTALDISCS=%totalcds%" -T "TOTALTRACKS=%numtracks%" %hascover%--picture="%coverfile%"%hascover% %source% -o %dest%

TOC of the extracted CD

Track | Start | Length | Start sector | End sector --------------------------------------------------------- 1 | 0:00.00 | 1:26.07 | 0 | 6456 2 | 1:26.07 | 1:01.70 | 6457 | 11101 3 | 2:28.02 | 2:25.65 | 11102 | 22041 4 | 4:53.67 | 1:17.23 | 22042 | 27839 5 | 6:11.15 | 2:08.27 | 27840 | 37466 6 | 8:19.42 | 2:51.43 | 37467 | 50334 7 | 11:11.10 | 4:27.42 | 50335 | 70401 8 | 15:38.52 | 4:05.63 | 70402 | 88839 9 | 19:44.40 | 5:37.65 | 88840 | 114179 10 | 25:22.30 | 5:06.32 | 114180 | 137161 11 | 30:28.62 | 3:58.10 | 137162 | 155021 12 | 34:26.72 | 4:03.00 | 155022 | 173246 13 | 38:29.72 | 3:00.58 | 173247 | 186804 14 | 41:30.55 | 3:14.10 | 186805 | 201364 15 | 44:44.65 | 4:57.47 | 201365 | 223686

Track 1

Filename D:\Torrents\MKB Fraction Provisoire\Le trésor des Îles Chiennes (1991)\01 Welcome to the Bitch Islands.wav

Pre-gap length 0:00:02.00

Peak level 87.8 % Extraction speed 4.0 X Track quality 100.0 % Test CRC 918E9F2D Copy CRC 918E9F2D Accurately ripped (confidence 1) [73DE4C60] (AR v2) Copy OK

Track 2

Filename D:\Torrents\MKB Fraction Provisoire\Le trésor des Îles Chiennes (1991)\02 Hélicoptère ducal.wav

Pre-gap length 0:00:02.42

Peak level 92.1 % Extraction speed 3.7 X Track quality 100.0 % Test CRC 18E0545C Copy CRC 18E0545C Accurately ripped (confidence 1) [1AB8CB3E] (AR v2) Copy OK

Track 3

Filename D:\Torrents\MKB Fraction Provisoire\Le trésor des Îles Chiennes (1991)\03 Pièces du sommeil.wav

Pre-gap length 0:00:02.27

Peak level 80.8 % Extraction speed 5.0 X Track quality 100.0 % Test CRC 655CD832 Copy CRC 655CD832 Accurately ripped (confidence 1) [35027BDE] (AR v2) Copy OK

Track 4

Filename D:\Torrents\MKB Fraction Provisoire\Le trésor des Îles Chiennes (1991)\04 Métropole du chaos.wav

Pre-gap length 0:00:00.72

Peak level 100.0 % Extraction speed 4.4 X Track quality 100.0 % Test CRC BB769E3C Copy CRC BB769E3C Accurately ripped (confidence 1) [16D56A6A] (AR v2) Copy OK

Track 5

Filename D:\Torrents\MKB Fraction Provisoire\Le trésor des Îles Chiennes (1991)\05 L'éveil au château de la peine.wav

Peak level 100.0 % Extraction speed 5.3 X Track quality 100.0 % Test CRC 04433842 Copy CRC 04433842 Accurately ripped (confidence 1) [58682FA6] (AR v2) Copy OK

Track 6

Filename D:\Torrents\MKB Fraction Provisoire\Le trésor des Îles Chiennes (1991)\06 Descente sur la Cistereia.wav

Pre-gap length 0:00:03.02

Peak level 85.2 % Extraction speed 5.9 X Track quality 100.0 % Test CRC 3A9B119F Copy CRC 3A9B119F Accurately ripped (confidence 1) [08DB34D1] (AR v2) Copy OK

Track 7

Filename D:\Torrents\MKB Fraction Provisoire\Le trésor des Îles Chiennes (1991)\07 Passe des destitués.wav

Pre-gap length 0:00:00.70

Peak level 86.8 % Extraction speed 5.7 X Track quality 99.9 % Test CRC BE8EB176 Copy CRC BE8EB176 Accurately ripped (confidence 1) [42EBE971] (AR v2) Copy OK

Track 8

Filename D:\Torrents\MKB Fraction Provisoire\Le trésor des Îles Chiennes (1991)\08 Tam-tams cannibales.wav

Pre-gap length 0:00:02.55

Peak level 89.9 % Extraction speed 7.2 X Track quality 100.0 % Test CRC F91F597F Copy CRC F91F597F Accurately ripped (confidence 1) [AA1A6BC5] (AR v2) Copy OK

Track 9

Filename D:\Torrents\MKB Fraction Provisoire\Le trésor des Îles Chiennes (1991)\09 Lagunas Hondo.wav

Pre-gap length 0:00:02.00

Peak level 100.0 % Extraction speed 7.9 X Track quality 100.0 % Test CRC 352C15F8 Copy CRC 352C15F8 Accurately ripped (confidence 1) [370082F9] (AR v2) Copy OK

Track 10

Filename D:\Torrents\MKB Fraction Provisoire\Le trésor des Îles Chiennes (1991)\10 Soleil trahi.wav

Pre-gap length 0:00:02.48

Peak level 80.0 % Extraction speed 7.1 X Track quality 99.9 % Test CRC CBB5F7B4 Copy CRC CBB5F7B4 Accurately ripped (confidence 1) [26D55A9C] (AR v2) Copy OK

Track 11

Filename D:\Torrents\MKB Fraction Provisoire\Le trésor des Îles Chiennes (1991)\11 Rumeur du grand large.wav

Pre-gap length 0:00:01.30

Peak level 82.6 % Extraction speed 8.5 X Track quality 100.0 % Test CRC 13F46A23 Copy CRC 13F46A23 Accurately ripped (confidence 1) [0484FF57] (AR v2) Copy OK

Track 12

Filename D:\Torrents\MKB Fraction Provisoire\Le trésor des Îles Chiennes (1991)\12 Steppes de la Grande Chienne.wav

Pre-gap length 0:00:01.40

Peak level 100.0 % Extraction speed 7.3 X Track quality 99.9 % Test CRC 6C3E488A Copy CRC 6C3E488A Accurately ripped (confidence 1) [02C4BCBD] (AR v2) Copy OK

Track 13

Filename D:\Torrents\MKB Fraction Provisoire\Le trésor des Îles Chiennes (1991)\13 Bar de l'Hôtel Palace.wav

Pre-gap length 0:00:00.55

Peak level 87.7 % Extraction speed 8.7 X Track quality 100.0 % Test CRC EE1EB98C Copy CRC EE1EB98C Accurately ripped (confidence 1) [5F1F5D2E] (AR v2) Copy OK

Track 14

Filename D:\Torrents\MKB Fraction Provisoire\Le trésor des Îles Chiennes (1991)\14 Désastre des escortes.wav

Pre-gap length 0:00:01.55

Peak level 100.0 % Extraction speed 9.1 X Track quality 100.0 % Test CRC CD1FA637 Copy CRC CD1FA637 Accurately ripped (confidence 1) [3375EF69] (AR v2) Copy OK

Track 15

Filename D:\Torrents\MKB Fraction Provisoire\Le trésor des Îles Chiennes (1991)\15 Le chant des hyènes.wav

Pre-gap length 0:00:02.18

Peak level 84.1 % Extraction speed 9.9 X Track quality 100.0 % Test CRC D8C69FD7 Copy CRC D8C69FD7 Accurately ripped (confidence 1) [527A63A8] (AR v2) Copy OK

All tracks accurately ripped

No errors occurred

End of status report

==== Log checksum 612CF6D5F244E0E3833116EF1A45C3360D6D538F68A5BE8C958F041B76E6E44D ====
REM GENRE "Score, Punk, Industrial, New Wave, Minimal"REM DATE 1991REM DISCID BE0BA60FREM COMMENT "ExactAudioCopy v1.1"PERFORMER "MKB Fraction Provisoire"TITLE "Le trésor des Îles Chiennes"FILE "01 Welcome to the Bitch Islands.wav" WAVE TRACK 01 AUDIO TITLE "Welcome to the Bitch Islands" PERFORMER "MKB Fraction Provisoire" INDEX 01 00:00:00 TRACK 02 AUDIO TITLE "Hélicoptère ducal" PERFORMER "MKB Fraction Provisoire" INDEX 00 01:23:40FILE "02 Hélicoptère ducal.wav" WAVE INDEX 01 00:00:00 TRACK 03 AUDIO TITLE "Pièces du sommeil" PERFORMER "MKB Fraction Provisoire" INDEX 00 00:59:43FILE "03 Pièces du sommeil.wav" WAVE INDEX 01 00:00:00 TRACK 04 AUDIO TITLE "Métropole du chaos" PERFORMER "MKB Fraction Provisoire" INDEX 00 02:24:68FILE "04 Métropole du chaos.wav" WAVE INDEX 01 00:00:00FILE "05 L'éveil au château de la peine.wav" WAVE TRACK 05 AUDIO TITLE "L'éveil au château de la peine" PERFORMER "MKB Fraction Provisoire" INDEX 01 00:00:00 TRACK 06 AUDIO TITLE "Descente sur la Cistereia" PERFORMER "MKB Fraction Provisoire" INDEX 00 02:05:25FILE "06 Descente sur la Cistereia.wav" WAVE INDEX 01 00:00:00 TRACK 07 AUDIO TITLE "Passe des destitués" PERFORMER "MKB Fraction Provisoire" INDEX 00 02:50:48FILE "07 Passe des destitués.wav" WAVE INDEX 01 00:00:00 TRACK 08 AUDIO TITLE "Tam-tams cannibales" PERFORMER "MKB Fraction Provisoire" INDEX 00 04:24:62FILE "08 Tam-tams cannibales.wav" WAVE INDEX 01 00:00:00 TRACK 09 AUDIO TITLE "Lagunas Hondo" PERFORMER "MKB Fraction Provisoire" INDEX 00 04:03:63FILE "09 Lagunas Hondo.wav" WAVE INDEX 01 00:00:00 TRACK 10 AUDIO TITLE "Soleil trahi" PERFORMER "MKB Fraction Provisoire" INDEX 00 05:35:17FILE "10 Soleil trahi.wav" WAVE INDEX 01 00:00:00 TRACK 11 AUDIO TITLE "Rumeur du grand large" PERFORMER "MKB Fraction Provisoire" INDEX 00 05:05:02FILE "11 Rumeur du grand large.wav" WAVE INDEX 01 00:00:00 TRACK 12 AUDIO TITLE "Steppes de la Grande Chienne" PERFORMER "MKB Fraction Provisoire" INDEX 00 03:56:45FILE "12 Steppes de la Grande Chienne.wav" WAVE INDEX 01 00:00:00 TRACK 13 AUDIO TITLE "Bar de l'Hôtel Palace" PERFORMER "MKB Fraction Provisoire" INDEX 00 04:02:20FILE "13 Bar de l'Hôtel Palace.wav" WAVE INDEX 01 00:00:00 TRACK 14 AUDIO TITLE "Désastre des escortes" PERFORMER "MKB Fraction Provisoire" INDEX 00 02:59:03FILE "14 Désastre des escortes.wav" WAVE INDEX 01 00:00:00 TRACK 15 AUDIO TITLE "Le chant des hyènes" PERFORMER "MKB Fraction Provisoire" INDEX 00 03:11:67FILE "15 Le chant des hyènes.wav" WAVE INDEX 01 00:00:00


Трекер:  [ 29-Июл-2016 18:30 ]

  

Скачать .torrent

Размер .torrent файла 11 KB


Размер: 256 MB
Хэш (hash) релиза: 50da740c908c3f17095df1ab73353c28e9fa24ee

Еще никто не оставлял запись к записи скачать торрент Сокровище Собачьих островов Le trésor des Îles Chiennes . Будь первым!

!Обратная связь