Скачать через торрент Сверхъестественные неприятности Сайки Кусуо Saiki Kusuo no Psi Nan бесплатно Аниме Все серии на русском torrent

Если у вас наблюдаются проблемы со скриншотами, переходом по ссылками, скачиванием торрентов - проблемы в блокировщике рекламы AdBlock. #хорошегоДня!


Статистика раздачи
Размер:  780 MB   |    Зарегистрирован:  1 год 4 месяца   |    .torrent скачан:  12 раз   |   
Раздают:  1  
   
Загрузка...
 
Автор Сообщение

Galfimbul

avatar Galfimbul


Сверхъестественные неприятности Сайки Кусуо / Saiki Kusuo no Psi Nan
Страна: Япония
Год выпуска: 2016 г.
Тип: TV
Жанр: Комедия, мистика, школа, сёнен, сверхъестественное
Продолжительность: 24 эп. по 25 мин
Русские субтитры: Наталия Ишова

Режиссер: Сакурай Хироаки

Студия:

Описание: Сайки Кусуо поистине необычный паренёк. Уже с раннего возраста у него проявились суперспособности. И сейчас их количество не счесть. До боли популярные телекинез и телепатия также присутствуют. Стоило бы радоваться такому раскладу, но не тут-то было, Кусуо с такими способностями живётся несладко. Но всё же он желает спокойной и нормальной жизни, вопреки своим раздражающим способностям.

Качество: HDTVRip | Равка: Leopard-Raws Формат: mp4 | Тип Видео: без хардсаба
Видео: х264, 8 bits, 1280x720, 1903 kbps, 23.976 fps, (16:9)
JP - AAC, 192 kbps, 48.0 KHz, 2 ch Язык Японский
01.The Disastrous Life of a Psychic (Part 1)
02. The Disastrous Life of a Psychic (Part 2)
Общее
Полное имя : D:\[Leopard-Raws]\[Leopard-Raws] Saiki Kusuo no Psi Nan\[Leopard-Raws] Saiki Kusuo no Psi Nan - 01 RAW (TX 1280x720 x264 AAC).mp4
Формат : MPEG-4
Профиль формата : Base Media
Идентификатор кодека : isom
Размер файла : 363 Мбайт
Продолжительность : 24 м.
Режим общего битрейта : Переменный
Общий поток : 2099 Кбит/сек
Дата кодирования : UTC 2016-07-11 08:19:32
Дата пометки : UTC 2016-07-11 08:19:32

Видео
Идентификатор : 1
Формат : AVC
Формат/Информация : Advanced Video Codec
Профиль формата : High@L4.1
Параметр CABAC формата : Да
Параметр ReFrames формата : 4 кадра
Идентификатор кодека : avc1
Идентификатор кодека/Информация : Advanced Video Coding
Продолжительность : 24 м.
Битрейт : 1903 Кбит/сек
Максимальный битрейт : 27,2 Мбит/сек
Ширина : 1280 пикселей
Высота : 720 пикселей
Соотношение сторон : 16:9
Режим частоты кадров : Постоянный
Частота кадров : 23,976 кадра/сек
Цветовое пространство : YUV
Субдискретизация насыщенности : 4:2:0
Битовая глубина : 8 бит
Тип развёртки : Прогрессивная
Бит/(Пиксели*Кадры) : 0.086
Размер потока : 329 Мбайт (91%)
Заголовок : 264:fps=23.976@GPAC0.5.1-DEV-rev4929
Библиотека кодирования : x264 core 129 r2245+729M 1a52e03
Настройки программы : cabac=1 / ref=4 / deblock=1:1:-1 / analyse=0x3:0x113 / me=umh / subme=9 / psy=1 / fade_compensate=0.00 / psy_rd=1.00:0.00 / mixed_ref=1 / me_range=24 / chroma_me=1 / trellis=2 / 8x8dct=1 / cqm=0 / deadzone=21,11 / fast_pskip=1 / chroma_qp_offset=-2 / threads=8 / lookahead_threads=1 / sliced_threads=0 / nr=0 / decimate=1 / interlaced=0 / bluray_compat=0 / constrained_intra=0 / fgo=0 / bframes=9 / b_pyramid=2 / b_adapt=2 / b_bias=0 / direct=1 / weightb=1 / open_gop=0 / weightp=2 / keyint=240 / keyint_min=24 / scenecut=40 / intra_refresh=0 / rc=crf / mbtree=0 / crf=18.5 / qcomp=0.72 / qpmin=0 / qpmax=69 / qpstep=4 / ip_ratio=1.40 / pb_ratio=1.30 / aq=1:0.85
Дата кодирования : UTC 2016-07-11 08:19:32
Дата пометки : UTC 2016-07-11 08:19:36
Основные цвета : BT.709
Характеристики трансфера : BT.709
Коэффициенты матрицы : BT.709

Аудио
Идентификатор : 2
Формат : AAC
Формат/Информация : Advanced Audio Codec
Профиль формата : LC
Идентификатор кодека : 40
Продолжительность : 24 м.
Вид битрейта : Переменный
Битрейт : 192 Кбит/сек
Максимальный битрейт : 229 Кбит/сек
Каналы : 2 канала
Расположение каналов : Front: L R
Частота : 48,0 КГц
Метод сжатия : С потерями
Размер потока : 33,1 Мбайт (9%)
Язык : Japanese
Дата кодирования : UTC 2016-07-10 18:11:53
Дата пометки : UTC 2016-07-11 08:19:36


Обновите торент файл, добавлена 2я серия

Трекер:  [ 30-Июл-2016 11:30 ]

  

Скачать .torrent

Размер .torrent файла 16 KB


Размер: 780 MB
Хэш (hash) релиза: 73b8eae527c92264d0c0e893fe5aa2ba66ec6691
Подписка на обновления:

Торренты, похожие на Сверхъестественные неприятности Сайки Кусуо Saiki Kusuo no Psi Nan скачать торрент

Форум Название Автор Размер S L Добавлен
Аниме | HD Rips ·· Сверхъестественные неприятности Сайки Кусуо / Saiki Kusuo no Psi Nan (Сакурай Хироаки) [TV] [13 из 24] [Без хардсаба] [JAP+SUB] [2016, комедия, мистика, школа, сёнен, сверхъестественное HDTVRip] [720p] Galfimbul 51245861074.77 GB 0 0 1481211582

18:39

8-Дек-16

Аниме | HD Rips ·· Сверхъестественные неприятности Сайки Кусуо / Saiki Kusuo no Psi Nan (Сакурай Хироаки) [TV] [6 из 24] [Без хардсаба] [JAP+SUB] [2016 г., комедия, мистика, школа, сёнен, сверхъестественное HDTVRip] [720p] Galfimbul 24867197212.32 GB 0 0 1475135597

10:53

29-Сен-16

Аниме | HD Rips ·· Сверхъестественные неприятности Сайки Кусуо / Saiki Kusuo no Psi Nan (Сакурай Хироаки) [TV] [4 из 24] [Без хардсаба] [JAP+SUB] [2016 г., комедия, мистика, школа, сёнен, сверхъестественное HDTVRip] [720p] Galfimbul 16574042831.54 GB 0 0 1470724282

09:31

9-Авг-16

Аниме | HD Rips ·· Сверхъестественные неприятности Сайки Кусуо / Saiki Kusuo no Psi Nan (Сакурай Хироаки) [TV] [1 из 24] [Без хардсаба] [JAP+SUB] [2016 г., комедия, мистика, школа, сёнен, сверхъестественное HDTVRip] [720p] Galfimbul 380451358363 MB 0 0 1468771772

19:09

17-Июл-16

Еще никто не оставлял запись к записи скачать торрент Сверхъестественные неприятности Сайки Кусуо Saiki Kusuo no Psi Nan . Будь первым!

!Обратная связь