Скачать через торрент Солнце сквозь дождик Hinata no Aoshigure бесплатно Аниме Все серии на русском torrent

Если у вас наблюдаются проблемы со скриншотами, переходом по ссылками, скачиванием торрентов - проблемы в блокировщике рекламы AdBlock. #хорошегоДня!


Статистика раздачи
Размер:  4.89 GB   |    Зарегистрирован:  1 год 4 месяца   |    .torrent скачан:  24 раза   |   
Раздают:  1  
   
Загрузка...
 
Автор Сообщение

Galfimbul

avatar Galfimbul


Солнце сквозь дождик / Hinata no Aoshigure

Год выпуска: 2013
Страна: Япония
Жанр: романтика, фэнтези
Тип: Movie
Продолжительность: 18 мин.
Озвучка:
<ol class="post-ul">
Двухголосая (муж/жен) от Zendos & Eladiel (Onibaku)
</ol>

Русские субтитры: есть (отдельным файлом, формат .ass)
Перевод:
<ol class="post-ul">
Алекс Миф [Timecraft]
</ol>
Хардсаб: Нет
Режиссер: Исида Хироясу
Студия: Studio Colorido

Описание: Милая история, повествующая о Хинате — обыкновенном ученике четвёртого года обучения, и о его попытке признаться в чувствах однокласснице Шигуре.

Качество: Blu-Ray Remux
Формат: MKV
Видео кодек: AVC
Аудио кодек: FLAC
Видео: 1920x1080 (16:9) 23,976 fps ~36,4 Mbps 8bit
Аудио:
Jap FLAC, 48000Hz, ~1407 Kbps, 2ch
RUS (ext) AAC, 48000Hz, ~192 Kbps, 2ch

Чаптеры присутствуют.
Общее
Уникальный идентификатор : 238244404140542189380950785849037830979 (0xB33C340506C0C5669BA278F1C7EE3B43)
Полное имя : M:\pub\Video\Anime\Hinata no Aoshigure\[anti-raws]Hinata no Aoshigure[BDRemux].mkv
Формат : Matroska
Версия формата : Version 4 / Version 2
Размер файла : 4,87 Гбайт
Продолжительность : 17 м.
Режим общего битрейта : Переменный
Общий поток : 38,7 Мбит/сек
Дата кодирования : UTC 2016-08-06 08:58:15
Программа кодирования : mkvmerge v9.3.1 ('Mask Machine') 64bit
Библиотека кодирования : libebml v1.3.4 + libmatroska v1.4.5

Видео
Идентификатор : 2
Формат : AVC
Формат/Информация : Advanced Video Codec
Профиль формата : High@L4.1
Параметр CABAC формата : Да
Параметр ReFrames формата : 4 кадра
Идентификатор кодека : V_MPEG4/ISO/AVC
Продолжительность : 17 м.
Вид битрейта : Переменный
Битрейт : 37,3 Мбит/сек
Максимальный битрейт : 40,0 Мбит/сек
Ширина : 1920 пикселей
Высота : 1080 пикселей
Соотношение сторон : 16:9
Режим частоты кадров : Постоянный
Частота кадров : 23,976 (24000/1001) кадра/сек
Цветовое пространство : YUV
Субдискретизация насыщенности : 4:2:0
Битовая глубина : 8 бит
Тип развёртки : Прогрессивная
Бит/(Пиксели*Кадры) : 0.750
Размер потока : 4,69 Гбайт (96%)
Default : Нет
Forced : Нет

Аудио
Идентификатор : 1
Формат : FLAC
Формат/Информация : Free Lossless Audio Codec
Идентификатор кодека : A_FLAC
Продолжительность : 17 м.
Вид битрейта : Переменный
Битрейт : 1407 Кбит/сек
Каналы : 2 канала
Расположение каналов : Front: L R
Частота : 48,0 КГц
Частота кадров : 11,719 кадров/сек (4096 spf)
Битовая глубина : 24 бит
Размер потока : 181 Мбайт (4%)
Библиотека кодирования : libFLAC 1.2.1 (UTC 2007-09-17)
Язык : Japanese
Default : Да
Forced : Нет

Меню
00:00:00.000 : en:00:00:00.000
00:01:17.077 : en:00:01:17.077
00:06:50.076 : en:00:06:50.076
00:09:51.758 : en:00:09:51.758
00:16:39.165 : en:00:16:39.165
<a href="viewtopic.php?t=5032713" class="postLink">...5032713</a>
--HDTVRip

<a href="viewtopic.php?t=5077194" class="postLink">...5077194</a>
--BDRip

Эта раздача - BDRemux


Трекер:  [ 06-Авг-2016 23:00 ]

  

Скачать .torrent

Размер .torrent файла 6 KB


Размер: 4.89 GB
Хэш (hash) релиза: 6b30f87f99527a91c95996876e8ea94fc056b8c4
Подписка на обновления:

Торренты, похожие на Солнце сквозь дождик Hinata no Aoshigure скачать торрент

Форум Название Автор Размер S L Добавлен
Аниме | HD Rips ·· Солнце сквозь дождик / Hinata no Aoshigure (Исида Хироясу) [Movie] [без хардсаба] [RUS(ext), JAP+SUB] [2013 г., романтика, фэнтези, BDRip] [1080p] Galfimbul 28921777522.69 GB 0 0 1470761805

19:56

9-Авг-16

Аниме | HD Rips ·· Солнце сквозь дождик / Hinata no Aoshigure (Исида Хироясу) [Movie] [Без хардсаба] [RUS(int), JAP+SUB] [2013 г., романтика, HDTVRip] [720p] Galfimbul 923431537881 MB 0 0 1435476925

10:35

28-Июн-15

Еще никто не оставлял запись к записи скачать торрент Солнце сквозь дождик Hinata no Aoshigure . Будь первым!

!Обратная связь