Скачать через торрент Моя тайна My Secret Past Фильм бесплатно в хорошем качестве torrent

Скачивайте на UnionPeer.org фильмы через торрент без регистрации. Новинки кино в хорошем качестве через торрент. На UnionPeer.org можно скачать через торрент фильмы 2014 и 2015 годов. Самые новые фильмы.

Скачать торрент Моя тайна My Secret Past бесплатно через .torrent фильм мультфильм сериал

Если у вас наблюдаются проблемы со скриншотами, переходом по ссылками, скачиванием торрентов - проблемы в блокировщике рекламы AdBlock. #хорошегоДня!


Статистика раздачи
Размер:  365 MB   |    Зарегистрирован:  1 год 4 месяца   |    .torrent скачан:  11 раз   |   
Раздают:  1  
   
Загрузка...
 
Автор Сообщение

Galfimbul

avatar Galfimbul


Моя тайна (серия 5 из 9) / My Secret Past (S02E03)Гарет Томас: Каминг-аут / Gareth Thomas: Coming Out
Год выпуска: 2013
Страна: Великобритания
Жанр: документальный, биография, спорт
Продолжительность: 00:44:39

Перевод: субтитры (пер. zazazabest)
Оригинальная аудиодорожка: английский
Субтитры: есть (русские, английские)

Режиссер: Джеймс Бейнбридж / James Bainbridge
Телеканал: Channel 5

Описание: Документальный фильм о Гарете Томасе – легендарном игроке в регби.
Он первый среди регбистов-профессионалов совершил каминг-аут. Из-за жесткой гомофобии в спортивной среде 20 лет скрывал свою сексуальную ориентацию. При этом сумел стать одним из лучших игроков за всю историю регби, завоевал множество титулов и длительное время был капитаном команды. В надежде «быть как все» он женился на своей школьной подруге Джемме. Но это лишь усилило внутренний конфликт и чуть не довело его до самоубийства. И только благодаря поддержке близких друзей и своей семьи Гарет сумел примириться со своей сексуальной ориентацией и заявить о ней публично.
«Я горжусь тем, кто я есть. Я добился в регби всего, чего хотел и о чем только можно мечтать. И достиг этого, будучи геем. Поэтому я хочу подать хороший знак другим гомосексуальным людям, что они тоже могут добиться много», – сказал знаменитый спортсмен.

Сэмпл: http://multi-up.com/1113283

Качество: HDTVRip
Формат: AVI
Видео: Xvid 624x352 25fps 1004kbps
Аудио: MP3 48000Hz stereo 128kbps
Cубтитры: softsub (SRT)
GeneralComplete name : D:\Downloads\Gareth Thomas\Gareth Thomas. Coming Out. My Secret Past (2013).aviFormat : AVIFormat/Info : Audio Video InterleaveFile size : 365 MiBDuration : 44mn 39sOverall bit rate : 1 142 KbpsWriting application : VirtualDubMod 1.5.10.2 (build 2540/release)Writing library : VirtualDubMod build 2540/release

VideoID : 0Format : MPEG-4 VisualFormat profile : Advanced Simple@L5Format settings, BVOP : 1Format settings, QPel : NoFormat settings, GMC : No warppointsFormat settings, Matrix : Default (H.263)Muxing mode : Packed bitstreamCodec ID : XVIDCodec ID/Hint : XviDDuration : 44mn 39sBit rate : 1 004 KbpsWidth : 624 pixelsHeight : 352 pixelsDisplay aspect ratio : 16:9Frame rate : 25.000 fpsColor space : YUVChroma subsampling : 4:2:0Bit depth : 8 bitsScan type : ProgressiveCompression mode : LossyBits/(Pixel*Frame) : 0.183Stream size : 321 MiB (88%)Writing library : XviD 64

AudioID : 1Format : MPEG AudioFormat version : Version 1Format profile : Layer 3Mode : Joint stereoMode extension : MS StereoCodec ID : 55Codec ID/Hint : MP3Duration : 44mn 39sBit rate mode : ConstantBit rate : 128 KbpsChannel(s) : 2 channelsSampling rate : 48.0 KHzCompression mode : LossyStream size : 40.9 MiB (11%)Alignment : Aligned on interleavesInterleave, duration : 40 ms (1.00 video frame)Interleave, preload duration : 504 ms


Трекер:  [ 11-Авг-2016 20:30 ]

  

Скачать .torrent

Размер .torrent файла 15 KB


Размер: 365 MB
Хэш (hash) релиза: 7f5736889f5665e2b4b84d1c4b70ad5a9c559124
Подписка на обновления:

Еще никто не оставлял запись к записи скачать торрент Моя тайна My Secret Past . Будь первым!

!Обратная связь