Скачать через торрент Герои шестилистника Rokka no Yuusha бесплатно Аниме Все серии на русском torrent

Если у вас наблюдаются проблемы со скриншотами, переходом по ссылками, скачиванием торрентов - проблемы в блокировщике рекламы AdBlock. #хорошегоДня!


Статистика раздачи
Размер:  21.6 GB   |    Зарегистрирован:  1 год 4 месяца   |    .torrent скачан:  13 раз   |   
Раздают:  1  
   
Загрузка...
 
Автор Сообщение

Galfimbul

avatar Galfimbul



Страна: Япония
Год выпуска: 2015
Жанр: приключения, фэнтези, детектив
Продолжительность: ТВ (12 эп.), по 25 мин. + спэшлы (3 эп.), по 10-15 мин.
Режиссер: Такахаси Такэо
Студия:
Перевод:
<ol class="post-ul">
русские субтитры от Shimizu & GMC & Timecraft (полные) | .ass, внешние
редакторы: Jarly, Shifroval; переводчики: Koushin, Sovereign; перевод песен, оформление, тайм-код: Jarly
</ol>
Озвучка:
<ol class="post-ul">
двухголосая (муж./жен.) от Metacarmex & Say (Anilibria) | .mka, внешние
</ol>
Описание: На древнем континенте, похожем на Центральную Америку, появился Темный Властелин. Его победила Богиня Судьбы, но зло неистребимо, так что отныне каждые 300 лет богиня выбирает шестерых героев, одаряя их знаком цветка – а потом добро пожаловать на полуостров Демонов. Грядет третье пришествие Князя Тьмы – и в храме на границе человеческих земель вновь собираются лучшие из лучших: авантюрист, принцесса, стрелок, жрица, рыцарь, убийца и маленькая девочка. Вот только собрались они, посчитались – явный непорядок, какой-то цветик-семицветик получается!

Мало того, что в стройные ряды сил Света затесался лишний, а значит, вражеский агент, так еще храм внезапно огородил барьер, который мешает избранным вершить правое дело. Да уж, миньоны Темного не дремлют и за тысячу лет чему-то научились. Так кто же враг, оборотень, позорящий знак цветка? Может, это бродяга Адлет, нагло вмешавшийся в отбор? Или киллер Ханс – знаем мы таких, перековавшихся! Да и полукровка Флеми, поменявшая сторону, вызывает подозрения… В общем, надо срочно решать загадку запертой комнаты, а то Повелитель Демонов соскучиться может!
© Hollow, World Art
Информационные ссылки: AniDB || World Art || MAL
Качество: BDRip
Энкод: neko-raws
Тип видео: без хардсаба, без линковки
Формат видео: MKV
Видео: x264, 10 bits, 1920x1080 (16:9), 23.976 fps, ~9750 Kbps
Аудио JAP: FLAC, 96000Hz, 2ch, ~2500 Kbps
Аудио RUS (ext): AAC, 48000Hz, 2ch, ~192 Kbps
Общее
Уникальный идентификатор: 188364872834483993453076143603010183232 (0x8DB5C141896DA1CEAC2BEF446AEB2040)
Полное имя: F:\Раздачи\Rokka no Yuusha [BDRip] [1080p]\[neko-raws] Rokka no Yuusha 01 [BD][1080p][FLAC]v2.mkv
Формат: Matroska
Версия формата: Version 4 / Version 2
Размер файла: 2,03 Гбайт
Продолжительность: 23 м.
Режим общего битрейта: Переменный
Общий поток: 12,2 Мбит/сек
Дата кодирования: UTC 2016-01-06 16:17:39
Программа кодирования: mkvmerge v8.7.0 ('All of the above') 64bit
Библиотека кодирования: libebml v1.3.3 + libmatroska v1.4.4

Видео
Идентификатор: 1
Формат: AVC
Формат/Информация: Advanced Video Codec
Профиль формата: High 10@L5.1
Параметр CABAC формата: Да
Параметр ReFrames формата: 16 кадров
Идентификатор кодека: V_MPEG4/ISO/AVC
Продолжительность: 23 м.
Битрейт: 9748 Кбит/сек
Ширина: 1920 пикселей
Высота: 1080 пикселей
Соотношение сторон: 16:9
Режим частоты кадров: Постоянный
Частота кадров: 23,976 (24000/1001) кадра/сек
Цветовое пространство: YUV
Субдискретизация насыщенности: 4:2:0
Битовая глубина: 10 бит
Тип развёртки: Прогрессивная
Бит/(Пиксели*Кадры): 0.196
Размер потока: 1,61 Гбайт (80%)
Заголовок: encode by neko-raws
Библиотека кодирования: x264 core 146 r2538 121396c
Настройки программы: cabac=1 / ref=16 / deblock=1:0:-2 / analyse=0x3:0x133 / me=umh / subme=10 / psy=1 / psy_rd=1.00:0.00 / mixed_ref=1 / me_range=32 / chroma_me=1 / trellis=2 / 8x8dct=1 / cqm=0 / deadzone=21,11 / fast_pskip=1 / chroma_qp_offset=-4 / threads=12 / lookahead_threads=3 / sliced_threads=0 / slices=4 / nr=0 / decimate=1 / interlaced=0 / bluray_compat=0 / constrained_intra=0 / bframes=16 / b_pyramid=2 / b_adapt=2 / b_bias=0 / direct=3 / weightb=1 / open_gop=0 / weightp=2 / keyint=240 / keyint_min=22 / scenecut=40 / intra_refresh=0 / rc=crf / mbtree=0 / crf=15.5 / qcomp=0.80 / qpmin=10 / qpmax=81 / qpstep=4 / ip_ratio=1.40 / pb_ratio=1.30 / aq=1:1.00
Default: Да
Forced: Нет

Аудио
Идентификатор: 2
Формат: FLAC
Формат/Информация: Free Lossless Audio Codec
Идентификатор кодека: A_FLAC
Продолжительность: 23 м.
Вид битрейта: Переменный
Битрейт: 2493 Кбит/сек
Каналы: 2 канала
Расположение каналов: Front: L R
Частота: 96,0 КГц
Частота кадров: 23,438 кадра/сек (4096 spf)
Битовая глубина: 24 бит
Размер потока: 423 Мбайт (20%)
Библиотека кодирования: libFLAC 1.2.1 (UTC 2007-09-17)
Язык: Japanese
Default: Да
Forced: Нет
File: F:\Раздачи\Rokka no Yuusha [BDRip] [1080p]\[neko-raws] Rokka no Yuusha 01 [BD][1080p][FLAC]v2.mkv
Duration: 00:23:42 (1422.09)
Track #1: video (encode by neko-raws)
lang: und (1)
codc: V_MPEG4/ISO/AVC -> H264/AVC (22)
reso: 1920x1080 (1920x1080) -> 16:9
fram: 23.976 fps
rate: 9748 kbps (9747.9)
dura: 00:23:42 (1422.05)
size: 1.61 GB (1732746119)
Track #2: audio
lang: jpn -> Japanese (2)
codc: A_FLAC -> Other (15)
chan: 2 -> Stereo
samp: 96000 Hz
rate: 2493 kbps (2493.00)
dura: 00:23:42 (1422.08)
size: 422.63 MB (443155978)
Sizes: (check sanity)
disk: 2.03 GB (2176230157)
trac: 2.03 GB (2175902097) [based on track size]
bitr: 2.03 GB (2175891328) [based on bitrate]
tdif: 320.37 KB (328060) 0.01%
bdif: 330.89 KB (338828) 0.01%
[b]TV

01. The Strongest Man in the World
02. First Journey
03. The Girl Who Kills Braves
04. The Heroes Gather
05. The Seventh Brave
06. A Trap and a Rout
07. The Reasons of the Two
08. The Average Man and the Genius
09. Blossoms of Doubt
10. Desperate Situation
11. Counterattack
12. The Time to Reveal the Answer[/b]

Specials
[b]
<a href="viewtopic.php?t=5261824" class="postLink">...5261824</a>
- 1080p

<a href="viewtopic.php?t=5042969" class="postLink">...5042969</a>
<a href="viewtopic.php?t=5036833" class="postLink">...5036833</a>
- BDRip 1080p

<a href="viewtopic.php?t=5046562" class="postLink">...5046562</a>
- BDRip
Русская звуковая дорожка взята из этой <a href="viewtopic.php?t=5261824" class="postLink">раздачи</a>


Трекер:  [ 13-Авг-2016 19:30 ]

  

Скачать .torrent

Размер .torrent файла 112 KB


Размер: 21.6 GB
Хэш (hash) релиза: 8f5c40ca4428eaacce647f3aca8a30b2fb0271dc
Подписка на обновления:

Еще никто не оставлял запись к записи скачать торрент Герои шестилистника Rokka no Yuusha . Будь первым!

!Обратная связь