Скачать через торрент История финала Owarimonogatari бесплатно Аниме Все серии на русском torrent

Если у вас наблюдаются проблемы со скриншотами, переходом по ссылками, скачиванием торрентов - проблемы в блокировщике рекламы AdBlock. #хорошегоДня!


Статистика раздачи
Размер:  13.28 GB   |    Зарегистрирован:  1 год 3 месяца   |    .torrent скачан:  39 раз   |   
Раздают:  1  
   
Загрузка...
 
Автор Сообщение

Galfimbul

avatar Galfimbul



Год выпуска: 2015 | Страна: Япония
Жанр: приключения, мистика
Продолжительность: тв-сериал, 1-ый эп. 50 мин; 11 эп. по 25 мин.
Перевод:
▪ субтитры от Black Rock Team [1-8]
переводчик: Dav-zero, редактор: akira K.
▪ субтитры от Sovetromantica
переводчик: EfimT, Frales, WMM, редактор: Xander
Режиссер: Симбо Акиюки
Студия:
AniDB World Art MAL
Качество: BDRip | Рип: Vladdrako [Beatrice-Raws]
Тип релиза: без хардсаба, без линковки
Формат видео: MKV
Видео: x264, Hi10P, 1920x1080, 23.976fps, 4700 Kbps
Аудио JAP: FLAC, 48.0 kHz, 2ch, 680 Kbps
Описание: Школьная жизнь Коёми Арараги подходит к своему завершению. Однако, остаётся ещё множество загадок и проблем, ждущих своего часа. Перед своим выпускным ему придётся решить множество вопросов. Как закончить школу и выжить? Кто такая эта странная Оги Оcино? Что же такого произошло в средней школе, и почему его бывшая одноклассница Содати испытывает к Арараги такую жгучую ненависть? Чтобы увидеть своё будущее, Арараги придётся изрядно покопаться в своём прошлом.
GeneralUnique ID : 227250229921291540316246996905739686166 (0xAAF6CD6165F6507D9AE3A840AF2C1116)Complete name : D:\tempd\[Beatrice-Raws] Owarimonogatari [BDRip 1920x1080 x264 FLAC]\[Beatrice-Raws] Owarimonogatari 01P1 [BDRip 1920x1080 x264 FLAC].mkvFormat : MatroskaFormat version : Version 4 / Version 2File size : 1.16 GiBDuration : 27 minOverall bit rate mode : VariableOverall bit rate : 6 115 kb/sEncoded date : UTC 2016-08-13 18:56:38Writing application : mkvmerge v9.3.1 ('Mask Machine') 64bitWriting library : libebml v1.3.4 + libmatroska v1.4.5

VideoID : 1Format : AVCFormat/Info : Advanced Video CodecFormat profile : High 10@L5Format settings, CABAC : YesFormat settings, ReFrames : 4 framesCodec ID : V_MPEG4/ISO/AVCDuration : 27 minBit rate : 5 434 kb/sWidth : 1 920 pixelsHeight : 1 080 pixelsDisplay aspect ratio : 16:9Frame rate mode : ConstantFrame rate : 23.976 (24000/1001) FPSColor space : YUVChroma subsampling : 4:2:0Bit depth : 10 bitsScan type : ProgressiveBits/(Pixel*Frame) : 0.109Stream size : 1.03 GiB (89%)Title : BDRip by VladdrakoWriting library : x264 core 148 r2597M e86f3a1 (DJATOM's build)Encoding settings : cabac=1 / ref=4 / deblock=1:1:-1 / analyse=0x3:0x113 / me=umh / subme=9 / psy=1 / fade_compensate=0.00 / psy_rd=1.00:0.00 / mixed_ref=1 / me_range=32 / chroma_me=1 / trellis=2 / 8x8dct=1 / cqm=0 / deadzone=21,11 / fast_pskip=1 / chroma_qp_offset=-2 / threads=34 / lookahead_threads=5 / sliced_threads=0 / nr=0 / decimate=1 / interlaced=0 / bluray_compat=0 / constrained_intra=0 / bframes=9 / b_pyramid=2 / b_adapt=2 / b_bias=0 / direct=1 / weightb=1 / open_gop=0 / weightp=2 / keyint=250 / keyint_min=23 / scenecut=40 / intra_refresh=0 / rc=crf / mbtree=0 / crf=15.5000 / qcomp=0.72 / qpmin=0 / qpmax=81 / qpstep=4 / ip_ratio=1.40 / pb_ratio=1.30 / aq=1:0.85Language : JapaneseDefault : YesForced : NoColor range : LimitedColor primaries : BT.709Transfer characteristics : BT.709Matrix coefficients : BT.709

AudioID : 2Format : FLACFormat/Info : Free Lossless Audio CodecCodec ID : A_FLACDuration : 27 minBit rate mode : VariableBit rate : 680 kb/sChannel(s) : 2 channelsChannel positions : Front: L RSampling rate : 48.0 kHzFrame rate : 11.719 FPS (4096 spf)Bit depth : 16 bitsStream size : 132 MiB (11%)Title : LPCM->FLAC-down16Writing library : libFLAC 1.2.1 (UTC 2007-09-17)Language : JapaneseDefault : YesForced : No

Menu00:00:00.000 : :Avant00:02:02.997 : :OP00:03:33.004 : :Part A00:03:36.007 : :Part B00:05:38.546 : :Part C00:06:38.731 : :Part D00:08:46.192 : :Part E00:17:47.024 : :Part F00:18:40.160 : :Part G00:20:04.786 : :Part H00:21:56.356 : :Part I00:23:05.801 : :Part J00:23:49.886 : :Part K00:25:40.038 : :ED
<a href="viewtopic.php?t=5214477" class="postLink">...5214477</a>
<a href="viewtopic.php?t=5184768" class="postLink">...5184768</a>
<a href="viewtopic.php?t=5231655" class="postLink">...5231655</a>
<a href="viewtopic.php?t=5096729" class="postLink">...5096729</a>
<a href="viewtopic.php?t=5091081" class="postLink">...5091081</a>
BDRip 1080p
01. Формула Оги
02. Загадка Содачи - Часть 1
03. Загадка Содачи - Часть 2
04. Потеря Содачи - Часть 1
05. Потеря Содачи - Часть 2
06. Потеря Содачи - Часть 3
07. Доспехи Шинобу - Часть 1
08. Доспехи Шинобу - Часть 2
09. Доспехи Шинобу - Часть 3
10. Доспехи Шинобу - Часть 4
11. Доспехи Шинобу - Часть 5
12. Доспехи Шинобу - Часть 6


Трекер:  [ 13-Авг-2016 22:00 ]

  

Скачать .torrent

Размер .torrent файла 40 KB


Размер: 13.28 GB
Хэш (hash) релиза: 82677990f6a694b2507cfdaca32dc49d0d1e6a16
Подписка на обновления:

Торренты, похожие на История финала Owarimonogatari скачать торрент

Форум Название Автор Размер S L Добавлен
Аниме | Rips ·· Истории последствий / История финала / Owarimonogatari [TV] [13 из 13] [Без хардсаба] [RUS(ext), JAP, SUB] [2015 г., Приключения, Комедия, Мистика, BDRip] [720p] Galfimbul 54093666355.04 GB 0 0 1462021481

16:04

30-Апр-16

Аниме | Rips ·· Истории последствий / История финала / Owarimonogatari [TV] [01-04 из 13] [Без хардсаба] [RUS(ext), JAP, SUB] [2015 г., Приключения, Комедия, Мистика, BDRip] [720p] Galfimbul 22273154862.07 GB 0 0 1461519997

20:46

24-Апр-16

Аниме | Rips ·· Истории последствий / История финала / Owarimonogatari (Симбо Акиюки) [TV] [01 из 12] [Без хардсаба] [RUS(int), JAP] [2015 г., приключения, мистика, HDTVRip] [720p] Galfimbul 605771564578 MB 0 0 1444858666

00:37

15-Окт-15

Аниме | HD Rips ·· История финала / Owarimonogatari [TV] [12 из 12] [без хардсаба] [JAP+SUB] [2015 г., приключения, мистика, BDRip] [1080p] Galfimbul 102037787489.5 GB 0 0 1464222451

03:27

26-Май-16

Аниме | HD Rips ·· История финала / Owarimonogatari (Симбо Акиюки) [TV] [12 из 12] [без хардсаба] [JAP+SUB] [2015 г., приключения, мистика, BDRemux] [1080p] Galfimbul 8758823309581.57 GB 0 0 1463956303

01:31

23-Май-16

Аниме | HD Rips ·· История финала / Owarimonogatari (Симбо Акиюки) [TV] [1 из 12] [без хардсаба] [JAP+SUB] [2015 г., приключения, мистика, BDRemux] [1080p] Galfimbul 1477036702113.76 GB 0 0 1457365423

18:43

7-Мар-16

Аниме | HD Rips ·· История финала / Owarimonogatari [TV] [1-4 из 12] [Без хардсаба] [JAP, SUB] [2015 г., приключения, мистика, WEBRip] [1080p] Galfimbul 34954653783.26 GB 0 0 1446412670

00:17

2-Ноя-15

Аниме | HD Rips ·· История финала (ТВ-2) / Owarimonogatari [Special] [1 из 7] [Без хардсаба] [JAP+SUB] [2017, приключения, мистика, BDRip] [1080p] Galfimbul 17746774301.65 GB 0 0 1510054285

14:31

7-Ноя-17

Аниме | HD Rips ·· История финала (ТВ-2) / Owarimonogatari [Special] [1-2 из 7] [Без хардсаба] [JAP+SUB] [2017, приключения, мистика, BDRemux] [1080p] Galfimbul 1267295020011.8 GB 0 0 1510052511

14:01

7-Ноя-17

Аниме | HD Rips ·· История финала (ТВ-2) / Owarimonogatari [Special] [1-2 из 7] [Без хардсаба] [JAP+SUB] [2017, приключения, мистика, WEBRip] [1080p] Galfimbul 1042287048994 MB 0 0 1502667086

02:31

14-Авг-17

Еще никто не оставлял запись к записи скачать торрент История финала Owarimonogatari . Будь первым!

!Обратная связь