Скачать через торрент Маги: Приключения Синдбада Magi: Sinbad no Bouken бесплатно Аниме Все серии на русском torrent

Если у вас наблюдаются проблемы со скриншотами, переходом по ссылками, скачиванием торрентов - проблемы в блокировщике рекламы AdBlock. #хорошегоДня!


Статистика раздачи
Размер:  3.6 GB   |    Зарегистрирован:  1 год 3 месяца   |    .torrent скачан:  10 раз   |   
Раздают:  1  
   
Загрузка...
 
Автор Сообщение

Galfimbul

avatar Galfimbul


Маги: Приключения Синбада / Magi Sinbad no Bouken / マギ シンドバッドの冒険

Страна: Япония
Год выпуска: 2016 г.
Жанр: приключения, фэнтези
Тип: TV
Продолжительность: 13 эп. по ~24 мин.
Режиссер: Мияо Ёсикадзу
Автор оригинала: Отака Синобу
Студия:
Перевод: [Firegorn Team]
Перевод, оформление: Redgar-firegorn
Коррекция, редактирование: Igorek1102
Караоке: Thousandth Day
Сверка с японским: UzurpatorKel
Озвучка: <a href="viewtopic.php?t=1474434" class="postLink">[Anything-group]</a>
<div style="margin-left: 2em" class="post-ul">Озвучка: Sad_kit & Milirina (Муж., Жен.) Sample
Работа со звуком: Arazu</div>
Описание: С чего же все началось? По обыкновению - с рождения! В мир пришел ребенок с необыкновенной силой духа. Подобные ему рождаются раз в 1000 лет. Родители назвали его Синдбад. Мальчик вырос сильным, смелым и с добрым сердцем. Однажды, к ним в деревню приходит загадочный путешественник Юнан. И понеслось... События сменяли друг друга с неимоверной скоростью. Пришла повестка, его призвали в армию. Но не уже ли ему суждено повторить печальную судьбу отца? Син так легко не сдастся! Ведь ему предначертано стать Повелителем Семи Морей!
World Art | My Anime List | Anidb
Качество: HDTVRip
Тип релиза: Без хардсаба
Формат видео: MKV
Наличие линковки: Нет
Релиз/Автор рипа: [Leopard-Raws]
Видео: H.264 | 1280x720 | ~ 2 386 Kbps | 23.976 fps | 8 bit
Аудио 1: AAC, 187 kbps, 48000 Hz, 2 ch; Язык: Русский (в составе контейнера); Озвучка: Закадровая, двухголосая, (жен., муж.) Milirina & Sad_Kit [Anything Group]
Аудио 2: AAC, 202 kbps, 48000 Hz, 2 ch; Язык: Японский (в составе контейнера)
Субтитры: ASS, (в составе контейнера); Язык: Русский ; Перевод: Redgar-firegorn, Igorek1102, UzurpatorKel
GeneralUnique ID : 219722299363841031100615350437552544072 (0xA54CF9BF930DBF42AC5857996C235948)Complete name : Magi Sinbad no Bouken - TV [Anything Group]\Magi - Sinbad no Bouken (2016) - 01 [Anything Group].mkvFormat : MatroskaFormat version : Version 4 / Version 2File size : 486 MiBDuration : 24mn 28sOverall bit rate : 2 773 KbpsEncoded date : UTC 2016-05-10 08:45:04Writing application : mkvmerge v8.6.1 ('Flying') 64bitWriting library : libebml v1.3.3 + libmatroska v1.4.4Attachments : Anime Ace v3_0.ttf / BenguiatGothicCTT_0_0.ttf / Comic_Sans_0_0.ttf / ExposureCOne_0.ttf / Deutsch-Gothic_0_0.ttf

VideoID : 1Format : AVCFormat/Info : Advanced Video CodecFormat profile : High@L4.1Format settings, CABAC : YesFormat settings, ReFrames : 4 framesCodec ID : V_MPEG4/ISO/AVCDuration : 24mn 27sBit rate : 2 386 KbpsWidth : 1 280 pixelsHeight : 720 pixelsDisplay aspect ratio : 16:9Frame rate mode : ConstantFrame rate : 23.976 (24000/1001) fpsColor space : YUVChroma subsampling : 4:2:0Bit depth : 8 bitsScan type : ProgressiveBits/(Pixel*Frame) : 0.108Stream size : 417 MiB (86%)Writing library : x264 core 129 r2245+729M 1a52e03Encoding settings : cabac=1 / ref=4 / deblock=1:1:-1 / analyse=0x3:0x113 / me=umh / subme=9 / psy=1 / fade_compensate=0.00 / psy_rd=1.00:0.00 / mixed_ref=1 / me_range=24 / chroma_me=1 / trellis=2 / 8x8dct=1 / cqm=0 / deadzone=21,11 / fast_pskip=1 / chroma_qp_offset=-2 / threads=8 / lookahead_threads=1 / sliced_threads=0 / nr=0 / decimate=1 / interlaced=0 / bluray_compat=0 / constrained_intra=0 / fgo=0 / bframes=9 / b_pyramid=2 / b_adapt=2 / b_bias=0 / direct=1 / weightb=1 / open_gop=0 / weightp=2 / keyint=240 / keyint_min=24 / scenecut=40 / intra_refresh=0 / rc=crf / mbtree=0 / crf=17.5 / qcomp=0.72 / qpmin=0 / qpmax=69 / qpstep=4 / ip_ratio=1.40 / pb_ratio=1.30 / aq=1:0.85Default : YesForced : NoColor range : LimitedColor primaries : BT.709Transfer characteristics : BT.709Matrix coefficients : BT.709

Audio #1ID : 2Format : AACFormat/Info : Advanced Audio CodecFormat profile : LCCodec ID : A_AACDuration : 24mn 27sBit rate : 192 KbpsChannel(s) : 2 channelsChannel positions : Front: L RSampling rate : 48.0 KHzFrame rate : 46.875 fps (1024 spf)Compression mode : LossyDelay relative to video : 20msStream size : 33.6 MiB (7%)Title : RU [Anything Group]Language : RussianDefault : YesForced : Yes

Audio #2ID : 3Format : AACFormat/Info : Advanced Audio CodecFormat profile : LCCodec ID : A_AACDuration : 24mn 27sBit rate : 192 KbpsChannel(s) : 2 channelsChannel positions : Front: L RSampling rate : 48.0 KHzFrame rate : 46.875 fps (1024 spf)Compression mode : LossyStream size : 33.6 MiB (7%)Title : JPLanguage : JapaneseDefault : NoForced : No

TextID : 4Format : ASSCodec ID : S_TEXT/ASSCodec ID/Info : Advanced Sub Station AlphaDuration : 24mn 16sBit rate : 1 509 bpsCount of elements : 1546Compression mode : LosslessStream size : 268 KiB (0%)Title : RU [Firegorn Team]Language : RussianDefault : NoForced : No
1. Дитя судьбы
2. Синдбад-Мореход
3. Покорение лабиринта Баал
4. Покорение лабиринта Валефор I
5. Покорение лабиринта Валефор II
6. Своё место
7. Торговец Синдбад
<a href="viewtopic.php?t=4214487" class="postLink">Magi: The Labyrinth of Magic - ТВ (25 эп.)</a>, адаптация манги, 2012
<a href="viewtopic.php?t=4555978" class="postLink">Magi: The Kingdom of Magic - ТВ (25 эп.)</a>, продолжение, 2013
<a href="viewtopic.php?t=4861274" class="postLink">Magi: Sinbad no Bouken - OVA (5 эп.)</a>, адаптация манги, 2014
Magi: Sinbad no Bouken - TV, адаптация манги, 2016 - эта раздача
<a href="viewtopic.php?t=5218834" class="postLink">...5218834</a> - Наличие озвучки
<a href="viewtopic.php?t=5218301" class="postLink">...5218301</a> - Альтернативная озвучка
<a href="viewtopic.php?t=1474434" class="postLink"> </a>

Трекер:  [ 27-Авг-2016 11:30 ]

  

Скачать .torrent

Размер .torrent файла 19 KB


Размер: 3.6 GB
Хэш (hash) релиза: 14aecab14b9e8cf9b9376f1fd8dc8c5b92b77c97
Подписка на обновления:

Торренты, похожие на Маги: Приключения Синдбада Magi: Sinbad no Bouken скачать торрент

Форум Название Автор Размер S L Добавлен
Аниме | HD Rips ·· Маги: Приключения Синдбада / Magi: Sinbad no Bouken (Мияо Ёсикадзу) [TV] [13 из 13] [Без хардсаба] [RUS(ext), JAP+SUB] [2016, приключения, комедия, фэнтези, сёнэн, HDTVRip] [720p] Galfimbul 68456118706.38 GB 0 0 1484412239

19:43

14-Янв-17

Аниме | HD Rips ·· Маги: Приключения Синдбада / Magi: Sinbad no Bouken [TV] [01-09 из 13] [Без хардсаба] [RUS(int), JAP+SUB] [2016 г. приключения, комедия, фэнтези, сёнэн, HDTVRip] [720p] Galfimbul 48548517724.52 GB 0 0 1474022091

13:34

16-Сен-16

Аниме | HD Rips ·· Маги: Приключения Синдбада / Magi: Sinbad no Bouken [TV] [10 из 13] [Без хардсаба] [JAP+SUB] [2016 г. приключения, комедия, фэнтези, сёнэн, HDTVRip] [720p] Galfimbul 50417462644.7 GB 0 0 1473535790

22:29

10-Сен-16

Аниме | HD Rips ·· Маги: Приключения Синдбада / Magi: Sinbad no Bouken [TV] [8 из 13] [Без хардсаба] [JAP+SUB] [2016 г. приключения, комедия, фэнтези, сёнэн, HDTVRip] [720p] Galfimbul 40832856723.8 GB 0 0 1471455025

20:30

17-Авг-16

Аниме | Rips ·· Маги: Приключение Синдбада / Magi: Sinbad no Bouken [TV] [02 из 13] [Без хардсаба] [RUS(int)] [2016 г., приключения, фэнтези, HDTVRip] [720p] Galfimbul 1000869982955 MB 0 0 1465170978

02:56

6-Июн-16

Аниме | HD Rips ·· Маги: Приключения Синдбада / Magi: Sinbad no Bouken [TV] [01-06 из 13] [Без хардсаба] [RUS(int), JAP+SUB] [2016 г. приключения, комедия, фэнтези, сёнэн, HDTVRip] [720p] Galfimbul 33924587963.16 GB 0 0 1464165235

11:33

25-Май-16

Аниме | HD Rips ·· Маги: Приключения Синдбада / Magi: Sinbad no Bouken [TV] [01-05 из 13] [Без хардсаба] [RUS(int), JAP+SUB] [2016 г. приключения, комедия, фэнтези, сёнэн, HDTVRip] [720p] Galfimbul 27880426482.6 GB 0 0 1464002882

14:28

23-Май-16

Аниме | HD Rips ·· Маги: Приключения Синдбада / Magi: Sinbad no Bouken [TV] [6 из 13] [Без хардсаба] [JAP+SUB] [2016 г. приключения, комедия, фэнтези, сёнэн, HDTVRip] [720p] Galfimbul 31809310392.96 GB 0 0 1463839769

17:09

21-Май-16

Аниме | HD Rips ·· Маги: Приключения Синдбада / Magi: Sinbad no Bouken [TV] [5 из 13] [Без хардсаба] [JAP+SUB] [2016 г. приключения, комедия, фэнтези, сёнэн, HDTVRip] [720p] Galfimbul 26118736242.43 GB 0 0 1463234657

17:04

14-Май-16

Аниме | HD Rips ·· Маги: Приключения Синдбада / Magi: Sinbad no Bouken [TV] [01-04 из 13] [Без хардсаба] [RUS(int), JAP+SUB] [2016 г. приключения, комедия, фэнтези, сёнэн, HDTVRip] [720p] Galfimbul 22010988362.05 GB 0 0 1462872889

12:34

10-Май-16

Аниме | HD Rips ·· Маги: Приключения Синдбада / Magi: Sinbad no Bouken [TV] [4 из 13] [Без хардсаба] [JAP+SUB] [2016 г. приключения, комедия, фэнтези, сёнэн, HDTVRip] [720p] Galfimbul 20596642261.92 GB 0 0 1462635345

18:35

7-Май-16

Аниме | HD Rips ·· Маги: Приключения Синдбада / Magi: Sinbad no Bouken [TV] [3 из 13] [Без хардсаба] [JAP+SUB] [2016 г. приключения, комедия, фэнтези, сёнэн, HDTVRip] [720p] Galfimbul 15489560991.44 GB 0 0 1462198361

17:12

2-Май-16

Аниме | Rips ·· Маги: Приключения Синдбада / Magi: Sinbad no Bouken [OVA] [Без хардсаба] [3 из 4] [JAP+SUB, RUS(ext)] [2014 г. приключения, комедия, фэнтези, сёнэн, DVDRip] Galfimbul 12100092891.13 GB 0 0 1422042635

22:50

23-Янв-15

Аниме | Rips ·· Маги: Приключения Синдбада / Magi: Sinbad no Bouken [OVA] [2 из 3] [Без хардсаба] [JAP] [2014 г. приключения, комедия, фэнтези, сёнэн, DVDRip] Galfimbul 740725119706 MB 0 0 1410481809

03:30

12-Сен-14

Еще никто не оставлял запись к записи скачать торрент Маги: Приключения Синдбада Magi: Sinbad no Bouken . Будь первым!

!Обратная связь