Скачать через торрент музыку Хористы Les Choristes бесплатно без регистрации torrent

Если у вас наблюдаются проблемы со скриншотами, переходом по ссылками, скачиванием торрентов - проблемы в блокировщике рекламы AdBlock. #хорошегоДня!


Статистика раздачи
Размер:  322 MB   |    Зарегистрирован:  1 год 3 месяца   |    .torrent скачан:  41 раз   |   
Раздают:  1  
   
Загрузка...
 
Автор Сообщение

Galfimbul

avatar Galfimbul


Хористы / Les Choristes

Жанр: Soundtrack
Композитор: Bruno Coulais
Год выпуска диска: 2004
Год выпуска фильма: 2004
Страна-производитель диска: EU
Издатель (лейбл): Marc Music
Номер по каталогу: 2564620212

Аудиокодек: FLAC (*.flac)
Тип рипа: image+.cue
Битрейт аудио: lossless
Продолжительность: 00:50:12

Источник: собственный рип
Наличие сканов в содержимом раздачи: да

Choir – Les Petits Chanteurs De Saint-Marc
Directed By – Bruno Coulais
Orchestra – Bulgarian Symphony Orchestra

01. Les choristes (1:32)
02. In memoriam (3:25)
03. L'arrivee a l'ecole (1:33)
04. Pepinot (1:51)
05. Vois sur ton chemin (2:20)
06. Les partitions (1:03)
07. Caresse sur l'ocean (2:10)
08. Lueur d'ete (2:02)
09. Cerf-volant (0:58)
10. Sous la pluie (1:05)
11. Compere Guilleri (0:36)
12. La desillusion (1:23)
13. La Nuit (2:21)
14. L'incendie (1:23)
15. L'evocation (1:45)
16. Les avions en papier (1:29)
17. Action Reaction (1:45)
18. Seuls (1:54)
19. Morhange (1:57)
20. In memoriam a cappella (3:19)
21. Nous sommes de fond de l'etang (2:49)
22. Vois sur ton chemin - BONUS (2:19)
23. In memoriam - BONUS (3:26)
24. Caresse sur l'ocean - BONUS (2:11)
25. Lueur d'ete - BONUS (2:03)
26. Cerf-volant - BONUS (1:33)
Exact Audio Copy V1.0 beta 3 from 29. August 2011

Отчёт EAC об извлечении, выполненном 11. августа 2016, 23:33

Bruno Coulais / Les choristes - éd. limitée

Дисковод: Optiarc DVD RW AD-7280S Adapter: 2 ID: 0

Режим чтения : ДостоверностьИспользование точного потока : ДаОтключение кэша аудио : ДаИспользование указателей C2 : Нет

Коррекция смещения при чтении : 48Способность читать области Lead-in и Lead-out : НетЗаполнение пропущенных сэмплов тишиной : ДаУдаление блоков с тишиной в начале и конце : НетПри вычислениях CRC использовались нулевые сэмплы : ДаИнтерфейс : Встроенный Win32-интерфейс для Win NT/2000

Выходной формат : Пользовательский кодировщикВыбранный битрейт : 128 kBit/sКачество : ВысокийДобавление ID3-тега : НетУтилита сжатия : C:\Program Files\Exact Audio Copy\Flac\flac.exeДополнительные параметры : -V -8 -T "Date=%year%" -T "Genre=%genre%" %source%

TOC извлечённого CD

Трек | Старт | Длительность | Начальный сектор | Конечный сектор --------------------------------------------------------------------- 1 | 0:00.00 | 1:32.22 | 0 | 6921 2 | 1:32.22 | 3:25.33 | 6922 | 22329 3 | 4:57.55 | 1:32.68 | 22330 | 29297 4 | 6:30.48 | 1:50.38 | 29298 | 37585 5 | 8:21.11 | 2:19.58 | 37586 | 48068 6 | 10:40.69 | 1:03.26 | 48069 | 52819 7 | 11:44.20 | 2:10.07 | 52820 | 62576 8 | 13:54.27 | 2:02.26 | 62577 | 71752 9 | 15:56.53 | 0:58.13 | 71753 | 76115 10 | 16:54.66 | 1:05.08 | 76116 | 80998 11 | 17:59.74 | 0:35.45 | 80999 | 83668 12 | 18:35.44 | 1:22.47 | 83669 | 89865 13 | 19:58.16 | 2:20.74 | 89866 | 100439 14 | 22:19.15 | 1:23.27 | 100440 | 106691 15 | 23:42.42 | 1:45.01 | 106692 | 114567 16 | 25:27.43 | 1:28.70 | 114568 | 121237 17 | 26:56.38 | 1:45.02 | 121238 | 129114 18 | 28:41.40 | 1:53.48 | 129115 | 137637 19 | 30:35.13 | 1:57.23 | 137638 | 146435 20 | 32:32.36 | 3:19.18 | 146436 | 161378 21 | 35:51.54 | 2:49.00 | 161379 | 174053 22 | 38:40.54 | 2:18.66 | 174054 | 184469 23 | 40:59.45 | 3:25.57 | 184470 | 199901 24 | 44:25.27 | 2:10.49 | 199902 | 209700 25 | 46:36.01 | 2:03.28 | 209701 | 218953 26 | 48:39.29 | 1:32.65 | 218954 | 225918

Характеристики диапазона извлечения и сообщения об ошибках

Выбранный диапазон

Имя файла C:\Documents and Settings\biotox\Рабочий стол\Новая папка (3)\Bruno Coulais - Les choristes - éd. limitée.wav

Пиковый уровень 100.0 % Скорость извлечения 3.8 X Качество диапазона 99.9 % CRC теста 304A4A6F CRC копии 304A4A6F Копирование... OK

Ошибок не произошло

AccurateRip: сводка

Трек 1 : извлечено точно (доверие 12) [5A42ACF0] (AR v2)Трек 2 : извлечено точно (доверие 13) [263FD4D6] (AR v2)Трек 3 : извлечено точно (доверие 13) [95687B82] (AR v2)Трек 4 : извлечено точно (доверие 13) [5F284DAB] (AR v2)Трек 5 : извлечено точно (доверие 13) [E9FDBF3D] (AR v2)Трек 6 : извлечено точно (доверие 13) [36941142] (AR v2)Трек 7 : извлечено точно (доверие 13) [43D7452D] (AR v2)Трек 8 : извлечено точно (доверие 13) [59288B82] (AR v2)Трек 9 : извлечено точно (доверие 13) [76C97A17] (AR v2)Трек 10 : извлечено точно (доверие 13) [9B60937D] (AR v2)Трек 11 : извлечено точно (доверие 13) [9DADB4A1] (AR v2)Трек 12 : извлечено точно (доверие 13) [F2CAD255] (AR v2)Трек 13 : извлечено точно (доверие 13) [B824E2A9] (AR v2)Трек 14 : извлечено точно (доверие 13) [F696CF7D] (AR v2)Трек 15 : извлечено точно (доверие 13) [8E943F72] (AR v2)Трек 16 : извлечено точно (доверие 13) [1F1A1BCA] (AR v2)Трек 17 : извлечено точно (доверие 13) [8CEF936E] (AR v2)Трек 18 : извлечено точно (доверие 13) [66328E41] (AR v2)Трек 19 : извлечено точно (доверие 13) [13A4B284] (AR v2)Трек 20 : извлечено точно (доверие 13) [279AB41C] (AR v2)Трек 21 : извлечено точно (доверие 13) [15F9DC8E] (AR v2)Трек 22 : извлечено точно (доверие 13) [C6DB26F0] (AR v2)Трек 23 : извлечено точно (доверие 13) [625B3C56] (AR v2)Трек 24 : извлечено точно (доверие 13) [863FFE0C] (AR v2)Трек 25 : извлечено точно (доверие 13) [5A33F5F0] (AR v2)Трек 26 : извлечено точно (доверие 13) [8EC54EAA] (AR v2)

Все треки извлечены точно

Конец отчёта

==== Контрольная сумма отчёта CE9EBFBB2832F1EA3480B76CB2F975EFB70C3A273F4C342A0493CDCA115DF9F0 ====
foobar2000 1.2.9 / Замер динамического диапазона (DR) 1.1.1Дата отчёта: 2016-08-29 16:50:37

--------------------------------------------------------------------------------Анализ: Les Petits Chanteurs de Saint-Marc / Les choristes--------------------------------------------------------------------------------

DR Пики RMS Продолжительность трека--------------------------------------------------------------------------------DR9 -1.44 дБ -17.35 дБ 1:32 01-Les choristesDR9 -0.82 дБ -14.56 дБ 3:25 02-In memoriamDR11 -1.97 дБ -17.48 дБ 1:33 03-L'arrivee a l'ecoleDR10 -2.03 дБ -18.45 дБ 1:51 04-PepinotDR10 -0.69 дБ -15.83 дБ 2:20 05-Vois sur ton cheminDR10 -1.48 дБ -14.65 дБ 1:03 06-Les partitionsDR10 -1.05 дБ -15.29 дБ 2:10 07-Caresse sur l'oceanDR9 -0.47 дБ -14.24 дБ 2:02 08-Lueur d'eteDR9 -0.14 дБ -14.04 дБ 0:58 09-Cerf-volantDR8 -2.75 дБ -16.36 дБ 1:05 10-Sous la pluieDR12 -0.28 дБ -17.21 дБ 0:36 11-Compere GuilleriDR9 -3.17 дБ -16.46 дБ 1:23 12-La desillusionDR10 -0.50 дБ -16.70 дБ 2:21 13-La NuitDR10 0.00 дБ -15.23 дБ 1:23 14-L'incendieDR9 -2.15 дБ -16.11 дБ 1:45 15-L'evocationDR11 0.00 дБ -15.40 дБ 1:29 16-Les avions en papierDR9 -2.32 дБ -15.89 дБ 1:45 17-Action ReactionDR10 -2.21 дБ -16.06 дБ 1:54 18-SeulsDR8 -2.80 дБ -15.84 дБ 1:57 19-MorhangeDR10 -0.34 дБ -15.17 дБ 3:19 20-In memoriam a cappellaDR15 -1.70 дБ -22.32 дБ 2:49 21-Nous sommes de fond de l'etangDR10 -0.64 дБ -15.45 дБ 2:19 22-Vois sur ton chemin - BONUSDR11 -1.98 дБ -18.95 дБ 3:26 23-In memoriam - BONUSDR10 -0.36 дБ -16.99 дБ 2:11 24-Caresse sur l'ocean - BONUSDR11 -0.13 дБ -17.11 дБ 2:03 25-Lueur d'ete - BONUSDR10 -0.52 дБ -14.86 дБ 1:33 26-Cerf-volant - BONUS--------------------------------------------------------------------------------

Количество треков: 26Реальные значения DR: DR10

Частота: 44100 ГцКаналов: 2Разрядность: 16Битрейт: 656 кбит/сКодек: FLAC================================================================================


Трекер:  [ 29-Авг-2016 16:30 ]

  

Скачать .torrent

Размер .torrent файла 14 KB


Размер: 322 MB
Хэш (hash) релиза: fb085873a4a710ccda168d2c4b08281160c2ba47

Торренты, похожие на Хористы Les Choristes скачать торрент

Форум Название Автор Размер S L Добавлен
Саундтреки к фильмам и мультфильмам (lossless) ·· (Score) Les Choristes / Хористы, Bruno Coulais - 2004, WAVPack (image+.cue), lossless Galfimbul 211405508202 MB 2 0 1292268650

22:30

13-Дек-10

Саундтреки к фильмам и мультфильмам (mp3) ·· (Score) Les Choristes / The Chorus / Хористы (Bruno Coulais) - 2004, MP3 (tracks), 256 kbps Galfimbul 7470122771 MB 0 0 1292265075

21:31

13-Дек-10

Еще никто не оставлял запись к записи скачать торрент Хористы Les Choristes . Будь первым!

!Обратная связь