Скачать через торрент Прославленный: Фальшивая маска Utawarerumono: Itsuwari no Kamen бесплатно Аниме Все серии на русском torrent

Если у вас наблюдаются проблемы со скриншотами, переходом по ссылками, скачиванием торрентов - проблемы в блокировщике рекламы AdBlock. #хорошегоДня!


Статистика раздачи
Размер:  8.32 GB   |    Зарегистрирован:  1 год 3 месяца   |    .torrent скачан:  25 раз   |   
Раздают:  1  
   
Загрузка...
 
Автор Сообщение

Galfimbul

avatar Galfimbul


Прославленный: Фальшивая маска / Utawarerumono: Itsuwari no Kamen
うたわれるもの 偽りの仮面
Страна: <span class="post-font-cursive1">Япония</span>
Год выпуска: <span class="post-font-cursive1">c 04.10.2015 по 27.03.2016</span>
Жанр: <span class="post-font-cursive1">Приключения, фэнтези</span>
Тип: <span class="post-font-cursive1">TV</span>
Продолжительность: <span class="post-font-cursive1">25 эп. по 25 мин</span>
Студия:
Режиссер: <span class="post-font-cursive1">Мотонага Кэйтаро</span>
Сценарий: <span class="post-font-cursive1">Коно Такамицу</span>

Описание: <span class="post-font-cursive1">Молодая знахарка Куон росла без родителей. Отца она никогда не знала, а мать умерла вскоре после её рождения. Воспитанием девушки занимались старые подруги матери и дядя.
Когда выросла, Куон отправилась повидать мир. И судьба занесла её за море, в страну Ямато. Там, в горах, она встретила загадочного незнакомца, который не помнил о своём прошлом, и назвала его Хаку в честь легендарного героя своей Родины.
С этой странной встречи началась новая глава в истории мира Прославленного...
<span class="post-font-cursive1">World-Art</span>
Качество: <span class="post-font-cursive1">BDRip [Ohys-Raws]</span>

Тип релиза: <span class="post-font-cursive1">Без хардсаба</span>

Формат видео: <span class="post-font-cursive1">MKV</span></span>
<div style="margin-left: 2em" class="post-ul">Видео: <span class="post-font-cursive1">x264 (8 bits), 1280x720, 23.976 fps, 1653 Kbps</span>
Аудио: <span class="post-font-cursive1">японский, AAC, 2 канала, 48 КГц, 204 Кбит/сек
Субтитры:</span>
<div style="margin-left: 2em" class="post-ul">(Russian): ASS, внешние Timecraft

Редактор: AleX_MytH
Редактор: Koushin
Переводчик/Тайм-код/Перевод песен/Оформление: Nachtwandler
<span class="post-font-cursive1">ОбщееПолное имя : D:\[Ohys-Raws] Utawarerumono Itsuwari no Kamen (BD 1280x720 x264 AAC)\Utawarerumono Itsuwari no Kamen - 01 (BD 1280x720 x264 AAC).mp4Формат : MPEG-4Профиль формата : Base MediaИдентификатор кодека : isomРазмер файла : 336 МбайтПродолжительность : 25 м.Режим общего битрейта : ПеременныйОбщий поток : 1861 Кбит/секДата кодирования : UTC 2016-08-26 04:34:38Дата пометки : UTC 2016-08-26 04:34:38

ВидеоИдентификатор : 1Формат : AVCФормат/Информация : Advanced Video CodecПрофиль формата : Main@L4.1Параметр CABAC формата : ДаПараметр ReFrames формата : 4 кадраИдентификатор кодека : avc1Идентификатор кодека/Информация : Advanced Video CodingПродолжительность : 25 м.Битрейт : 1653 Кбит/секМаксимальный битрейт : 9420 Кбит/секШирина : 1280 пикселейВысота : 720 пикселейСоотношение сторон : 16:9Режим частоты кадров : ПостоянныйЧастота кадров : 23,976 кадра/секЦветовое пространство : YUVСубдискретизация насыщенности : 4:2:0Битовая глубина : 8 битТип развёртки : ПрогрессивнаяБит/(Пиксели*Кадры) : 0.075Размер потока : 298 Мбайт (89%)Библиотека кодирования : x264 core 148 r2705 3f5ed56Настройки программы : cabac=1 / ref=3 / deblock=1:0:0 / analyse=0x1:0x131 / me=umh / subme=9 / psy=1 / psy_rd=1.00:0.00 / mixed_ref=1 / me_range=32 / chroma_me=1 / trellis=1 / 8x8dct=0 / cqm=0 / deadzone=21,11 / fast_pskip=1 / chroma_qp_offset=-2 / threads=12 / lookahead_threads=1 / sliced_threads=0 / nr=0 / decimate=1 / interlaced=0 / bluray_compat=0 / constrained_intra=0 / bframes=3 / b_pyramid=2 / b_adapt=1 / b_bias=0 / direct=1 / weightb=1 / open_gop=0 / weightp=2 / keyint=240 / keyint_min=1 / scenecut=40 / intra_refresh=0 / rc_lookahead=40 / rc=crf / mbtree=1 / crf=17.0 / qcomp=0.60 / qpmin=0 / qpmax=69 / qpstep=4 / ip_ratio=1.40 / aq=1:1.00Дата кодирования : UTC 2016-08-26 04:34:38Дата пометки : UTC 2016-08-26 04:34:43

АудиоИдентификатор : 2Формат : AACФормат/Информация : Advanced Audio CodecПрофиль формата : LCИдентификатор кодека : 40Продолжительность : 25 м.Вид битрейта : ПеременныйБитрейт : 204 Кбит/секМаксимальный битрейт : 289 Кбит/секКаналы : 2 каналаРасположение каналов : Front: L RЧастота : 48,0 КГцМетод сжатия : С потерямиРазмер потока : 36,7 Мбайт (11%)Язык : JapaneseДата кодирования : UTC 2016-08-26 04:13:14Дата пометки : UTC 2016-08-26 04:34:43</span>
01. Проклятый
02. Праведник
03. Путь в столицу
04. Столица
05. Морская разбойница
06. Трактирщица
07. Юная принцесса
08. Столичные расследования
09. Посланники из страны спящего бога
10. Любовь
11. Рискованная игра принцессы
12. Жрицы цепей
13. Восемь наместников
14. Мастер меча
15. Маски
16. Пир
17. Последствия
18. Вторжение
19. Меж двух огней
20. Воин
21. Смерть императора
22. Спасение
23. Побег
24. Бремя правителя
25. Перенявший
Отличия:

<span class="post-font-cursive1"><a href="viewtopic.php?t=5190777" class="postLink">...5190777</a> - Hit0kiri BDRip</span>
</div>
</div>

Трекер:  [ 01-Сен-2016 10:30 ]

  

Скачать .torrent

Размер .torrent файла 26 KB


Размер: 8.32 GB
Хэш (hash) релиза: c43a87b7c8df0f3b86e46455e393ca792580e36b
Подписка на обновления:

Торренты, похожие на Прославленный: Фальшивая маска Utawarerumono: Itsuwari no Kamen скачать торрент

Форум Название Автор Размер S L Добавлен
Аниме | Rips ·· Прославленный: Фальшивая Маска / Utawarerumono: Itsuwari no Kamen / Utawarerumono: The False Faces [TV] [01 из 25] [Без хардсаба] [RUS(int)] [2015 г., боевик, фэнтези, сёнен, HDTVRip] Galfimbul 266970319255 MB 0 0 1446764669

02:04

6-Ноя-15

Аниме | HD Rips ·· Прославленный: Фальшивая маска / Utawarerumono: Itsuwari no Kamen (Мотонага Кэйтаро) [TV] [24 из 25] [Без хардсаба] [JAP+SUB] [2015 г., приключения, фэнтези, WEBRip] [720p] Galfimbul 81242573977.57 GB 0 0 1458853185

23:59

24-Мар-16

Аниме | HD Rips ·· Прославленный: Фальшивая маска / Utawarerumono: Itsuwari no Kamen (Мотонага Кэйтаро) [TV] [2 из 25] [Без хардсаба] [JAP+SUB] [2015 г., приключения, фентези, WEBRip] [720p] Galfimbul 677869805646 MB 0 0 1444859067

00:44

15-Окт-15

Аниме | HD Rips ·· Прославленный (ТВ-2): Фальшивая маска / Utawarerumono: Itsuwari no Kamen (Мотонага Кэйтаро) [TV] [25 из 25] [без хардсаба] [RUS(ext), JAP+SUB] [2015, фэнтези, BDRemux] [1080p] Galfimbul 175705850659163.64 GB 0 0 1512243075

22:31

2-Дек-17

Аниме | HD Rips ·· Прославленный (ТВ-2): Фальшивая маска / Utawarerumono: Itsuwari no Kamen (Мотонага Кэйтаро) [TV] [25 из 25] [без хардсаба] [RUS(ext), JAP+SUB] [2015, фэнтези, BDRip] [720p] Galfimbul 1461279158913.61 GB 0 0 1493753472

22:31

2-Май-17

Аниме | Rips ·· Прославленный: Фальшивая маска (ТВ-2) / Utawarerumono: Itsuwari No Kamen / Тот, кому мы возносим хвалу [TV] [25 из 25] [Без хардсаба] [RUS(ext), JAP, SUB] [2015, приключения, фэнтези, BDRip] [1080p] Galfimbul 2735948117125.48 GB 0 0 1477719049

08:30

29-Окт-16

Аниме | Rips ·· Прославленный: Фальшивая маска (ТВ-2) / Utawarerumono: Itsuwari No Kamen / Тот, кому мы возносим хвалу [TV] [25 из 25] [Без хардсаба] [RUS(ext), JAP, SUB] [2015 г., приключения, фэнтези, BDRip] [1080p] Galfimbul 2735948992625.48 GB 0 0 1475727853

07:24

6-Окт-16

Аниме | Rips ·· Прославленный: Фальшивая маска (ТВ-2) / Utawarerumono: Itsuwari No Kamen / Тот, кому мы возносим хвалу [TV] [1-12 из 25] [Без хардсаба] [RUS(ext), JAP, SUB] [2015 г., приключения, фэнтези, BDRip] [1080p] Galfimbul 1279795858911.92 GB 0 0 1466652304

06:25

23-Июн-16

Аниме | Rips ·· Прославленный: Фальшивая маска (ТВ-2) / Utawarerumono: Itsuwari No Kamen / Тот, кому мы возносим хвалу [TV] [1-12 из 25] [Без хардсаба] [RUS(ext), JAP, SUB] [2015 г., приключения, фэнтези, BDRip] [1080p] Galfimbul 49279530434.59 GB 0 0 1460581744

00:09

14-Апр-16

Еще никто не оставлял запись к записи скачать торрент Прославленный: Фальшивая маска Utawarerumono: Itsuwari no Kamen . Будь первым!

!Обратная связь