Скачать через торрент Это сейю! Sore ga Seiyuu! бесплатно Аниме Все серии на русском torrent

Если у вас наблюдаются проблемы со скриншотами, переходом по ссылками, скачиванием торрентов - проблемы в блокировщике рекламы AdBlock. #хорошегоДня!


Статистика раздачи
Размер:  3.08 GB   |    Зарегистрирован:  1 год 3 месяца   |    .torrent скачан:  11 раз   |   
Раздают:  1  
   
Загрузка...
 
Автор Сообщение

Galfimbul

avatar Galfimbul


Это сейю! / Sore ga Seiyuu!

Страна: Япония
Год выпуска: 2015 г.
Жанр: комедия
Тип: TV
Продолжительность: 13 эп, ~25мин. серия
Режиссер: Икэхата Хироси
Студия:

Описание: В Японии профессия сэйю считается очень популярной, и каждый год множество людей заканчивают специальные школы, чтобы в будущем работать в сфере озвучивания. Такими же выпускниками и являются три подруги Футаба, Ичиго и Рин, которые, как и все актрисы, мечтают о заветной славе. Однако путь на вершину карьеры окажется далеко не таким простым, как казалось сначала. Ведь, даже несмотря на то, что работа сэйю не самая опасная, страсти там кипят далеко нешуточные.

Качество: BDRip
Тип релиза: Без хардсаба
Формат видео: MP4
Наличие линковки: Нет
Релиз/Автор рипа: Ohys-Raws
Видео: AVC, 1280x720, 2122kbps, 23,976fps, 8bit
Аудио: AAC, 203kbps, 48,0Hz, 2ch Язык Японский
Аудио 2: AAC, 202kbps, 48,0Hz, 2ch Язык Японский (Разговор на фоне видео)
Субтитры: ASS, Внешние Язык субтитров русский ; Перевод: Jerry, Ctepka
ОбщееПолное имя : G:\Раздачи\Sore ga Seiyuu!\Sore ga Seiyuu! - 01 (BD 1280x720 x264 AACx2).mp4Формат : MPEG-4Профиль формата : Base MediaИдентификатор кодека : isom (isom/avc1)Размер файла : 429 МбайтПродолжительность : 23 м.Режим общего битрейта : ПеременныйОбщий поток : 2533 Кбит/секДата кодирования : UTC 2015-11-17 14:12:06Дата пометки : UTC 2015-11-17 14:12:06

ВидеоИдентификатор : 1Формат : AVCФормат/Информация : Advanced Video CodecПрофиль формата : Main@L4.1Параметр CABAC формата : ДаПараметр ReFrames формата : 4 кадраИдентификатор кодека : avc1Идентификатор кодека/Информация : Advanced Video CodingПродолжительность : 23 м.Битрейт : 2122 Кбит/секМаксимальный битрейт : 13,6 Мбит/секШирина : 1280 пикселейВысота : 720 пикселейСоотношение сторон : 16:9Режим частоты кадров : ПостоянныйЧастота кадров : 23,976 (24000/1001) кадра/секЦветовое пространство : YUVСубдискретизация насыщенности : 4:2:0Битовая глубина : 8 битТип развёртки : ПрогрессивнаяБит/(Пиксели*Кадры) : 0.096Размер потока : 360 Мбайт (84%)Библиотека кодирования : x264 core 148 r2638 7599210Настройки программы : cabac=1 / ref=3 / deblock=1:0:0 / analyse=0x1:0x131 / me=umh / subme=9 / psy=1 / psy_rd=1.00:0.00 / mixed_ref=1 / me_range=32 / chroma_me=1 / trellis=1 / 8x8dct=0 / cqm=0 / deadzone=21,11 / fast_pskip=1 / chroma_qp_offset=-2 / threads=12 / lookahead_threads=1 / sliced_threads=0 / nr=0 / decimate=1 / interlaced=0 / bluray_compat=0 / constrained_intra=0 / bframes=3 / b_pyramid=2 / b_adapt=1 / b_bias=0 / direct=1 / weightb=1 / open_gop=0 / weightp=2 / keyint=240 / keyint_min=1 / scenecut=40 / intra_refresh=0 / rc_lookahead=40 / rc=crf / mbtree=1 / crf=17.0 / qcomp=0.60 / qpmin=0 / qpmax=69 / qpstep=4 / ip_ratio=1.40 / aq=1:1.00Дата кодирования : UTC 2015-11-17 14:12:06Дата пометки : UTC 2015-11-17 14:12:08

Аудио #1Идентификатор : 2Формат : AACФормат/Информация : Advanced Audio CodecПрофиль формата : LCИдентификатор кодека : 40Продолжительность : 23 м.Вид битрейта : ПеременныйБитрейт : 203 Кбит/секМаксимальный битрейт : 252 Кбит/секКаналы : 2 каналаРасположение каналов : Front: L RЧастота : 48,0 КГцЧастота кадров : 46,875 кадров/сек (1024 spf)Метод сжатия : С потерямиРазмер потока : 34,4 Мбайт (8%)Язык : JapaneseДата кодирования : UTC 2015-11-17 14:08:24Дата пометки : UTC 2015-11-17 14:12:08

Аудио #2Идентификатор : 3Формат : AACФормат/Информация : Advanced Audio CodecПрофиль формата : LCИдентификатор кодека : 40Продолжительность : 23 м.Вид битрейта : ПеременныйБитрейт : 202 Кбит/секМаксимальный битрейт : 239 Кбит/секКаналы : 2 каналаРасположение каналов : Front: L RЧастота : 48,0 КГцЧастота кадров : 46,875 кадров/сек (1024 spf)Метод сжатия : С потерямиРазмер потока : 34,3 Мбайт (8%)Язык : JapaneseДата кодирования : UTC 2015-11-17 14:09:49Дата пометки : UTC 2015-11-17 14:12:08
01. Запись
02. Прослушивание
03. Интернет радио
04. Группа
05. Презентация
06. Запись музыкального клипа
07. Озвучка
08. Телепередача
09. Менеджер
10. Будущие планы
11. Помоги себе сам
12. Концерт
13. Собеседование
<a href="viewtopic.php?t=5049274" class="postLink">...5049274</a> - BDRip


Трекер:  [ 01-Сен-2016 14:30 ]

  

Скачать .torrent

Размер .torrent файла 17 KB


Размер: 3.08 GB
Хэш (hash) релиза: 329dfef0a97a9f680586b99a1872c0be5309b00a
Подписка на обновления:

Торренты, похожие на Это сейю! Sore ga Seiyuu! скачать торрент

Форум Название Автор Размер S L Добавлен
Аниме | HD Rips ·· Это сейю! / Sore ga Seiyuu! [TV+Special] [13+1 из 13+1] [Без хардсаба] [JAP, SUB] [2015, комедия, BDRemux] [1080p] Galfimbul 109376078789101.86 GB 0 0 1477963601

04:26

1-Ноя-16

Аниме | HD Rips ·· Это сейю! / Sore ga Seiyuu! [TV] [13 из 13] [Без хардсаба] [JAP, SUB] [2015 г., комедия, BDRip] [720p] Galfimbul 52153347444.86 GB 0 0 1475175802

22:03

29-Сен-16

Аниме | HD Rips ·· Это сейю! / Sore ga Seiyuu! [TV] [10 из 13] [Без хардсаба] [JAP, SUB] [2015 г., комедия, BDRip] [720p] Galfimbul 40690434823.79 GB 0 0 1473414761

12:52

9-Сен-16

Аниме | HD Rips ·· Это сейю! / Sore ga Seiyuu! [TV] [7 из 13] [Без хардсаба] [JAP, SUB] [2015 г., комедия, BDRip] [720p] Galfimbul 28872235272.69 GB 0 0 1472331659

00:00

28-Авг-16

Аниме | HD Rips ·· Это сейю! / Sore ga Seiyuu! [TV] [6 из 13] [Без хардсаба] [JAP, SUB] [2015 г., комедия, BDRip] [720p] Galfimbul 24640946452.29 GB 0 0 1471972001

20:06

23-Авг-16

Аниме | HD Rips ·· Это сейю! / Sore ga Seiyuu! [TV] [5 из 13] [Без хардсаба] [JAP, SUB] [2015 г., комедия, BDRip] [720p] Galfimbul 20881973971.94 GB 0 0 1471702503

17:15

20-Авг-16

Аниме | HD Rips ·· Это сейю! / Sore ga Seiyuu! [TV] [4 из 13] [Без хардсаба] [JAP, SUB] [2015 г., комедия, BDRip] [720p] Galfimbul 16696432911.55 GB 0 0 1471527017

16:30

18-Авг-16

Аниме | HD Rips ·· Это сейю! / Sore ga Seiyuu! [TV] [3 из 13] [Без хардсаба] [JAP, SUB] [2015 г., комедия, BDRip] [720p] Galfimbul 12698434101.18 GB 0 0 1471356312

17:05

16-Авг-16

Аниме | HD Rips ·· Это сейю! / Sore ga Seiyuu! [TV] [2 из 13] [Без хардсаба] [JAP, SUB] [2015 г., комедия, BDRip] [720p] Galfimbul 889608110848 MB 0 0 1471181140

16:25

14-Авг-16

Аниме | HD Rips ·· Это сейю! / Sore ga Seiyuu! [TV] [2 из 13] [Без хардсаба] [JAP, JAP, SUB] [2015 г., комедия, BDRip] [720p] Galfimbul 889217131848 MB 0 0 1471179281

15:54

14-Авг-16

Еще никто не оставлял запись к записи скачать торрент Это сейю! Sore ga Seiyuu! . Будь первым!

!Обратная связь