Sakasama no Patema torrent

, , - AdBlock. #!


46.19 GB   |    :  1 3    |    .torrent :  7    |   
1  
   
...
 

Galfimbul

avatar Galfimbul


/ Sakasama no Patema / Patema Inverted

:
: 2013 .
: ,
: Movie
: 100 .
:
: Purple Cow Studios Japan
: . , . , , . . . , . .

World Art

. : .
: Blu-ray
:
: M2TS
:
/ : <a href="profile.php?mode=viewprofile&u=35238799" class="postLink">Kuji Kita</a>
: AVC, 8 , 1920x1080, 30 257 kbps, 23.976 fps
: LPCM, 2 304 kbps, 48 kHz, 2 ch ( ) ; : ,
2: DTS-HD MA, 4 038 kbps, 48 kHz, 5.1 ch (DTS Core, 1 509 kbps, 48 kHz, 5.1 ch) ( ) ; : ,
3: LPCM, 2 304 kbps, 48 kHz, 2 ch
4: DTS-HD MA, 3 872 kbps, 48 kHz, 5.1 ch (DTS Core, 1 509 kbps, 48 kHz, 5.1 ch)
: pgs, (/) ; :
Disc Title: Sakasama no Patema (Blu-Ray)
Disc Size: 49590993400 bytes
Protection: AACS
BD-Java: No
BDInfo: 0.5.8

Notes:

BDINFO HOME:
Cinema Squid
http://www.cinemasquid.com/blu-ray/tools/bdinfo

INCLUDES FORUMS REPORT FOR:
AVS Forum Blu-ray Audio and Video Specifications Thread
http://www.avsforum.com/avs-vb/showthread.php?t=1155731

********************
PLAYLIST: 00000.MPLS
********************

<--- BEGIN FORUMS PASTE --->
Total Video
Title Codec Length Movie Size Disc Size Bitrate Bitrate Main Audio Track Secondary Audio Track
----- ------ ------- -------------- -------------- ------- ------- ------------------ ---------------------
00000.MPLS AVC 1:39:09 33642643008 49590993400 45,24 30,26 LPCM 2.0 2304Kbps (48kHz/24-bit) DTS-HD Master 5.1 4038Kbps (48kHz/24-bit)

DISC INFO:

Disc Title: Sakasama no Patema (Blu-Ray)
Disc Size: 49590993400 bytes
Protection: AACS
BD-Java: No
BDInfo: 0.5.8

PLAYLIST REPORT:

Name: 00000.MPLS
Length: 1:39:09.485 (h:m:s.ms)
Size: 33642643008 bytes
Total Bitrate: 45,24 Mbps

Angle 1 Length: 1:38:49.924 (h:m:s.ms) / 1:39:09.485 (h:m:s.ms)
Angle 1 Size: 14570365824 bytes / 14575229376 bytes
Angle 1 Total Bitrate: 19,66 Mbps / 19,60 Mbps

All Angles Length: 3:17:59.409 (h:m:s.ms)
All Angles Size: 48213008832 bytes
All Angles Bitrate: 32,47 Mbps

VIDEO:

Codec Bitrate Description
----- ------- -----------
MPEG-4 AVC Video 30257 kbps 1080p / 23,976 fps / 16:9 / High Profile 4.1
MPEG-4 AVC Video (1) 5680 (5699) kbps 1080p / 23,976 fps / 16:9 / High Profile 4.1

AUDIO:

Codec Language Bitrate Description
----- -------- ------- -----------
LPCM Audio Russian 2304 kbps 2.0 / 48 kHz / 2304 kbps / 24-bit
DTS-HD Master Audio Russian 4038 kbps 5.1 / 48 kHz / 4038 kbps / 24-bit (DTS Core: 5.1 / 48 kHz / 1152 kbps / 24-bit)
LPCM Audio Japanese 2304 kbps 2.0 / 48 kHz / 2304 kbps / 24-bit
DTS-HD Master Audio Japanese 3872 kbps 5.1 / 48 kHz / 3872 kbps / 24-bit (DTS Core: 5.1 / 48 kHz / 1509 kbps / 24-bit)

SUBTITLES:

Codec Language Bitrate Description
----- -------- ------- -----------
Presentation Graphics Russian 0,838 kbps
Presentation Graphics Russian 18,317 kbps

FILES:

Name Time In Length Size Total Bitrate
---- ------- ------ ---- -------------
00001.M2TS 0:00:00.000 1:38:49.924 33637779456 45380
00002.M2TS (1) 0:00:00.000 1:38:49.924 14570365824 19657
00009.M2TS 1:38:49.924 0:00:19.561 4863552 1998

CHAPTERS:

Number Time In Length Avg Video Rate Max 1-Sec Rate Max 1-Sec Time Max 5-Sec Rate Max 5-Sec Time Max 10Sec Rate Max 10Sec Time Avg Frame Size Max Frame Size Max Frame Time
------ ------- ------ -------------- -------------- -------------- -------------- -------------- -------------- -------------- -------------- -------------- --------------
1 0:00:00.000 0:07:46.883 29619 kbps 49898 kbps 00:04:35.024 36627 kbps 00:00:33.074 34501 kbps 00:05:28.703 154407 bytes 840072 bytes 00:06:06.741
2 0:07:46.883 0:05:24.657 29085 kbps 51364 kbps 00:10:06.147 36278 kbps 00:09:45.751 34187 kbps 00:12:46.098 151638 bytes 846060 bytes 00:07:48.843
3 0:13:11.540 0:08:19.248 31738 kbps 52226 kbps 00:16:44.461 36729 kbps 00:14:10.015 34680 kbps 00:14:03.926 165469 bytes 833116 bytes 00:17:21.415
4 0:21:30.789 0:04:21.761 30479 kbps 49780 kbps 00:21:50.726 36270 kbps 00:22:29.014 34147 kbps 00:22:53.413 158904 bytes 924394 bytes 00:21:53.603
5 0:25:52.551 0:06:09.327 31079 kbps 46976 kbps 00:28:13.566 36183 kbps 00:31:02.694 34368 kbps 00:28:59.112 162029 bytes 762051 bytes 00:30:12.519
6 0:32:01.878 0:05:07.306 31057 kbps 49618 kbps 00:35:17.740 36854 kbps 00:35:23.246 34665 kbps 00:36:19.427 161914 bytes 848028 bytes 00:36:01.409
7 0:37:09.185 0:07:05.341 29760 kbps 50291 kbps 00:43:30.774 35963 kbps 00:41:48.631 34762 kbps 00:42:05.856 155155 bytes 867790 bytes 00:41:11.635
8 0:44:14.526 0:08:00.229 31835 kbps 50188 kbps 00:45:02.366 35971 kbps 00:48:47.674 34392 kbps 00:45:01.240 165973 bytes 791011 bytes 00:44:17.363
9 0:52:14.756 0:04:40.196 29305 kbps 51551 kbps 00:55:57.228 36232 kbps 00:56:13.119 34505 kbps 00:56:13.119 152783 bytes 709440 bytes 00:55:25.864
10 0:56:54.953 0:06:56.624 31760 kbps 49856 kbps 01:01:36.192 36658 kbps 00:59:41.494 34387 kbps 00:58:47.815 165581 bytes 716351 bytes 01:00:10.064
11 1:03:51.577 0:07:09.595 31499 kbps 48398 kbps 01:08:07.833 36576 kbps 01:07:34.425 34350 kbps 01:10:01.572 164223 bytes 901753 bytes 01:06:48.045
12 1:11:01.173 0:08:02.899 31245 kbps 51002 kbps 01:17:21.178 36644 kbps 01:12:29.845 34198 kbps 01:18:22.155 162895 bytes 732599 bytes 01:11:21.902
13 1:19:04.072 0:05:59.025 30835 kbps 50184 kbps 01:21:04.860 36527 kbps 01:21:04.860 34678 kbps 01:23:59.451 160760 bytes 863932 bytes 01:24:05.498
14 1:25:03.098 0:07:36.664 29240 kbps 53808 kbps 01:31:23.811 36369 kbps 01:31:29.233 34797 kbps 01:29:51.135 152443 bytes 899490 bytes 01:25:30.291
15 1:32:39.762 0:02:59.804 31515 kbps 48008 kbps 01:34:23.032 36067 kbps 01:33:34.275 34163 kbps 01:34:54.355 164304 bytes 931786 bytes 01:33:21.137
16 1:35:39.567 0:03:08.438 19930 kbps 49673 kbps 01:36:16.937 36758 kbps 01:36:13.601 34273 kbps 01:35:40.484 103904 bytes 860904 bytes 01:36:20.316
17 1:38:48.005 0:00:01.918 2047 kbps 3486 kbps 01:38:48.005 0 kbps 00:00:00.000 0 kbps 00:00:00.000 11158 bytes 209884 bytes 01:38:48.047
18 1:38:49.924 0:00:19.561 1824 kbps 5506 kbps 01:38:59.975 2762 kbps 01:38:56.096 2224 kbps 01:38:58.265 9571 bytes 150355 bytes 01:38:51.759

STREAM DIAGNOSTICS:

File PID Type Codec Language Seconds Bitrate Bytes Packets
---- --- ---- ----- -------- -------------- -------------- ------------- -----
00001.M2TS 4113 (0x1011) 0x1B AVC 5929,799 30351 22496942733 122350543
00001.M2TS 4352 (0x1100) 0x80 LPCM rus (Russian) 5929,799 2310 1712562340 9487880
00001.M2TS 4353 (0x1101) 0x86 DTS-HD MA rus (Russian) 5929,799 4051 3003064260 17017321
00001.M2TS 4354 (0x1102) 0x80 LPCM jpn (Japanese) 5929,799 2310 1712562340 9487880
00001.M2TS 4355 (0x1103) 0x86 DTS-HD MA jpn (Japanese) 5929,799 3885 2879555584 16573028
00001.M2TS 4608 (0x1200) 0x90 PGS rus (Russian) 5929,799 1 623150 3540
00001.M2TS 4609 (0x1201) 0x90 PGS rus (Russian) 5929,799 18 13622343 78021
00002.M2TS (1) 4113 (0x1011) 0x1B AVC 5929,799 5699 4223908860 23041013
00002.M2TS (1) 4352 (0x1100) 0x80 LPCM rus (Russian) 5929,799 2310 1712562340 9487880
00002.M2TS (1) 4353 (0x1101) 0x86 DTS-HD MA rus (Russian) 5929,799 4051 3003064260 17017321
00002.M2TS (1) 4354 (0x1102) 0x80 LPCM jpn (Japanese) 5929,799 2310 1712562340 9487880
00002.M2TS (1) 4355 (0x1103) 0x86 DTS-HD MA jpn (Japanese) 5929,799 3885 2879555584 16573028
00002.M2TS (1) 4608 (0x1200) 0x90 PGS rus (Russian) 5929,799 1 623150 3540
00002.M2TS (1) 4609 (0x1201) 0x90 PGS rus (Russian) 5929,799 18 13622343 78021
00009.M2TS 4113 (0x1011) 0x1B AVC 19,478 1854 4512931 24689

<---- END FORUMS PASTE ---->

QUICK SUMMARY:

Disc Title: Sakasama no Patema (Blu-Ray)
Disc Size: 49590993400 bytes
Protection: AACS
BD-Java: No
Playlist: 00000.MPLS
Size: 33642643008 bytes
Length: 1:39:09.485
Total Bitrate: 45,24 Mbps
Video: MPEG-4 AVC Video / 30257 kbps / 1080p / 23,976 fps / 16:9 / High Profile 4.1
Video: MPEG-4 AVC Video (1) / 5680 (5699) kbps / 1080p / 23,976 fps / 16:9 / High Profile 4.1
Audio: Russian / LPCM Audio / 2.0 / 48 kHz / 2304 kbps / 24-bit
Audio: Russian / DTS-HD Master Audio / 5.1 / 48 kHz / 4038 kbps / 24-bit (DTS Core: 5.1 / 48 kHz / 1152 kbps / 24-bit)
Audio: Japanese / LPCM Audio / 2.0 / 48 kHz / 2304 kbps / 24-bit
Audio: Japanese / DTS-HD Master Audio / 5.1 / 48 kHz / 3872 kbps / 24-bit (DTS Core: 5.1 / 48 kHz / 1509 kbps / 24-bit)
Subtitle: Russian / 0,838 kbps
Subtitle: Russian / 18,317 kbps

********************
PLAYLIST: 00004.MPLS
********************

<--- BEGIN FORUMS PASTE --->
Total Video
Title Codec Length Movie Size Disc Size Bitrate Bitrate Main Audio Track Secondary Audio Track
----- ------ ------- -------------- -------------- ------- ------- ------------------ ---------------------
00004.MPLS AVC 0:01:55 623963520 49590993400 43,27 27,98 LPCM 2.0 2304Kbps (48kHz/24-bit) DTS-HD Master 5.1 4057Kbps (48kHz/24-bit)

DISC INFO:

Disc Title: Sakasama no Patema (Blu-Ray)
Disc Size: 49590993400 bytes
Protection: AACS
BD-Java: No
BDInfo: 0.5.8

PLAYLIST REPORT:

Name: 00004.MPLS
Length: 0:01:55.365 (h:m:s.ms)
Size: 623963520 bytes
Total Bitrate: 43,27 Mbps

VIDEO:

Codec Bitrate Description
----- ------- -----------
MPEG-4 AVC Video 27978 kbps 1080p / 23,976 fps / 16:9 / High Profile 4.1

AUDIO:

Codec Language Bitrate Description
----- -------- ------- -----------
LPCM Audio Russian 2304 kbps 2.0 / 48 kHz / 2304 kbps / 24-bit
DTS-HD Master Audio Russian 4057 kbps 5.1 / 48 kHz / 4057 kbps / 24-bit (DTS Core: 5.1 / 48 kHz / 1509 kbps / 24-bit)
LPCM Audio Russian 2304 kbps 2.0 / 48 kHz / 2304 kbps / 24-bit
DTS-HD Master Audio Russian 4057 kbps 5.1 / 48 kHz / 4057 kbps / 24-bit (DTS Core: 5.1 / 48 kHz / 1509 kbps / 24-bit)

SUBTITLES:

Codec Language Bitrate Description
----- -------- ------- -----------
Presentation Graphics Russian 57,783 kbps
Presentation Graphics Russian 57,783 kbps

FILES:

Name Time In Length Size Total Bitrate
---- ------- ------ ---- -------------
00004.M2TS 0:00:00.000 0:01:55.365 623963520 43253

CHAPTERS:

Number Time In Length Avg Video Rate Max 1-Sec Rate Max 1-Sec Time Max 5-Sec Rate Max 5-Sec Time Max 10Sec Rate Max 10Sec Time Avg Frame Size Max Frame Size Max Frame Time
------ ------- ------ -------------- -------------- -------------- -------------- -------------- -------------- -------------- -------------- -------------- --------------
1 0:00:00.000 0:01:55.365 27989 kbps 48785 kbps 00:00:02.961 35743 kbps 00:00:08.675 33491 kbps 00:00:03.128 146025 bytes 839782 bytes 00:00:03.837

STREAM DIAGNOSTICS:

File PID Type Codec Language Seconds Bitrate Bytes Packets
---- --- ---- ----- -------- -------------- -------------- ------------- -----
00004.M2TS 4113 (0x1011) 0x1B AVC 115,282 28009 403614111 2195165
00004.M2TS 4352 (0x1100) 0x80 LPCM rus (Russian) 115,282 2312 33317412 184584
00004.M2TS 4353 (0x1101) 0x86 DTS-HD MA rus (Russian) 115,282 4061 58518548 336057
00004.M2TS 4354 (0x1102) 0x80 LPCM rus (Russian) 115,282 2312 33317412 184584
00004.M2TS 4355 (0x1103) 0x86 DTS-HD MA rus (Russian) 115,282 4061 58518548 336057
00004.M2TS 4608 (0x1200) 0x90 PGS rus (Russian) 115,282 58 833566 4730
00004.M2TS 4609 (0x1201) 0x90 PGS rus (Russian) 115,282 58 833566 4730

<---- END FORUMS PASTE ---->

QUICK SUMMARY:

Disc Title: Sakasama no Patema (Blu-Ray)
Disc Size: 49590993400 bytes
Protection: AACS
BD-Java: No
Playlist: 00004.MPLS
Size: 623963520 bytes
Length: 0:01:55.365
Total Bitrate: 43,27 Mbps
Video: MPEG-4 AVC Video / 27978 kbps / 1080p / 23,976 fps / 16:9 / High Profile 4.1
Audio: Russian / LPCM Audio / 2.0 / 48 kHz / 2304 kbps / 24-bit
Audio: Russian / DTS-HD Master Audio / 5.1 / 48 kHz / 4057 kbps / 24-bit (DTS Core: 5.1 / 48 kHz / 1509 kbps / 24-bit)
Audio: Russian / LPCM Audio / 2.0 / 48 kHz / 2304 kbps / 24-bit
Audio: Russian / DTS-HD Master Audio / 5.1 / 48 kHz / 4057 kbps / 24-bit (DTS Core: 5.1 / 48 kHz / 1509 kbps / 24-bit)
Subtitle: Russian / 57,783 kbps
Subtitle: Russian / 57,783 kbps

********************
PLAYLIST: 00003.MPLS
********************

<--- BEGIN FORUMS PASTE --->
Total Video
Title Codec Length Movie Size Disc Size Bitrate Bitrate Main Audio Track Secondary Audio Track
----- ------ ------- -------------- -------------- ------- ------- ------------------ ---------------------
00003.MPLS AVC 0:01:53 541856448 49590993400 38,20 34,87 DD AC3 2.0 384Kbps

DISC INFO:

Disc Title: Sakasama no Patema (Blu-Ray)
Disc Size: 49590993400 bytes
Protection: AACS
BD-Java: No
BDInfo: 0.5.8

PLAYLIST REPORT:

Name: 00003.MPLS
Length: 0:01:53.488 (h:m:s.ms)
Size: 541856448 bytes
Total Bitrate: 38,20 Mbps

VIDEO:

Codec Bitrate Description
----- ------- -----------
MPEG-4 AVC Video 34865 kbps 1080p / 23,976 fps / 16:9 / High Profile 4.1

AUDIO:

Codec Language Bitrate Description
----- -------- ------- -----------
Dolby Digital Audio Russian 384 kbps 2.0 / 48 kHz / 384 kbps
Dolby Digital Audio Russian 384 kbps 2.0 / 48 kHz / 384 kbps
Dolby Digital Audio Japanese 384 kbps 2.0 / 48 kHz / 384 kbps
Dolby Digital Audio Japanese 384 kbps 2.0 / 48 kHz / 384 kbps

FILES:

Name Time In Length Size Total Bitrate
---- ------- ------ ---- -------------
00003.M2TS 0:00:00.000 0:01:53.488 541856448 38182

CHAPTERS:

Number Time In Length Avg Video Rate Max 1-Sec Rate Max 1-Sec Time Max 5-Sec Rate Max 5-Sec Time Max 10Sec Rate Max 10Sec Time Avg Frame Size Max Frame Size Max Frame Time
------ ------- ------ -------------- -------------- -------------- -------------- -------------- -------------- -------------- -------------- -------------- --------------
1 0:00:00.000 0:01:53.488 34878 kbps 57125 kbps 00:01:11.362 42013 kbps 00:00:08.717 40443 kbps 00:00:03.670 181973 bytes 824650 bytes 00:01:11.404

STREAM DIAGNOSTICS:

File PID Type Codec Language Seconds Bitrate Bytes Packets
---- --- ---- ----- -------- -------------- -------------- ------------- -----
00003.M2TS 4113 (0x1011) 0x1B AVC 113,405 34905 494802959 2690755
00003.M2TS 4352 (0x1100) 0x81 AC3 rus (Russian) 113,405 384 5448192 31923
00003.M2TS 4353 (0x1101) 0x81 AC3 rus (Russian) 113,405 384 5448192 31923
00003.M2TS 4354 (0x1102) 0x81 AC3 jpn (Japanese) 113,405 384 5448192 31923
00003.M2TS 4355 (0x1103) 0x81 AC3 jpn (Japanese) 113,405 384 5448192 31923

<---- END FORUMS PASTE ---->

QUICK SUMMARY:

Disc Title: Sakasama no Patema (Blu-Ray)
Disc Size: 49590993400 bytes
Protection: AACS
BD-Java: No
Playlist: 00003.MPLS
Size: 541856448 bytes
Length: 0:01:53.488
Total Bitrate: 38,20 Mbps
Video: MPEG-4 AVC Video / 34865 kbps / 1080p / 23,976 fps / 16:9 / High Profile 4.1
Audio: Russian / Dolby Digital Audio / 2.0 / 48 kHz / 384 kbps
Audio: Russian / Dolby Digital Audio / 2.0 / 48 kHz / 384 kbps
Audio: Japanese / Dolby Digital Audio / 2.0 / 48 kHz / 384 kbps
Audio: Japanese / Dolby Digital Audio / 2.0 / 48 kHz / 384 kbps

********************
PLAYLIST: 00006.MPLS
********************

<--- BEGIN FORUMS PASTE --->
Total Video
Title Codec Length Movie Size Disc Size Bitrate Bitrate Main Audio Track Secondary Audio Track
----- ------ ------- -------------- -------------- ------- ------- ------------------ ---------------------
00006.MPLS AVC 0:00:25 21931584 49590993400 6,75 5,98 DD AC3 2.0 384Kbps

DISC INFO:

Disc Title: Sakasama no Patema (Blu-Ray)
Disc Size: 49590993400 bytes
Protection: AACS
BD-Java: No
BDInfo: 0.5.8

PLAYLIST REPORT:

Name: 00006.MPLS
Length: 0:00:25.984 (h:m:s.ms)
Size: 21931584 bytes
Total Bitrate: 6,75 Mbps

VIDEO:

Codec Bitrate Description
----- ------- -----------
MPEG-4 AVC Video 5977 kbps 1080p / 23,976 fps / 16:9 / High Profile 4.1

AUDIO:

Codec Language Bitrate Description
----- -------- ------- -----------
Dolby Digital Audio Russian 384 kbps 2.0 / 48 kHz / 384 kbps / DN -4dB

FILES:

Name Time In Length Size Total Bitrate
---- ------- ------ ---- -------------
00010.M2TS 0:00:00.000 0:00:25.984 21931584 6741

CHAPTERS:

Number Time In Length Avg Video Rate Max 1-Sec Rate Max 1-Sec Time Max 5-Sec Rate Max 5-Sec Time Max 10Sec Rate Max 10Sec Time Avg Frame Size Max Frame Size Max Frame Time
------ ------- ------ -------------- -------------- -------------- -------------- -------------- -------------- -------------- -------------- -------------- --------------
1 0:00:00.000 0:00:09.384 1185 kbps 4251 kbps 00:00:00.125 1263 kbps 00:00:00.125 0 kbps 00:00:00.000 6153 bytes 71438 bytes 00:00:09.384
2 0:00:09.384 0:00:09.551 3611 kbps 8319 kbps 00:00:09.467 3806 kbps 00:00:09.384 0 kbps 00:00:00.000 18827 bytes 184685 bytes 00:00:10.218
3 0:00:18.935 0:00:07.048 15598 kbps 42770 kbps 00:00:19.018 21956 kbps 00:00:18.935 0 kbps 00:00:00.000 82793 bytes 561044 bytes 00:00:19.227

STREAM DIAGNOSTICS:

File PID Type Codec Language Seconds Bitrate Bytes Packets
---- --- ---- ----- -------- -------------- -------------- ------------- -----
00010.M2TS 4113 (0x1011) 0x1B AVC 25,901 6007 19447113 106023
00010.M2TS 4352 (0x1100) 0x81 AC3 rus (Russian) 25,901 385 1247232 7308

<---- END FORUMS PASTE ---->

QUICK SUMMARY:

Disc Title: Sakasama no Patema (Blu-Ray)
Disc Size: 49590993400 bytes
Protection: AACS
BD-Java: No
Playlist: 00006.MPLS
Size: 21931584 bytes
Length: 0:00:25.984
Total Bitrate: 6,75 Mbps
Video: MPEG-4 AVC Video / 5977 kbps / 1080p / 23,976 fps / 16:9 / High Profile 4.1
Audio: Russian / Dolby Digital Audio / 2.0 / 48 kHz / 384 kbps / DN -4dB
<a href="viewtopic.php?t=4735985" class="postLink">4735985</a>: Blu-Ray, 1080p, ;
<a href="viewtopic.php?t=4736078" class="postLink">4736078</a>: Blu-Ray, ;
<a href="viewtopic.php?t=4785320" class="postLink">4785320</a>: Blu-Ray, 1080p, ;
<a href="viewtopic.php?t=4782341" class="postLink">4782341</a>: Blu-Ray, 1080p;
<a href="viewtopic.php?t=4998181" class="postLink">4998181</a>, <a href="viewtopic.php?t=4998942" class="postLink">4998942</a>: Blu-Ray.

<a href="viewtopic.php?p=71338613#71338613" class="postLink">!</a>

 ·  , , FAQ-
:  [ 02--2016 23:00 ]

  

.torrent

.torrent 61 KB


: 46.19 GB
(hash) : 71701d4fd4d7eba1e26751b455986a502c18d69e
:
··
...

, Sakasama no Patema

S L
| DVD ··  / Sakasama no Patema / Patema Inverted [Movie] [RUS, JAP+SUB] [2013 ., , , DVD9] Galfimbul 57929789445.4 GB 0 0 1472850174

00:02

3--16

| HD Rips ··  / Sakasama no Patema / Patema Inverted [Movie] [ ] [RUS(int), RUS(int), JAP, SUB] [2013 ., , , Blu-ray] [1080p] Galfimbul 4959099340046.19 GB 0 0 1460061508

23:38

7--16

| DVD ··  / Sakasama no Patema / Patema Inverted [Movie] [RUS, JAP, SUB] [2013 ., , , DVD9] Galfimbul 57929789445.4 GB 0 0 1446838792

22:39

6--15

| HD Rips ··  / Sakasama no Patema / Patema Inverted [Movie] [ ] [RUS(int), JAP+SUB] [2013 ., , , BDRemux] [1080p] Galfimbul 3028553049528.21 GB 0 0 1430662859

17:20

3--15

| HD Rips ··  / Sakasama no Patema / Patema Inverted ( ) [Movie] [ ] [RUS(ext), ENG, JAP+SUB] [2013 ., , , , , BDRip] [1080p] Galfimbul 103534589889.64 GB 0 0 1430578212

17:50

2--15

| Rips ··  / Sakasama no Patema / Patema Inverted ( ) [Movie] [ ] [RUS(int), JAP+SUB] [2013 ., , , , , BDRip] [HWP] Galfimbul 18610868021.73 GB 0 0 1429973826

17:57

25--15

| HD Rips ··  / Sakasama no Patema / Patema Inverted ( ) [Movie] [ ] [RUS(ext), JAP+SUB] [2013 ., , , BDRip] [720p] Galfimbul 51743871954.82 GB 0 0 1429433169

11:46

19--15

| Rips ··  / / Sakasama no Patema / Patema Inverted [Movie] [ ] [RUS(int), JAP+SUB] [2013 ., , , BDRip] [HWP] Galfimbul 1046327087998 MB 0 0 1409055835

15:23

26--14

| Rips ··  / Patema Inverted / Sakasama no Patema ( ) [Movie] [ ] [RUS(int),JAP+SUB] [2013 ., , , , , BDRip] [720p] [HD] Galfimbul 52631034144.9 GB 0 0 1429422312

08:45

19--15

Sakasama no Patema . !

!