Скачать через торрент музыку Телепорт Jumper бесплатно без регистрации torrent

Если у вас наблюдаются проблемы со скриншотами, переходом по ссылками, скачиванием торрентов - проблемы в блокировщике рекламы AdBlock. #хорошегоДня!


Статистика раздачи
Размер:  216 MB   |    Зарегистрирован:  1 год 3 месяца   |    .torrent скачан:  17 раз   |   
Раздают:  1  
   
Загрузка...
 
Автор Сообщение

Galfimbul

avatar Galfimbul


Телепорт / Jumper

Название альбома: Jumper (Original Motion Picture Soundtrack)
Жанр: Score
Композитор: John Powell
Год выпуска диска: 2008
Страна-производитель диска: USA
Аудиокодек: FLAC (*.flac)
Тип рипа: tracks+.cue
Битрейт аудио: lossless
Источник: скачано с
сайт-источник/ник/другое: ffshrine
Наличие сканов в содержимом раздачи: нет
Треклист:
01. My Day So Far.flac
02. Splash.flac
03. First Jumps.flac
04. Bridges, Rules, Banking.flac
05. Surf's Up.flac
06. 1000 Volts.flac
07. Roland Snoops.flac
08. You Hear Me Laughing?.flac
09. Coliseum Tour.flac
10. Coliseum Fight.flac
11. Echo Of Mom.flac
12. Airport Departure.flac
13. In Hospital.flac
14. It's Sayonara.flac
15. Race To Millie.flac
16. David Comes Clean.flac
17. Roland At The Lair.flac
18. Jumper vs. Jumper.flac
19. The Sacrifice.flac
20. A Head Start.flac
21. Jump Off.flac
Exact Audio Copy V1.0 beta 3 from 29. August 2011

EAC extraction logfile from 28. September 2014, 22:39

John Powell / Jumper

Used drive : ATAPI iHBS312 2 Adapter: 4 ID: 0

Read mode : SecureUtilize accurate stream : YesDefeat audio cache : YesMake use of C2 pointers : Yes

Read offset correction : 6Overread into Lead-In and Lead-Out : NoFill up missing offset samples with silence : YesDelete leading and trailing silent blocks : NoNull samples used in CRC calculations : YesUsed interface : Native Win32 interface for Win NT & 2000Gap handling : Not detected, thus appended to previous track

Used output format : User Defined EncoderSelected bitrate : 1024 kBit/sQuality : HighAdd ID3 tag : YesCommand line compressor : C:\Program Files (x86)\FLAC\flac.exeAdditional command line options : -8 -V -T "ARTIST=%artist%" -T "TITLE=%title%" -T "ALBUM=%albumtitle%" -T "DATE=%year%" -T "TRACKNUMBER=%tracknr%" -T "GENRE=%genre%" -T "PERFORMER=%albuminterpret%" -T "COMPOSER=%composer%" -T "ALBUMARTIST=%albumartist%" -T "DISCNUMBER=%cdnumber%" -T "TOTALDISCS=%totalcds%" -T "TOTALTRACKS=%numtracks%" -T "COMMENT=%comment%" %hascover%--picture="%coverfile%" %hascover% %source% -o %dest%

TOC of the extracted CD

Track | Start | Length | Start sector | End sector --------------------------------------------------------- 1 | 0:00.00 | 1:03.29 | 0 | 4753 2 | 1:03.29 | 1:30.61 | 4754 | 11564 3 | 2:34.15 | 1:37.11 | 11565 | 18850 4 | 4:11.26 | 3:25.03 | 18851 | 34228 5 | 7:36.29 | 1:11.45 | 34229 | 39598 6 | 8:47.74 | 3:47.52 | 39599 | 56675 7 | 12:35.51 | 1:43.11 | 56676 | 64411 8 | 14:18.62 | 1:01.20 | 64412 | 69006 9 | 15:20.07 | 1:46.39 | 69007 | 76995 10 | 17:06.46 | 2:24.61 | 76996 | 87856 11 | 19:31.32 | 0:49.52 | 87857 | 91583 12 | 20:21.09 | 1:58.25 | 91584 | 100458 13 | 22:19.34 | 0:56.17 | 100459 | 104675 14 | 23:15.51 | 0:56.53 | 104676 | 108928 15 | 24:12.29 | 1:24.66 | 108929 | 115294 16 | 25:37.20 | 3:24.03 | 115295 | 130597 17 | 29:01.23 | 4:55.27 | 130598 | 152749 18 | 33:56.50 | 2:18.25 | 152750 | 163124 19 | 36:15.00 | 4:45.16 | 163125 | 184515 20 | 41:00.16 | 1:43.21 | 184516 | 192261 21 | 42:43.37 | 1:36.19 | 192262 | 199480

Track 1

Filename E:\EAC Rips\Jumper (2008) - John Powell [FLAC]\01. My Day So Far.wav

Peak level 97.9 % Extraction speed 0.9 X Track quality 100.0 % Copy CRC 507A9582 Accurately ripped (confidence 9) [2CE333B8] (AR v2) Copy OK

Track 2

Filename E:\EAC Rips\Jumper (2008) - John Powell [FLAC]\02. Splash.wav

Peak level 94.8 % Extraction speed 0.8 X Track quality 99.7 % Copy CRC FB93F05E Accurately ripped (confidence 9) [EF7CD38D] (AR v2) Copy OK

Track 3

Filename E:\EAC Rips\Jumper (2008) - John Powell [FLAC]\03. First Jumps.wav

Peak level 99.8 % Extraction speed 1.2 X Track quality 100.0 % Copy CRC 46A47130 Accurately ripped (confidence 9) [4C86C8A3] (AR v2) Copy OK

Track 4

Filename E:\EAC Rips\Jumper (2008) - John Powell [FLAC]\04. Bridges, Rules, Banking.wav

Peak level 99.9 % Extraction speed 1.4 X Track quality 100.0 % Copy CRC C1F21538 Accurately ripped (confidence 9) [A4C95515] (AR v2) Copy OK

Track 5

Filename E:\EAC Rips\Jumper (2008) - John Powell [FLAC]\05. Surf's Up.wav

Peak level 99.8 % Extraction speed 1.0 X Track quality 100.0 % Copy CRC C95C92F5 Accurately ripped (confidence 9) [C065E7EA] (AR v2) Copy OK

Track 6

Filename E:\EAC Rips\Jumper (2008) - John Powell [FLAC]\06. 1000 Volts.wav

Peak level 100.0 % Extraction speed 1.5 X Track quality 100.0 % Copy CRC 1E739241 Accurately ripped (confidence 9) [C18FEC6A] (AR v2) Copy OK

Track 7

Filename E:\EAC Rips\Jumper (2008) - John Powell [FLAC]\07. Roland Snoops.wav

Peak level 99.9 % Extraction speed 1.2 X Track quality 100.0 % Copy CRC E1A87246 Accurately ripped (confidence 9) [BC8A495E] (AR v2) Copy OK

Track 8

Filename E:\EAC Rips\Jumper (2008) - John Powell [FLAC]\08. You Hear Me Laughing¿.wav

Peak level 61.1 % Extraction speed 1.0 X Track quality 100.0 % Copy CRC F49B3EAD Accurately ripped (confidence 9) [FAB4F675] (AR v2) Copy OK

Track 9

Filename E:\EAC Rips\Jumper (2008) - John Powell [FLAC]\09. Coliseum Tour.wav

Peak level 82.8 % Extraction speed 1.2 X Track quality 100.0 % Copy CRC 087ACA6C Accurately ripped (confidence 9) [F86397EF] (AR v2) Copy OK

Track 10

Filename E:\EAC Rips\Jumper (2008) - John Powell [FLAC]\10. Coliseum Fight.wav

Peak level 99.8 % Extraction speed 1.3 X Track quality 100.0 % Copy CRC 6B93E15C Accurately ripped (confidence 9) [A743AED2] (AR v2) Copy OK

Track 11

Filename E:\EAC Rips\Jumper (2008) - John Powell [FLAC]\11. Echo Of Mom.wav

Peak level 99.8 % Extraction speed 0.6 X Track quality 99.5 % Copy CRC 02C24333 Accurately ripped (confidence 9) [A05D73CC] (AR v2) Copy OK

Track 12

Filename E:\EAC Rips\Jumper (2008) - John Powell [FLAC]\12. Airport Departure.wav

Peak level 69.8 % Extraction speed 1.2 X Track quality 100.0 % Copy CRC 93D65B47 Accurately ripped (confidence 9) [E919AA9D] (AR v2) Copy OK

Track 13

Filename E:\EAC Rips\Jumper (2008) - John Powell [FLAC]\13. In Hospital.wav

Peak level 98.5 % Extraction speed 0.9 X Track quality 100.0 % Copy CRC 0E28AC90 Accurately ripped (confidence 9) [2E42D09D] (AR v2) Copy OK

Track 14

Filename E:\EAC Rips\Jumper (2008) - John Powell [FLAC]\14. It's Sayonara.wav

Peak level 99.7 % Extraction speed 0.6 X Track quality 99.6 % Copy CRC 3EF328FB Accurately ripped (confidence 9) [1A0FD80B] (AR v2) Copy OK

Track 15

Filename E:\EAC Rips\Jumper (2008) - John Powell [FLAC]\15. Race To Millie.wav

Peak level 77.3 % Extraction speed 1.1 X Track quality 100.0 % Copy CRC 53D44262 Accurately ripped (confidence 9) [DF08FF27] (AR v2) Copy OK

Track 16

Filename E:\EAC Rips\Jumper (2008) - John Powell [FLAC]\16. David Comes Clean.wav

Peak level 93.9 % Extraction speed 1.5 X Track quality 100.0 % Copy CRC FCD1FD9A Accurately ripped (confidence 9) [A27EEC71] (AR v2) Copy OK

Track 17

Filename E:\EAC Rips\Jumper (2008) - John Powell [FLAC]\17. Roland At The Lair.wav

Peak level 99.9 % Extraction speed 1.5 X Track quality 100.0 % Copy CRC 1EF4E524 Accurately ripped (confidence 9) [3CC98A64] (AR v2) Copy OK

Track 18

Filename E:\EAC Rips\Jumper (2008) - John Powell [FLAC]\18. Jumper vs. Jumper.wav

Peak level 99.9 % Extraction speed 1.3 X Track quality 100.0 % Copy CRC C3226729 Accurately ripped (confidence 9) [01B72B42] (AR v2) Copy OK

Track 19

Filename E:\EAC Rips\Jumper (2008) - John Powell [FLAC]\19. The Sacrifice.wav

Peak level 99.9 % Extraction speed 1.3 X Track quality 99.9 % Copy CRC 4BA7065D Accurately ripped (confidence 9) [5BBBEB98] (AR v2) Copy OK

Track 20

Filename E:\EAC Rips\Jumper (2008) - John Powell [FLAC]\20. A Head Start.wav

Peak level 51.0 % Extraction speed 1.2 X Track quality 100.0 % Copy CRC 5A756834 Accurately ripped (confidence 9) [45D0BCD7] (AR v2) Copy OK

Track 21

Filename E:\EAC Rips\Jumper (2008) - John Powell [FLAC]\21. Jump Off.wav

Peak level 99.8 % Extraction speed 0.8 X Track quality 99.7 % Copy CRC AD399BFC Accurately ripped (confidence 9) [B917D593] (AR v2) Copy OK

All tracks accurately ripped

No errors occurred

End of status report

---- CUETools DB Plugin V2.1.3

[CTDB TOCID: 0xd1dmzzJ6DhWMxbtIh6h8EbJJg-] found, Submit result: already submitted[bb0750e9] (1/1) Accurately ripped

==== Log checksum D76D6B72FAD1E36BADE0018569E2F43CFA5F7A9497130580C01ED8F6F2087B82 ====
REM DATE 2008REM DISCID 1C0A6315REM COMMENT "ExactAudioCopy v1.0b3"CATALOG 0780163398724PERFORMER "John Powell"TITLE "Jumper"FILE "01. My Day So Far.wav" WAVE TRACK 01 AUDIO TITLE "01. My Day So Far" PERFORMER "John Powell" ISRC USLS50898701 INDEX 01 00:00:00FILE "02. Splash.wav" WAVE TRACK 02 AUDIO TITLE "02. Splash" PERFORMER "John Powell" ISRC USLS50898702 INDEX 01 00:00:00FILE "03. First Jumps.wav" WAVE TRACK 03 AUDIO TITLE "03. First Jumps" PERFORMER "John Powell" ISRC USLS50898703 INDEX 01 00:00:00FILE "04. Bridges, Rules, Banking.wav" WAVE TRACK 04 AUDIO TITLE "04. Bridges, Rules, Banking" PERFORMER "John Powell" ISRC USLS50898704 INDEX 01 00:00:00FILE "05. Surf's Up.wav" WAVE TRACK 05 AUDIO TITLE "05. Surf's Up" PERFORMER "John Powell" ISRC USLS50898705 INDEX 01 00:00:00FILE "06. 1000 Volts.wav" WAVE TRACK 06 AUDIO TITLE "06. 1000 Volts" PERFORMER "John Powell" ISRC USLS50898706 INDEX 01 00:00:00FILE "07. Roland Snoops.wav" WAVE TRACK 07 AUDIO TITLE "07. Roland Snoops" PERFORMER "John Powell" ISRC USLS50898707 INDEX 01 00:00:00FILE "08. You Hear Me Laughingї.wav" WAVE TRACK 08 AUDIO TITLE "08. You Hear Me Laughingї" PERFORMER "John Powell" ISRC USLS50898708 INDEX 01 00:00:00FILE "09. Coliseum Tour.wav" WAVE TRACK 09 AUDIO TITLE "09. Coliseum Tour" PERFORMER "John Powell" ISRC USLS50898709 INDEX 01 00:00:00FILE "10. Coliseum Fight.wav" WAVE TRACK 10 AUDIO TITLE "10. Coliseum Fight" PERFORMER "John Powell" ISRC USLS50898710 INDEX 01 00:00:00FILE "11. Echo Of Mom.wav" WAVE TRACK 11 AUDIO TITLE "11. Echo Of Mom" PERFORMER "John Powell" ISRC USLS50898711 INDEX 01 00:00:00FILE "12. Airport Departure.wav" WAVE TRACK 12 AUDIO TITLE "12. Airport Departure" PERFORMER "John Powell" ISRC USLS50898712 INDEX 01 00:00:00FILE "13. In Hospital.wav" WAVE TRACK 13 AUDIO TITLE "13. In Hospital" PERFORMER "John Powell" ISRC USLS50898713 INDEX 01 00:00:00FILE "14. It's Sayonara.wav" WAVE TRACK 14 AUDIO TITLE "14. It's Sayonara" PERFORMER "John Powell" ISRC USLS50898714 INDEX 01 00:00:00FILE "15. Race To Millie.wav" WAVE TRACK 15 AUDIO TITLE "15. Race To Millie" PERFORMER "John Powell" ISRC USLS50898715 INDEX 01 00:00:00FILE "16. David Comes Clean.wav" WAVE TRACK 16 AUDIO TITLE "16. David Comes Clean" PERFORMER "John Powell" ISRC USLS50898716 INDEX 01 00:00:00FILE "17. Roland At The Lair.wav" WAVE TRACK 17 AUDIO TITLE "17. Roland At The Lair" PERFORMER "John Powell" ISRC USLS50898717 INDEX 01 00:00:00FILE "18. Jumper vs. Jumper.wav" WAVE TRACK 18 AUDIO TITLE "18. Jumper vs. Jumper" PERFORMER "John Powell" ISRC USLS50898718 INDEX 01 00:00:00FILE "19. The Sacrifice.wav" WAVE TRACK 19 AUDIO TITLE "19. The Sacrifice" PERFORMER "John Powell" ISRC USLS50898719 INDEX 01 00:00:00FILE "20. A Head Start.wav" WAVE TRACK 20 AUDIO TITLE "20. A Head Start" PERFORMER "John Powell" ISRC USLS50898720 INDEX 01 00:00:00FILE "21. Jump Off.wav" WAVE TRACK 21 AUDIO TITLE "21. Jump Off" PERFORMER "John Powell" ISRC USLS50898721 INDEX 01 00:00:00
AUDIOCHECKER v2.0 beta (build 457) - by Dester - opdester@freemail.hu~~~~~~~~~~~~~~~~~~~~~~~~~~~~~~~~~~

Started at: domingo, 28. 09. 2014. - 22:39.5442 files found

01 -===- E:\EAC Rips\Jumper (2008) - John Powell [FLAC]\01. My Day So Far.flac Extracted successfully Conclusion: this track is CDDA with probability 100% Tempfile successfully deleted.

02 -===- E:\EAC Rips\Jumper (2008) - John Powell [FLAC]\02. Splash.flac Extracted successfully Conclusion: this track is CDDA with probability 100% Tempfile successfully deleted.

03 -===- E:\EAC Rips\Jumper (2008) - John Powell [FLAC]\03. First Jumps.flac Extracted successfully Conclusion: this track is CDDA with probability 100% Tempfile successfully deleted.

04 -===- E:\EAC Rips\Jumper (2008) - John Powell [FLAC]\04. Bridges, Rules, Banking.flac Extracted successfully Conclusion: this track is CDDA with probability 100% Tempfile successfully deleted.

05 -===- E:\EAC Rips\Jumper (2008) - John Powell [FLAC]\05. Surf's Up.flac Extracted successfully Conclusion: this track is CDDA with probability 100% Tempfile successfully deleted.

06 -===- E:\EAC Rips\Jumper (2008) - John Powell [FLAC]\06. 1000 Volts.flac Extracted successfully Conclusion: this track is CDDA with probability 100% Tempfile successfully deleted.

07 -===- E:\EAC Rips\Jumper (2008) - John Powell [FLAC]\07. Roland Snoops.flac Extracted successfully Conclusion: this track is CDDA with probability 99% Tempfile successfully deleted.

08 -===- E:\EAC Rips\Jumper (2008) - John Powell [FLAC]\08. You Hear Me Laughingї.flac Extracted successfully Conclusion: this track is CDDA with probability 100% Tempfile successfully deleted.

09 -===- E:\EAC Rips\Jumper (2008) - John Powell [FLAC]\09. Coliseum Tour.flac Extracted successfully Conclusion: this track is CDDA with probability 100% Tempfile successfully deleted.

10 -===- E:\EAC Rips\Jumper (2008) - John Powell [FLAC]\10. Coliseum Fight.flac Extracted successfully Conclusion: this track is CDDA with probability 100% Tempfile successfully deleted.

11 -===- E:\EAC Rips\Jumper (2008) - John Powell [FLAC]\11. Echo Of Mom.flac Extracted successfully Conclusion: this track is CDDA with probability 99% Tempfile successfully deleted.

12 -===- E:\EAC Rips\Jumper (2008) - John Powell [FLAC]\12. Airport Departure.flac Extracted successfully Conclusion: this track is CDDA with probability 100% Tempfile successfully deleted.

13 -===- E:\EAC Rips\Jumper (2008) - John Powell [FLAC]\13. In Hospital.flac Extracted successfully Conclusion: this track is CDDA with probability 100% Tempfile successfully deleted.

14 -===- E:\EAC Rips\Jumper (2008) - John Powell [FLAC]\14. It's Sayonara.flac Extracted successfully Conclusion: this track is CDDA with probability 100% Tempfile successfully deleted.

15 -===- E:\EAC Rips\Jumper (2008) - John Powell [FLAC]\15. Race To Millie.flac Extracted successfully Conclusion: this track is CDDA with probability 99% Tempfile successfully deleted.

16 -===- E:\EAC Rips\Jumper (2008) - John Powell [FLAC]\16. David Comes Clean.flac Extracted successfully Conclusion: this track is CDDA with probability 100% Tempfile successfully deleted.

17 -===- E:\EAC Rips\Jumper (2008) - John Powell [FLAC]\17. Roland At The Lair.flac Extracted successfully Conclusion: this track is CDDA with probability 100% Tempfile successfully deleted.

18 -===- E:\EAC Rips\Jumper (2008) - John Powell [FLAC]\18. Jumper vs. Jumper.flac Extracted successfully Conclusion: this track is CDDA with probability 99% Tempfile successfully deleted.

19 -===- E:\EAC Rips\Jumper (2008) - John Powell [FLAC]\19. The Sacrifice.flac Extracted successfully Conclusion: this track is CDDA with probability 100% Tempfile successfully deleted.

20 -===- E:\EAC Rips\Jumper (2008) - John Powell [FLAC]\20. A Head Start.flac Extracted successfully Conclusion: this track is CDDA with probability 100% Tempfile successfully deleted.

21 -===- E:\EAC Rips\Jumper (2008) - John Powell [FLAC]\21. Jump Off.flac Extracted successfully Conclusion: this track is CDDA with probability 100% Tempfile successfully deleted.

22 -===- E:\EAC Rips\Jumper (2008) - John Powell [FLAC]\01. My Day So Far.wav Conclusion: this track is CDDA with probability 100%

23 -===- E:\EAC Rips\Jumper (2008) - John Powell [FLAC]\02. Splash.wav Conclusion: this track is CDDA with probability 100%

24 -===- E:\EAC Rips\Jumper (2008) - John Powell [FLAC]\03. First Jumps.wav Conclusion: this track is CDDA with probability 100%

25 -===- E:\EAC Rips\Jumper (2008) - John Powell [FLAC]\04. Bridges, Rules, Banking.wav Conclusion: this track is CDDA with probability 100%

26 -===- E:\EAC Rips\Jumper (2008) - John Powell [FLAC]\05. Surf's Up.wav Conclusion: this track is CDDA with probability 100%

27 -===- E:\EAC Rips\Jumper (2008) - John Powell [FLAC]\06. 1000 Volts.wav Conclusion: this track is CDDA with probability 100%

28 -===- E:\EAC Rips\Jumper (2008) - John Powell [FLAC]\07. Roland Snoops.wav Conclusion: this track is CDDA with probability 99%

29 -===- E:\EAC Rips\Jumper (2008) - John Powell [FLAC]\08. You Hear Me Laughingї.wav Conclusion: this track is CDDA with probability 100%

30 -===- E:\EAC Rips\Jumper (2008) - John Powell [FLAC]\09. Coliseum Tour.wav Conclusion: this track is CDDA with probability 100%

31 -===- E:\EAC Rips\Jumper (2008) - John Powell [FLAC]\10. Coliseum Fight.wav Conclusion: this track is CDDA with probability 100%

32 -===- E:\EAC Rips\Jumper (2008) - John Powell [FLAC]\11. Echo Of Mom.wav Conclusion: this track is CDDA with probability 99%

33 -===- E:\EAC Rips\Jumper (2008) - John Powell [FLAC]\12. Airport Departure.wav Conclusion: this track is CDDA with probability 100%

34 -===- E:\EAC Rips\Jumper (2008) - John Powell [FLAC]\13. In Hospital.wav Conclusion: this track is CDDA with probability 100%

35 -===- E:\EAC Rips\Jumper (2008) - John Powell [FLAC]\14. It's Sayonara.wav Conclusion: this track is CDDA with probability 100%

36 -===- E:\EAC Rips\Jumper (2008) - John Powell [FLAC]\15. Race To Millie.wav Conclusion: this track is CDDA with probability 99%

37 -===- E:\EAC Rips\Jumper (2008) - John Powell [FLAC]\16. David Comes Clean.wav Conclusion: this track is CDDA with probability 100%

38 -===- E:\EAC Rips\Jumper (2008) - John Powell [FLAC]\17. Roland At The Lair.wav Conclusion: this track is CDDA with probability 100%

39 -===- E:\EAC Rips\Jumper (2008) - John Powell [FLAC]\18. Jumper vs. Jumper.wav Conclusion: this track is CDDA with probability 99%

40 -===- E:\EAC Rips\Jumper (2008) - John Powell [FLAC]\19. The Sacrifice.wav Conclusion: this track is CDDA with probability 100%

41 -===- E:\EAC Rips\Jumper (2008) - John Powell [FLAC]\20. A Head Start.wav Conclusion: this track is CDDA with probability 100%

42 -===- E:\EAC Rips\Jumper (2008) - John Powell [FLAC]\21. Jump Off.wav Conclusion: this track is CDDA with probability 100%

Finished at: domingo, 28. 09. 2014. - 22:43.10 (operation time: 0:03.16)


Трекер:  [ 02-Сен-2016 23:00 ]

  

Скачать .torrent

Размер .torrent файла 18 KB


Размер: 216 MB
Хэш (hash) релиза: 80e6eb548059189202d28544b7e106e130704f15

Торренты, похожие на Телепорт Jumper скачать торрент

Форум Название Автор Размер S L Добавлен
Саундтреки к фильмам и мультфильмам (mp3) ·· (Score) Телепорт / Jumper (Jumper Complete) (John Powell) - 2008, M4A, V0 Galfimbul 149686583143 MB 0 0 1473714232

00:03

13-Сен-16

Еще никто не оставлял запись к записи скачать торрент Телепорт Jumper . Будь первым!

!Обратная связь