Скачать через торрент Семь смертных грехов: Знамение священной войны Nanatsu no Taizai: Seisen no Shirushi бесплатно Аниме Все серии на русском torrent

Если у вас наблюдаются проблемы со скриншотами, переходом по ссылками, скачиванием торрентов - проблемы в блокировщике рекламы AdBlock. #хорошегоДня!


Статистика раздачи
Размер:  839 MB   |    Зарегистрирован:  1 год 3 месяца   |    .torrent скачан:  5 раз   |   
Раздают:  1  
   
Загрузка...
 
Автор Сообщение

Galfimbul

avatar Galfimbul


Семь смертных грехов: Знамение священной войны
Nanatsu no Taizai: Seisen no Shirushi

Страна: Япония
Год выпуска: 2016 г.
Жанр: экшен, приключения, фэнтези, сёнен
Тип: Special
Продолжительность: 4 эп, ~25 мин. серия
Режиссер: Томоказу Токоро
Студия:
Описание: Могущественный орден Святых Рыцарей, которых почитают как великих героев, совершает государственный переворот с целью установить в королевстве свою диктатуру. Дочь плененного короля отправляется в путешествие, чтобы отыскать последнюю надежду на спасение - членов легендарного рыцарского ордена "Семь Смертных Грехов", которых считают величайшими преступниками этой эпохи...
Качество: HDTVRip
Тип релиза: Без хардсаба
Формат видео: MP4
Наличие линковки: Нет
Релиз/Автор рипа: Ohys-Raws
Видео: avc1, 1280x720. 2104 Кбит/сек, 23,976 кадра/сек, 8 бит
Аудио: AAC, 215 Кбит/сек, 48,0 КГц, 2 канала Язык Японский
Субтитры: ass, внешние Язык субтитров русский ; Перевод: CafeSubs (Перевод: Anku, Редакция и оформление: mutagenb)
ОбщееПолное имя : M:\Trash\Anime\My_Sharing\Nanatsu no Taizai - Seisen no Shirushi\[Ohys-Raws] Nanatsu no Taizai - Seisen no Shirushi - 01 (TBS 1280x720 x264 AAC).mp4Формат : MPEG-4Профиль формата : Base MediaИдентификатор кодека : isom (isom/avc1)Размер файла : 403 МбайтПродолжительность : 24 м.Режим общего битрейта : ПеременныйОбщий поток : 2323 Кбит/секДата кодирования : UTC 2016-08-28 09:20:41Дата пометки : UTC 2016-08-28 09:20:41

ВидеоИдентификатор : 1Формат : AVCФормат/Информация : Advanced Video CodecПрофиль формата : Main@L4.1Параметр CABAC формата : ДаПараметр ReFrames формата : 4 кадраИдентификатор кодека : avc1Идентификатор кодека/Информация : Advanced Video CodingПродолжительность : 24 м.Битрейт : 2104 Кбит/секМаксимальный битрейт : 13,1 Мбит/секШирина : 1280 пикселейВысота : 720 пикселейСоотношение сторон : 16:9Режим частоты кадров : ПостоянныйЧастота кадров : 23,976 (24000/1001) кадра/секЦветовое пространство : YUVСубдискретизация насыщенности : 4:2:0Битовая глубина : 8 битТип развёртки : ПрогрессивнаяБит/(Пиксели*Кадры) : 0.095Размер потока : 365 Мбайт (91%)Библиотека кодирования : x264 core 148 r2705 3f5ed56Настройки программы : cabac=1 / ref=3 / deblock=1:0:0 / analyse=0x1:0x111 / me=hex / subme=7 / psy=1 / psy_rd=1.00:0.00 / mixed_ref=1 / me_range=16 / chroma_me=1 / trellis=1 / 8x8dct=0 / cqm=0 / deadzone=21,11 / fast_pskip=1 / chroma_qp_offset=-2 / threads=12 / lookahead_threads=2 / sliced_threads=0 / nr=0 / decimate=1 / interlaced=0 / bluray_compat=0 / constrained_intra=0 / bframes=3 / b_pyramid=2 / b_adapt=1 / b_bias=0 / direct=1 / weightb=1 / open_gop=0 / weightp=2 / keyint=240 / keyint_min=1 / scenecut=40 / intra_refresh=0 / rc_lookahead=40 / rc=crf / mbtree=1 / crf=20.0 / qcomp=0.60 / qpmin=0 / qpmax=69 / qpstep=4 / ip_ratio=1.40 / aq=1:1.50Дата кодирования : UTC 2016-08-28 09:20:41Дата пометки : UTC 2016-08-28 09:20:43Цветовой диапазон : LimitedОсновные цвета : BT.709Характеристики трансфера : BT.709Коэффициенты матрицы : BT.709

АудиоИдентификатор : 2Формат : AACФормат/Информация : Advanced Audio CodecПрофиль формата : LCИдентификатор кодека : 40Продолжительность : 24 м.Вид битрейта : ПеременныйБитрейт : 215 Кбит/секМаксимальный битрейт : 247 Кбит/секКаналы : 2 каналаРасположение каналов : Front: L RЧастота : 48,0 КГцЧастота кадров : 46,875 кадров/сек (1024 spf)Метод сжатия : С потерямиРазмер потока : 37,3 Мбайт (9%)Язык : JapaneseДата кодирования : UTC 2016-08-28 09:10:18Дата пометки : UTC 2016-08-28 09:20:43
01. Начало мрачного сна
02. Бойцовский фестиваль с двумя участниками
Внимание! Раздача ведётся путём добавления новых серий; при каждом добавлении создаётся новый торрент. Чтобы начать докачку новой серии, пользователям необходимо сделать следующее: (1) остановить скачивание, (2) удалить старый торрент у себя из клиента (старые серии удалять не надо), (3) скачать новый торрент и запустить его у себя в клиенте вместо старого, при этом указать клиенту путь в старую папку куда и должно происходить скачивание новых серий.
Ваш клиент при этом должен произвести хеширование (проверку) старой папки (если не производит сам - помогите ему сделать это), и будет докачивать только те серии которых у вас ещё нет. Старые серии при этом не удаляются, а продолжают раздаваться!
Если вы уже удалили старые серии, то предотвратить повторную закачку старых серий можно, убрав галочку в соответствующих местах при запуске нового торрента.
<a href="viewtopic.php?t=609808" class="postLink">Как закачать отдельный файл</a>


Трекер:  [ 06-Сен-2016 15:00 ]

  

Скачать .torrent

Размер .torrent файла 34 KB


Размер: 839 MB
Хэш (hash) релиза: 375655bbdd783ef7f575f241cea06d2ee23e0c64
Подписка на обновления:

Торренты, похожие на Семь смертных грехов: Знамение священной войны Nanatsu no Taizai: Seisen no Shirushi скачать торрент

Форум Название Автор Размер S L Добавлен
Аниме | HD Rips ·· Семь смертных грехов: Знамение священной войны / Nanatsu no Taizai: Seisen no Shirushi [Special] [4 из 4] [без хардсаба] [RUS(ext), JAP+SUB] [2016, комедия, фэнтези, сёнэн, BDRip] [1080p] Galfimbul 56590485465.27 GB 0 0 1505961341

05:35

21-Сен-17

Аниме | HD Rips ·· Семь смертных грехов: Знамение священной войны / Nanatsu no Taizai: Seisen no Shirushi (Токоро Томокадзу) [Special] [4 из 4] [без хардсаба] [RUS(ext), JAP+SUB] [2016, комедия, фэнтези, BDRip] [720p] Galfimbul 24535658542.29 GB 0 0 1502629382

16:03

13-Авг-17

Аниме | HD Rips ·· Семь смертных грехов: Знамение священной войны / Nanatsu no Taizai: Seisen no Shirushi [Special] [4 из 4] [Без хардсаба] [RUS(ext), JAP+SUB] [2016, приключения, фэнтези, сёнен, BDRemuz] [1080p] Galfimbul 3043259014428.34 GB 0 0 1502591473

05:31

13-Авг-17

Аниме | HD Rips ·· Семь смертных грехов: Знамение священной войны / Nanatsu no Taizai: Seisen no Shirushi [Special] [4 из 4] [Без хардсаба] [RUS(int), JAP+SUB] [2016, экшен, приключения, фэнтези, сёнен, HDTVRip] [720p] Galfimbul 18055496151.68 GB 0 0 1478625077

20:11

8-Ноя-16

Аниме | HD Rips ·· Семь смертных грехов: Знамение священной войны / Nanatsu no Taizai: Seisen no Shirushi [Special] [2 из 4] [Без хардсаба] [RUS(int), JAP+SUB] [2016, экшен, приключения, фэнтези, сёнен, HDTVRip] [720p] Galfimbul 946130577902 MB 0 0 1478104880

19:41

2-Ноя-16

Аниме | HD Rips ·· Семь смертных грехов: Знамение священной войны / Nanatsu no Taizai: Seisen no Shirushi [Special] [4 из 4] [Без хардсаба] [JAP, SUB] [2016 г., экшен, приключения, фэнтези, сёнен, HDTVRip] [720p] Galfimbul 16736785481.56 GB 0 0 1474283285

14:08

19-Сен-16

Аниме | HD Rips ·· Семь смертных грехов: Знамение священной войны / Nanatsu no Taizai: Seisen no Shirushi [Special] [1-3 из 4] [Без хардсаба] [JAP, SUB] [2016 г., экшен, приключения, фэнтези, сёнен, HDTVRip] [720p] Galfimbul 12915717621.2 GB 0 0 1473713785

23:56

12-Сен-16

Аниме | HD Rips ·· Семь смертных грехов: Знамение священной войны / Nanatsu no Taizai: Seisen no Shirushi [Special] [1 из 4] [Без хардсаба] [JAP, SUB] [2016 г., экшен, приключения, фэнтези, сёнен, HDTVRip] [720p] Galfimbul 422598993403 MB 0 0 1472428644

02:57

29-Авг-16

Еще никто не оставлял запись к записи скачать торрент Семь смертных грехов: Знамение священной войны Nanatsu no Taizai: Seisen no Shirushi . Будь первым!

!Обратная связь