Скачать через торрент музыку Бэтмен Batman: The Animated Series бесплатно без регистрации torrent

Если у вас наблюдаются проблемы со скриншотами, переходом по ссылками, скачиванием торрентов - проблемы в блокировщике рекламы AdBlock. #хорошегоДня!


Статистика раздачи
Размер:  4.81 GB   |    Зарегистрирован:  1 год 3 месяца   |    .torrent скачан:  11 раз   |   
Раздают:  1  
   
Загрузка...
 
Автор Сообщение

Galfimbul

avatar Galfimbul


Бэтмен / Batman: The Animated Series (Complete Soundtrack Collection)

Жанр: Score | Композиторы: Shirley Walker & Various
Год выпуска диска: 2012-2016 | Год выпуска сериала: 1992
Страна-производитель диска: USA | Издатель (лейбл): La-La-Land Records
Аудио кодек: FLAC (*.flac)
Тип рипа: image+.cue
Битрейт аудио: lossless

Общая продолжительность: 14:54:38
Источник: собственные рипы
Наличие сканов в содержимом раздачи: да (600 dpi)
Содержание
Номер по каталогу: LLLCD 1217
Продолжительность: 02.09.29 (62.03 + 67.26)

Треклист
01. Batman: The Animated Series - Main Title [01:03.59]
Composed by Danny Elfman

On Leather Wings - music by Shirley Walker
02. Sub-Main Title / Batwing / Bat Attack [01:50.72]
03. Batman Drives To Gotham [00:59.44]
04. Batman Investigates / Batman Uses Infrared / Police Rush Building [01:48.33]
05. Batman Escapes / Batman Flies [01:47.43]
06. Bats / Evidence Goes Up In Smoke / The Formula / Dr. Jekyll And Mr. Bat [03:01.16]
07. Gotham From The Air / Ride 'Em Batman / Epilogue [02:15.38]

The Last Laugh - music by Shirley Walker
08. Sub-Main Title [01:35.02]
09. The Submarine / Joker Loots Gotham [02:36.27]
10. Alfred Loses It [00:57.17]
11. Bat Boat / Batman Catches The Big Fish / Batman Fights The Bad Guys [02:18.09]
12. Cliff-Hanger Under Water / Batman A.K.A. Houdini [01:54.52]
13. Batman The Terminator [02:01.28]
14. Batman Vs. Joker / Batman Vs Joker Part 2 [03:46.63]

It's Never Too Late - music by Lolita Ritmanis
15. Sub-Main Title / Stromwell's Flashback [02:00.43]
16. Batman On Top Of Church / Stromwell Arrives At Pete's / Thugs Exit [01:18.69]
17. Stromwell Confronts Thorn [01:15.17]
18. It's Party Time / Batman Carries Stromwell [00:49.26]
19. Stromwell Sees Joey [01:40.31]
20. Stromwell Tricks Batman / Thorn's Men Move In / Thorn Chases Stromwell [03:22.02]
21. Stromwell's Flashback #2 [01:44.54]
22. Batman Cracks Heads / Thorn Removed [01:20.63]

Pretty Poison - music by Shirley Walker, Lolita Ritmanis & Michael McCuistion
23. Ground Breaking Ceremony / Penitentiary Time Lapses [01:10.40] - Lolita Ritmanis
24. Batman Catches A Chopper / The Chopper Crashes / Rooftop Chase [01:57.44] - Michael McCuistion & Lolita Ritmanis
25. Batman Sneaks Around [01:08.64] - Lolita Ritmanis
26. A Little Plant Muzak / The Carnivorous Plant [00:59.28] - Shirley Walker
27. Batman Vs. Poison Ivy / Poison Ivy In Prison [03:51.59] - Shirley Walker & Lolita Ritmanis

Christmas With The Joker - music by Shirley Walker, Lolita Ritmanis & Michael McCuistion
28. 14 Seconds Opening / Jingle Bells / The Joker Blasts Off [01:03.26] - Shirley Walker & Lolita Ritmanis
29. Down The Mountain / Sidewalk Red Herring [00:50.47] - Lolita Ritmanis & Michael McCuistion
30. Pukey Christmas Music / Christmas With The Joker / Game Show Music [02:18.17] - Shirley Walker
31. The Train Crashes [01:19.26] - Shirley Walker
32. Observatory Cannon / Cannon Out Of Control / Robin Blows Up Cannon [01:09.57] - Lolita Ritmanis
33. More Game Show Music / Drive To The Toy Company [01:38.45] - Shirley Walker & Lolita Ritmanis
34. Nutcracker Suite Medley [01:24.34] - Michael McCuistion
35. Pie In Batman's Face / Dangling Hostages Saved / Deck The Halls [01:41.10] - Shirley Walker & Michael McCuistion
Exact Audio Copy V1.0 beta 3 from 29. August 2011

EAC extraction logfile from 4. September 2016, 14:04

Shirley Walker / Batman: The Animated Series - Volume 1 (Disc 1)

Used drive : TSSTcorpCDDVDW SH-S202H Adapter: 0 ID: 0

Read mode : SecureUtilize accurate stream : YesDefeat audio cache : YesMake use of C2 pointers : No

Read offset correction : 6Overread into Lead-In and Lead-Out : NoFill up missing offset samples with silence : YesDelete leading and trailing silent blocks : NoNull samples used in CRC calculations : YesUsed interface : Native Win32 interface for Win NT & 2000

Used output format : Internal WAV RoutinesSample format : 44.100 Hz; 16 Bit; Stereo

TOC of the extracted CD

Track | Start | Length | Start sector | End sector --------------------------------------------------------- 1 | 0:00.00 | 1:03.59 | 0 | 4783 2 | 1:03.59 | 1:50.72 | 4784 | 13105 3 | 2:54.56 | 0:59.44 | 13106 | 17574 4 | 3:54.25 | 1:48.33 | 17575 | 25707 5 | 5:42.58 | 1:47.43 | 25708 | 33775 6 | 7:30.26 | 3:01.16 | 33776 | 47366 7 | 10:31.42 | 2:15.38 | 47367 | 57529 8 | 12:47.05 | 1:35.02 | 57530 | 64656 9 | 14:22.07 | 2:36.27 | 64657 | 76383 10 | 16:58.34 | 0:57.17 | 76384 | 80675 11 | 17:55.51 | 2:18.09 | 80676 | 91034 12 | 20:13.60 | 1:54.52 | 91035 | 99636 13 | 22:08.37 | 2:01.28 | 99637 | 108739 14 | 24:09.65 | 3:46.63 | 108740 | 125752 15 | 27:56.53 | 2:00.43 | 125753 | 134795 16 | 29:57.21 | 1:18.69 | 134796 | 140714 17 | 31:16.15 | 1:15.17 | 140715 | 146356 18 | 32:31.32 | 0:49.26 | 146357 | 150057 19 | 33:20.58 | 1:40.31 | 150058 | 157588 20 | 35:01.14 | 3:22.02 | 157589 | 172740 21 | 38:23.16 | 1:44.54 | 172741 | 180594 22 | 40:07.70 | 1:20.63 | 180595 | 186657 23 | 41:28.58 | 1:10.40 | 186658 | 191947 24 | 42:39.23 | 1:57.44 | 191948 | 200766 25 | 44:36.67 | 1:08.64 | 200767 | 205930 26 | 45:45.56 | 0:59.28 | 205931 | 210383 27 | 46:45.09 | 3:51.59 | 210384 | 227767 28 | 50:36.68 | 1:03.26 | 227768 | 232518 29 | 51:40.19 | 0:50.47 | 232519 | 236315 30 | 52:30.66 | 2:18.17 | 236316 | 246682 31 | 54:49.08 | 1:19.26 | 246683 | 252633 32 | 56:08.34 | 1:09.57 | 252634 | 257865 33 | 57:18.16 | 1:38.45 | 257866 | 265260 34 | 58:56.61 | 1:24.34 | 265261 | 271594 35 | 60:21.20 | 1:41.10 | 271595 | 279179

Range status and errors

Selected range

Filename D:\Shirley Walker - Batman- The Animated Series - Volume 1\Shirley Walker - Batman- The Animated Series - Volume 1 (Disc 1).wav

Peak level 99.9 % Extraction speed 7.7 X Range quality 99.9 % Test CRC F03DF281 Copy CRC F03DF281 Copy OK

No errors occurred

AccurateRip summary

Track 1 accurately ripped (confidence 9) [EAAACBD4] (AR v2)Track 2 accurately ripped (confidence 9) [25C7E90C] (AR v2)Track 3 accurately ripped (confidence 9) [1A0F751C] (AR v2)Track 4 accurately ripped (confidence 9) [E2810E7C] (AR v2)Track 5 accurately ripped (confidence 9) [7DB1BB64] (AR v2)Track 6 accurately ripped (confidence 9) [4F563CE3] (AR v2)Track 7 accurately ripped (confidence 9) [CC1D8311] (AR v2)Track 8 accurately ripped (confidence 9) [8717618C] (AR v2)Track 9 accurately ripped (confidence 9) [F343994D] (AR v2)Track 10 accurately ripped (confidence 9) [9EA6ED61] (AR v2)Track 11 accurately ripped (confidence 9) [D7CA5C1B] (AR v2)Track 12 accurately ripped (confidence 9) [93C850C8] (AR v2)Track 13 accurately ripped (confidence 9) [267EE3ED] (AR v2)Track 14 accurately ripped (confidence 9) [8174E915] (AR v2)Track 15 accurately ripped (confidence 9) [33E5EE78] (AR v2)Track 16 accurately ripped (confidence 9) [A534FC92] (AR v2)Track 17 accurately ripped (confidence 9) [570F0E56] (AR v2)Track 18 accurately ripped (confidence 9) [276CCF63] (AR v2)Track 19 accurately ripped (confidence 9) [1857C392] (AR v2)Track 20 accurately ripped (confidence 9) [5A6B318D] (AR v2)Track 21 accurately ripped (confidence 9) [E31CE522] (AR v2)Track 22 accurately ripped (confidence 9) [B66A1693] (AR v2)Track 23 accurately ripped (confidence 9) [9F61C269] (AR v2)Track 24 accurately ripped (confidence 9) [0DE3CAC0] (AR v2)Track 25 accurately ripped (confidence 9) [936A4615] (AR v2)Track 26 accurately ripped (confidence 9) [02277EF1] (AR v2)Track 27 accurately ripped (confidence 9) [0F100C25] (AR v2)Track 28 accurately ripped (confidence 9) [8D0E95E9] (AR v2)Track 29 accurately ripped (confidence 9) [827A2701] (AR v2)Track 30 accurately ripped (confidence 9) [2E66F973] (AR v2)Track 31 accurately ripped (confidence 9) [45E1E602] (AR v2)Track 32 accurately ripped (confidence 9) [CE476118] (AR v2)Track 33 accurately ripped (confidence 9) [DF5EFEF1] (AR v2)Track 34 accurately ripped (confidence 8) [9744233B] (AR v2)Track 35 accurately ripped (confidence 9) [FA81ED9B] (AR v2)

All tracks accurately ripped

End of status report

==== Log checksum 800CBD32345747A65553C593F82173348BB1103EC10ABCBCACFD6E595AEE39ED ====
01. Batman: The Animated Series - Alternate Main Title [01:09.46]
Composed by Shirley Walker

Two Face, Part I - music by Shirley Walker
02. Harvey's Nightmare / Dent's Soap Box [02:23.71]
03. Batman Tracks Dent [02:07.20]
04. Split Personality / Harvey / Harv [04:21.12]

Two Face, Part II - music by Shirley Walker
05. Part One Recap [00:33.70]
06. Sub-Main Title / The Heist [01:48.71]
07. Bruce Wayne's Nightmare / Two-Face Remembers [02:47.07]
08. Batcycle / What About Grace [01:57.60]
09. My Name Is Two-Face [01:52.02]
10. The Great Equalizer / Where There's Love [04:02.61]

Joker's Favor - music by Shirley Walker
11. Sub-Main Title / Cussing Out The Joker / I Had A Bad Day [03:17.46]
12. Joker's Hide-Out [01:20.10]
13. Charlie's Neighborhood / Joker Finds Charlie [01:18.14]
14. Charlie Arrives In Gotham / Joker Collects His Favor [00:41.67]
15. Harley's Party Source [00:45.20]
16. Crashing The Party [01:32.47]
17. Batman Saves The Commissioner / Batman's After The Joker / Charlie Gets The Joker [03:37.33]

Vendetta - music by Michael McCuistion
18. Sub-Main Title / Conway Is Abducted [00:46.12]
19. A Clue / The Crocodile's Lair [01:28.54]
20. Another Clue [01:19.05]
21. Croc's Cave / Killer Croc [02:52.60]
22. Batman Chases Croc / Sewer Fight [02:55.69]
23. Bullock Gets The Croc [01:10.37]

Perchance To Dream - music by Shirley Walker
24. Sub-Main Title / The Dream Begins [00:54.08]
25. It's Impossible / Bruce Sees Batman / Bruce Watches Batman At Work [02:15.16]
26. My Life Is A Dream [02:49.16]
27. Climbing The Church Tower / Belltower Fight [02:44.69]
28. Your Own Private Wonderland / Back To Reality [02:47.74]

Birds Of A Feather - music by Shirley Walker
29. Birds Of A Feather [01:54.03]
30. That Fine Roman Nose / Penguin Vs. Muggers [02:31.27]
31. Penguin Takes Veronica [00:39.61]
32. The Drop / Rubber Duckie Ride [01:48.63]
33. The Penguin's Opera / High Society [02:19.21]

34. Batman: The Animated Series - End Credits [00:30.12]
Composed by Danny Elfman
Exact Audio Copy V1.0 beta 3 from 29. August 2011

EAC extraction logfile from 21. August 2016, 19:24

Shirley Walker / Batman: The Animated Series - Volume 1 (Disc 2)

Used drive : TSSTcorpCDDVDW SH-S202H Adapter: 0 ID: 0

Read mode : SecureUtilize accurate stream : YesDefeat audio cache : YesMake use of C2 pointers : No

Read offset correction : 6Overread into Lead-In and Lead-Out : NoFill up missing offset samples with silence : YesDelete leading and trailing silent blocks : NoNull samples used in CRC calculations : YesUsed interface : Native Win32 interface for Win NT & 2000

Used output format : Internal WAV RoutinesSample format : 44.100 Hz; 16 Bit; Stereo

TOC of the extracted CD

Track | Start | Length | Start sector | End sector --------------------------------------------------------- 1 | 0:00.00 | 1:09.46 | 0 | 5220 2 | 1:09.46 | 2:23.71 | 5221 | 16016 3 | 3:33.42 | 2:07.20 | 16017 | 25561 4 | 5:40.62 | 4:21.12 | 25562 | 45148 5 | 10:01.74 | 0:33.70 | 45149 | 47693 6 | 10:35.69 | 1:48.71 | 47694 | 55864 7 | 12:24.65 | 2:47.07 | 55865 | 68396 8 | 15:11.72 | 1:57.60 | 68397 | 77231 9 | 17:09.57 | 1:52.02 | 77232 | 85633 10 | 19:01.59 | 4:02.61 | 85634 | 103844 11 | 23:04.45 | 3:17.46 | 103845 | 118665 12 | 26:22.16 | 1:20.10 | 118666 | 124675 13 | 27:42.26 | 1:18.14 | 124676 | 130539 14 | 29:00.40 | 0:41.67 | 130540 | 133681 15 | 29:42.32 | 0:45.20 | 133682 | 137076 16 | 30:27.52 | 1:32.47 | 137077 | 144023 17 | 32:00.24 | 3:37.33 | 144024 | 160331 18 | 35:37.57 | 0:46.12 | 160332 | 163793 19 | 36:23.69 | 1:28.54 | 163794 | 170447 20 | 37:52.48 | 1:19.05 | 170448 | 176377 21 | 39:11.53 | 2:52.60 | 176378 | 189337 22 | 42:04.38 | 2:55.69 | 189338 | 202531 23 | 45:00.32 | 1:10.37 | 202532 | 207818 24 | 46:10.69 | 0:54.08 | 207819 | 211876 25 | 47:05.02 | 2:15.16 | 211877 | 222017 26 | 49:20.18 | 2:49.16 | 222018 | 234708 27 | 52:09.34 | 2:44.69 | 234709 | 247077 28 | 54:54.28 | 2:47.74 | 247078 | 259676 29 | 57:42.27 | 1:54.03 | 259677 | 268229 30 | 59:36.30 | 2:31.27 | 268230 | 279581 31 | 62:07.57 | 0:39.61 | 279582 | 282567 32 | 62:47.43 | 1:48.63 | 282568 | 290730 33 | 64:36.31 | 2:19.21 | 290731 | 301176 34 | 66:55.52 | 0:30.12 | 301177 | 303438

Range status and errors

Selected range

Filename D:\Shirley Walker - Batman- The Animated Series - Volume 1\Shirley Walker - Batman- The Animated Series - Volume 1 (Disc 2).wav

Peak level 99.9 % Extraction speed 8.1 X Range quality 100.0 % Test CRC 9CFBB78F Copy CRC 9CFBB78F Copy OK

No errors occurred

AccurateRip summary

Track 1 accurately ripped (confidence 9) [28469E0E] (AR v2)Track 2 accurately ripped (confidence 9) [66663356] (AR v2)Track 3 accurately ripped (confidence 9) [BFAEDCC3] (AR v2)Track 4 accurately ripped (confidence 9) [1A9A154C] (AR v2)Track 5 accurately ripped (confidence 9) [849C071E] (AR v2)Track 6 accurately ripped (confidence 9) [EB598A84] (AR v2)Track 7 accurately ripped (confidence 9) [1CF7DA0A] (AR v2)Track 8 accurately ripped (confidence 9) [426DD040] (AR v2)Track 9 accurately ripped (confidence 9) [BD6202D6] (AR v2)Track 10 accurately ripped (confidence 9) [01069856] (AR v2)Track 11 accurately ripped (confidence 9) [1BD4233F] (AR v2)Track 12 accurately ripped (confidence 9) [E4943FA9] (AR v2)Track 13 accurately ripped (confidence 9) [535F987A] (AR v2)Track 14 accurately ripped (confidence 9) [842651FE] (AR v2)Track 15 accurately ripped (confidence 9) [8AEB5E8D] (AR v2)Track 16 accurately ripped (confidence 9) [C91309C4] (AR v2)Track 17 accurately ripped (confidence 9) [0629B6FA] (AR v2)Track 18 accurately ripped (confidence 9) [9A7483A5] (AR v2)Track 19 accurately ripped (confidence 9) [D40E0999] (AR v2)Track 20 accurately ripped (confidence 9) [C4A3269C] (AR v2)Track 21 accurately ripped (confidence 9) [7C9E9A45] (AR v2)Track 22 accurately ripped (confidence 9) [7CA3CC1E] (AR v2)Track 23 accurately ripped (confidence 9) [8A428D03] (AR v2)Track 24 accurately ripped (confidence 9) [AC1E9538] (AR v2)Track 25 accurately ripped (confidence 9) [3F686B57] (AR v2)Track 26 accurately ripped (confidence 9) [EE9CB6D6] (AR v2)Track 27 accurately ripped (confidence 9) [E6A85893] (AR v2)Track 28 accurately ripped (confidence 9) [0251E051] (AR v2)Track 29 accurately ripped (confidence 9) [DE335BBD] (AR v2)Track 30 accurately ripped (confidence 9) [EFF2C6AC] (AR v2)Track 31 accurately ripped (confidence 9) [EC6B4341] (AR v2)Track 32 accurately ripped (confidence 9) [E70A0886] (AR v2)Track 33 accurately ripped (confidence 9) [9486DF70] (AR v2)Track 34 accurately ripped (confidence 9) [3A308E8D] (AR v2)

All tracks accurately ripped

End of status report

==== Log checksum F32A993B2CC6D967235999D80FB3CDE1E590E63514AA6098B5393D5566CF14AB ====
Номер по каталогу: LLLCD 1218
Продолжительность: 04.54.59 (76.13 + 78.24 + 72.25 + 67.59)

Треклист
01. Batman: The Animated Series - Main Title [01:04.43]
Composed by Danny Elfman

Beware The Grey Ghost - music by Carl Swander Johnson
02. Beware The Grey Ghost [00:54.27]
03. Simon Trent [01:47.20]
04. Trent Meets Batman / Trent Runs [01:33.15]
05. He Runs But He Can't Hide [00:35.57]
06. Trent Helps Batman [00:54.51]
07. Lethal Toys / The Ghost Saves Batman [01:25.14]
08. Toy Car Chase [00:42.45]
09. Grey Ghost's Shrine / Mistaken Identity [00:46.36]
10. Twisted Ted/Up In Smoke [01:36.10]
11. Bruce's Hero [00:30.45]

Bonus Track
12. Gray Ghost Suite [01:23.55]

The Cat And The Claw, Part I - music by Harvey R. Cohen, Wayne Coster & Shirley Walker
13. The Catwoman [04:50.73] - Shirley Walker
14. Riding The Truck [01:01.20] - Wayne Coster
15. Multigon International [00:17.55] - Wayne Coster
16. Introducing Red Claw / A Word With The Boss [00:55.24] - Harvey R. Cohen & Wayne Coster
17. Catwoman At Multigon H.Q. / Cats In The Office [01:30.67] - Shirley Walker
18. Batman Rescues Catwoman / Lovers Or Enemies [03:32.54] - Harvey R. Cohen & Wayne Coster
19. Who Will Save You? [00:30.20] - Wayne Coster

The Cat And The Claw, Part II - music by Harvey R. Cohen
20. The Cat And The Claw [00:43.47]
21. The Train [01:59.32]
22. Bruce Wayne's Chaperone / A Bumpy Ride [01:57.09]
23. Alley Cat / Catwoman Strikes [03:30.13]
24. Bat Draft [02:14.34]
25. The Fallen Resort [00:56.55]
26. More Than You'll Ever Know [00:45.59]

Bonus Tracks
27. String Quartet [01:00.43] - Wayne Coster
28. Ode To Joy [00:09.47] - Shirley Walker
29. Introducing Red Claw (Alternate) [00:39.07] - Harvey R. Cohen
30. Ode To Joy Alternates [00:27.64] - Shirley Walker

Nothing To Fear - music by Shirley Walker
31. Nothing To Fear [00:42.42]
32. Machine Gun / The Scarecrow Arrives [01:42.37]
33. The Vault / Sprinklers [03:21.73]
34. Scarecrow's Hideout [00:21.42]
35. Scarecrow's Backstory [00:35.20]
36. Batman's Flashback / Batman And Alfred [00:45.52]
37. Scarecrow Invades The Museum / Scarecrow's Attempt At Escape [02:12.39]
38. Dirigible Flight / Fear Strikes Again / Escape And Explosion [03:22.13]
39. Scarecrow Discovered / Scarecrow Is Captured / Scarecrow On A Skewer [01:54.08]

Nothing To Fear - music by Shirley Walker & Todd Hayen
40. Heart Of Ice [00:37.46] - Shirley Walker
41. The Ice Man Cometh Again / Cold As Ice [03:30.24] - Shirley Walker & Todd Hayen
42. Top Secret [00:57.06] - Todd Hayen
43. The Swift Hand Of Vengeance [01:54.62] - Shirley Walker
44. Ice Assault / Frigid Frenzey / Alfred's Cold Remedy [02:34.32] - Todd Hayen
45. Arkham Asylum [00:58.53] - Shirley Walker

Bonus Tracks
46. Newsbreak (Expanded) [00:44.01] - Shirley Walker
47. Benefit Classic [01:15.23] - Todd Hayen
48. Office Muzak [02:25.31] - Todd Hayen
49. The Ice Man Cometh Again (Alternate) [02:53.06] - Shirley Walker

50. Danny Elfman / Batman: The Animated Series - End Credits (Extended) [03:05.15] + hidden Easter Egg!!!
Composed by Danny Elfman
Exact Audio Copy V1.0 beta 3 from 29. August 2011

EAC extraction logfile from 21. August 2016, 20:38

Shirley Walker / Batman: The Animated Series - Volume 2 (Disc 1)

Used drive : TSSTcorpCDDVDW SH-S202H Adapter: 0 ID: 0

Read mode : SecureUtilize accurate stream : YesDefeat audio cache : YesMake use of C2 pointers : No

Read offset correction : 6Overread into Lead-In and Lead-Out : NoFill up missing offset samples with silence : YesDelete leading and trailing silent blocks : NoNull samples used in CRC calculations : YesUsed interface : Native Win32 interface for Win NT & 2000

Used output format : Internal WAV RoutinesSample format : 44.100 Hz; 16 Bit; Stereo

TOC of the extracted CD

Track | Start | Length | Start sector | End sector --------------------------------------------------------- 1 | 0:00.00 | 1:04.43 | 0 | 4842 2 | 1:04.43 | 0:54.27 | 4843 | 8919 3 | 1:58.70 | 1:47.20 | 8920 | 16964 4 | 3:46.15 | 1:33.15 | 16965 | 23954 5 | 5:19.30 | 0:35.57 | 23955 | 26636 6 | 5:55.12 | 0:54.51 | 26637 | 30737 7 | 6:49.63 | 1:25.14 | 30738 | 37126 8 | 8:15.02 | 0:42.45 | 37127 | 40321 9 | 8:57.47 | 0:46.36 | 40322 | 43807 10 | 9:44.08 | 1:36.10 | 43808 | 51017 11 | 11:20.18 | 0:30.45 | 51018 | 53312 12 | 11:50.63 | 1:23.55 | 53313 | 59592 13 | 13:14.43 | 4:50.73 | 59593 | 81415 14 | 18:05.41 | 1:01.20 | 81416 | 86010 15 | 19:06.61 | 0:17.55 | 86011 | 87340 16 | 19:24.41 | 0:55.24 | 87341 | 91489 17 | 20:19.65 | 1:30.67 | 91490 | 98306 18 | 21:50.57 | 3:32.54 | 98307 | 114260 19 | 25:23.36 | 0:30.20 | 114261 | 116530 20 | 25:53.56 | 0:43.47 | 116531 | 119802 21 | 26:37.28 | 1:59.32 | 119803 | 128759 22 | 28:36.60 | 1:57.09 | 128760 | 137543 23 | 30:33.69 | 3:30.13 | 137544 | 153306 24 | 34:04.07 | 2:14.34 | 153307 | 163390 25 | 36:18.41 | 0:56.55 | 163391 | 167645 26 | 37:15.21 | 0:45.59 | 167646 | 171079 27 | 38:01.05 | 1:00.43 | 171080 | 175622 28 | 39:01.48 | 0:09.47 | 175623 | 176344 29 | 39:11.20 | 0:39.07 | 176345 | 179276 30 | 39:50.27 | 0:27.64 | 179277 | 181365 31 | 40:18.16 | 0:42.42 | 181366 | 184557 32 | 41:00.58 | 1:42.37 | 184558 | 192244 33 | 42:43.20 | 3:21.73 | 192245 | 207392 34 | 46:05.18 | 0:21.42 | 207393 | 209009 35 | 46:26.60 | 0:35.20 | 209010 | 211654 36 | 47:02.05 | 0:45.52 | 211655 | 215081 37 | 47:47.57 | 2:12.39 | 215082 | 225020 38 | 50:00.21 | 3:22.13 | 225021 | 240183 39 | 53:22.34 | 1:54.08 | 240184 | 248741 40 | 55:16.42 | 0:37.46 | 248742 | 251562 41 | 55:54.13 | 3:30.24 | 251563 | 267336 42 | 59:24.37 | 0:57.06 | 267337 | 271617 43 | 60:21.43 | 1:54.62 | 271618 | 280229 44 | 62:16.30 | 2:34.32 | 280230 | 291811 45 | 64:50.62 | 0:58.53 | 291812 | 296214 46 | 65:49.40 | 0:44.01 | 296215 | 299515 47 | 66:33.41 | 1:15.23 | 299516 | 305163 48 | 67:48.64 | 2:25.31 | 305164 | 316069 49 | 70:14.20 | 2:53.06 | 316070 | 329050 50 | 73:07.26 | 3:05.15 | 329051 | 342940

Range status and errors

Selected range

Filename D:\Shirley Walker - Batman- The Animated Series - Volume 2\Shirley Walker - Batman- The Animated Series - Volume 2 (Disc 1).wav

Peak level 99.9 % Extraction speed 3.3 X Range quality 100.0 % Test CRC 6FB4B055 Copy CRC 6FB4B055 Copy OK

No errors occurred

AccurateRip summary

Track 1 accurately ripped (confidence 18) [8B914220] (AR v2)Track 2 accurately ripped (confidence 18) [33F07F79] (AR v2)Track 3 accurately ripped (confidence 18) [CDD0FBF1] (AR v2)Track 4 accurately ripped (confidence 18) [BCDDEAB5] (AR v2)Track 5 accurately ripped (confidence 18) [B10F04AB] (AR v2)Track 6 accurately ripped (confidence 18) [6CAA4FAC] (AR v2)Track 7 accurately ripped (confidence 18) [339F9968] (AR v2)Track 8 accurately ripped (confidence 18) [483F025E] (AR v2)Track 9 accurately ripped (confidence 18) [FB7E3A7B] (AR v2)Track 10 accurately ripped (confidence 18) [B894F908] (AR v2)Track 11 accurately ripped (confidence 18) [3C5BAAD9] (AR v2)Track 12 accurately ripped (confidence 18) [EDB0BDFF] (AR v2)Track 13 accurately ripped (confidence 18) [135EFCCE] (AR v2)Track 14 accurately ripped (confidence 18) [C443400D] (AR v2)Track 15 accurately ripped (confidence 18) [BD47C0BD] (AR v2)Track 16 accurately ripped (confidence 18) [8136A25B] (AR v2)Track 17 accurately ripped (confidence 18) [9859CF5D] (AR v2)Track 18 accurately ripped (confidence 18) [68BEFF6B] (AR v2)Track 19 accurately ripped (confidence 18) [B03812A7] (AR v2)Track 20 accurately ripped (confidence 18) [FD213366] (AR v2)Track 21 accurately ripped (confidence 18) [199D7531] (AR v2)Track 22 accurately ripped (confidence 18) [A5D14465] (AR v2)Track 23 accurately ripped (confidence 18) [F2A69215] (AR v2)Track 24 accurately ripped (confidence 18) [A4399185] (AR v2)Track 25 accurately ripped (confidence 18) [8B106332] (AR v2)Track 26 accurately ripped (confidence 18) [DDA4A626] (AR v2)Track 27 accurately ripped (confidence 18) [AEF98B10] (AR v2)Track 28 accurately ripped (confidence 18) [F537C4A8] (AR v2)Track 29 accurately ripped (confidence 18) [FAEEF63B] (AR v2)Track 30 accurately ripped (confidence 18) [531C9779] (AR v2)Track 31 accurately ripped (confidence 18) [81B555A7] (AR v2)Track 32 accurately ripped (confidence 18) [6F7569AE] (AR v2)Track 33 accurately ripped (confidence 18) [3AE441B1] (AR v2)Track 34 accurately ripped (confidence 18) [380C433D] (AR v2)Track 35 accurately ripped (confidence 18) [EB92E707] (AR v2)Track 36 accurately ripped (confidence 18) [D9E45BCF] (AR v2)Track 37 accurately ripped (confidence 18) [EA5B7F3A] (AR v2)Track 38 accurately ripped (confidence 18) [4EF3ECFC] (AR v2)Track 39 accurately ripped (confidence 18) [F3A0C0F3] (AR v2)Track 40 accurately ripped (confidence 18) [13087EE8] (AR v2)Track 41 accurately ripped (confidence 18) [0EE8C275] (AR v2)Track 42 accurately ripped (confidence 18) [C61E69B5] (AR v2)Track 43 accurately ripped (confidence 18) [3873873A] (AR v2)Track 44 accurately ripped (confidence 18) [3BEEA953] (AR v2)Track 45 accurately ripped (confidence 17) [7F12F117] (AR v2)Track 46 accurately ripped (confidence 18) [F0C31183] (AR v2)Track 47 accurately ripped (confidence 18) [DD9914CE] (AR v2)Track 48 accurately ripped (confidence 18) [2CB14B34] (AR v2)Track 49 accurately ripped (confidence 18) [87BEE909] (AR v2)Track 50 accurately ripped (confidence 17) [1BF7052D] (AR v2)

All tracks accurately ripped

End of status report

==== Log checksum 6DEE715A82FD94D3B31F4472DCA279DF7DC44262F3684790E8B846191C2C6F77 ====
01. Batman: The Animated Series - Main Title (Piano Version) [01:03.15]
Composed by Danny Elfman & Shirley Walker

Appointment In Crime Alley - music by Stuart Balcomb
02. Sub-Main Title [00:31.06]
03. Batman Drives To Crime Alley / Where Are We Going To Go? [02:23.20]
04. I'm Not Afraid Here [01:12.14]
05. Searching For Leslie / Leslie's Held Captive [00:49.20]
06. The Billboard [00:51.54]
07. Baby Picture [01:59.32]
08. Chasing The Trolley / Trolley Rescue [01:27.52]
09. Batman Sees The Newstand Clock / Leslie Sweats / Batman Swings During Speech [01:09.31]
10. Good People In Crime Alley [00:37.62]

Mad As A Hatter - music by Harvey R. Cohen
11. Mad As A Hatter [00:59.65]
12. Poor Jervis / Frabjous Day [01:59.63]
13. A Walk In The Park [00:37.47]
14. Ejection / The Plunger [01:15.14]
15. The Mock Turtle Song [00:34.23]
16. Until Tomorrow / Will You, Won't You [01:02.70]
17. All's Fair In Love And War / Mad Hatter's Friends / Storybook Land [03:04.31]
18. Off With His Head / The Maze / Batman Comes To Tea [04:14.69]

Bonus Track
19. Dining With Jervis [01:17.48]

The Strange Secret Of Bruce Wayne - music by Lolita Ritmanis
20. The Strange Secret / Batman Intervenes [02:21.28]
21. Tragic Past [01:22.47]
22. The Strange Doctor / The Joker's Phone Message / Strange Has Left The Building [00:58.29]
23. The Diabolical Plan [03:07.12]
24. Bruce Makes Another Tape [00:45.08]
25. Strange Tries To Run / Flying The Unfriendly Skies / Running On Empty / Batman Makes The Catch / Robin Is Revealed [02:59.50]

I've Got A Batman In My Basement - music by Shirley Walker & Carlos Rodriguez
26. The Heist [02:17.31] - Shirley Walker
27. Sherman Tracks Vulture / Birdseed / Penguin Revealed [01:35.48] - Shirley Walker
28. Batman Gets Gassed [02:11.24] - Shirley Walker
29. Batmobile Goes Bats / Sherman And The Batmobile [02:08.43] - Shirley Walker & Carlos Rodriguez
30. The Vulture Flies / It's A Matter Of Life And Death [00:42.71] - Shirley Walker
31. Vulture Attack / Penguin Pays A Visit [01:03.52] - Shirley Walker
32. It's Them Or Us / Polite Penguin [01:48.69] - Shirley Walker
33. Penguin The Bully / Batman Vs. Penguin [02:19.71] - Shirley Walker
34. Front Page Penguin [00:40.49] - Shirley Walker

Feat Of Clay, Part I - music by Jeff Atmajian, Carl Swander Johnson & Shirley Walker
35. Feat Of Clay [01:09.28] - Jeff Atmajian
36. Mr. Fox's Resignation [03:31.55] - Shirley Walker
37. Matt's Make-Up [01:30.69] - Shirley Walker
38. Matt Finds The Formula [00:34.39] - Carl Swander Johnson
39. Creation Of Clayface [00:44.39] - Jeff Atmajian
40. Bell Goes For A Ride [01:56.25] - Carl Swander Johnson
41. Bruce Looks For Answers [00:49.23] - Jeff Atmajian
42. Teddy Discovers Clayface [00:42.73] - Shirley Walker

Feat Of Clay, Part II - music by Shirley Walker
43. Sub-Main Title [00:35.56]
44. Arrival At Imperial Pictures [00:19.18]
45. Man Of Many Faces [02:11.14]
46. Suffocation For Fox / Foiled By Batman [01:08.07]
47. Batman Confronts Clayface / The Matt Hagen Films [03:08.52]
48. Batman Confrontation With Clayface / Clayface Dies [04:48.20]
49. The Morgue [00:49.41]

50. Batman: The Animated Series - End Credits (Alternate Beginning) [00:48.11]
Composed by Danny Elfman
Exact Audio Copy V1.0 beta 3 from 29. August 2011

EAC extraction logfile from 21. August 2016, 21:21

Shirley Walker / Batman: The Animated Series - Volume 2 (Disc 2)

Used drive : TSSTcorpCDDVDW SH-S202H Adapter: 0 ID: 0

Read mode : SecureUtilize accurate stream : YesDefeat audio cache : YesMake use of C2 pointers : No

Read offset correction : 6Overread into Lead-In and Lead-Out : NoFill up missing offset samples with silence : YesDelete leading and trailing silent blocks : NoNull samples used in CRC calculations : YesUsed interface : Native Win32 interface for Win NT & 2000

Used output format : Internal WAV RoutinesSample format : 44.100 Hz; 16 Bit; Stereo

TOC of the extracted CD

Track | Start | Length | Start sector | End sector --------------------------------------------------------- 1 | 0:00.00 | 1:03.15 | 0 | 4739 2 | 1:03.15 | 0:31.06 | 4740 | 7070 3 | 1:34.21 | 2:23.20 | 7071 | 17815 4 | 3:57.41 | 1:12.14 | 17816 | 23229 5 | 5:09.55 | 0:49.20 | 23230 | 26924 6 | 5:59.00 | 0:51.54 | 26925 | 30803 7 | 6:50.54 | 1:59.32 | 30804 | 39760 8 | 8:50.11 | 1:27.52 | 39761 | 46337 9 | 10:17.63 | 1:09.31 | 46338 | 51543 10 | 11:27.19 | 0:37.62 | 51544 | 54380 11 | 12:05.06 | 0:59.65 | 54381 | 58870 12 | 13:04.71 | 1:59.63 | 58871 | 67858 13 | 15:04.59 | 0:37.47 | 67859 | 70680 14 | 15:42.31 | 1:15.14 | 70681 | 76319 15 | 16:57.45 | 0:34.23 | 76320 | 78892 16 | 17:31.68 | 1:02.70 | 78893 | 83612 17 | 18:34.63 | 3:04.31 | 83613 | 97443 18 | 21:39.19 | 4:14.69 | 97444 | 116562 19 | 25:54.13 | 1:17.48 | 116563 | 122385 20 | 27:11.61 | 2:21.28 | 122386 | 132988 21 | 29:33.14 | 1:22.47 | 132989 | 139185 22 | 30:55.61 | 0:58.29 | 139186 | 143564 23 | 31:54.15 | 3:07.12 | 143565 | 157601 24 | 35:01.27 | 0:45.08 | 157602 | 160984 25 | 35:46.35 | 2:59.50 | 160985 | 174459 26 | 38:46.10 | 2:17.31 | 174460 | 184765 27 | 41:03.41 | 1:35.48 | 184766 | 191938 28 | 42:39.14 | 2:11.24 | 191939 | 201787 29 | 44:50.38 | 2:08.43 | 201788 | 211430 30 | 46:59.06 | 0:42.71 | 211431 | 214651 31 | 47:42.02 | 1:03.52 | 214652 | 219428 32 | 48:45.54 | 1:48.69 | 219429 | 227597 33 | 50:34.48 | 2:19.71 | 227598 | 238093 34 | 52:54.44 | 0:40.49 | 238094 | 241142 35 | 53:35.18 | 1:09.28 | 241143 | 246345 36 | 54:44.46 | 3:31.55 | 246346 | 262225 37 | 58:16.26 | 1:30.69 | 262226 | 269044 38 | 59:47.20 | 0:34.39 | 269045 | 271633 39 | 60:21.59 | 0:44.39 | 271634 | 274972 40 | 61:06.23 | 1:56.25 | 274973 | 283697 41 | 63:02.48 | 0:49.23 | 283698 | 287395 42 | 63:51.71 | 0:42.73 | 287396 | 290618 43 | 64:34.69 | 0:35.56 | 290619 | 293299 44 | 65:10.50 | 0:19.18 | 293300 | 294742 45 | 65:29.68 | 2:11.14 | 294743 | 304581 46 | 67:41.07 | 1:08.07 | 304582 | 309688 47 | 68:49.14 | 3:08.52 | 309689 | 323840 48 | 71:57.66 | 4:48.20 | 323841 | 345460 49 | 76:46.11 | 0:49.41 | 345461 | 349176 50 | 77:35.52 | 0:48.11 | 349177 | 352787

Range status and errors

Selected range

Filename D:\Shirley Walker - Batman- The Animated Series - Volume 2\Shirley Walker - Batman- The Animated Series - Volume 2 (Disc 2).wav

Peak level 99.9 % Extraction speed 8.5 X Range quality 100.0 % Test CRC 109E229F Copy CRC 109E229F Copy OK

No errors occurred

AccurateRip summary

Track 1 accurately ripped (confidence 18) [36C9A050] (AR v2)Track 2 accurately ripped (confidence 18) [52F1F776] (AR v2)Track 3 accurately ripped (confidence 18) [F811E359] (AR v2)Track 4 accurately ripped (confidence 18) [7954D30B] (AR v2)Track 5 accurately ripped (confidence 18) [DBA94F86] (AR v2)Track 6 accurately ripped (confidence 18) [C44EB354] (AR v2)Track 7 accurately ripped (confidence 18) [61334D45] (AR v2)Track 8 accurately ripped (confidence 18) [DFFC660C] (AR v2)Track 9 accurately ripped (confidence 18) [5888BFBD] (AR v2)Track 10 accurately ripped (confidence 18) [AFF007B8] (AR v2)Track 11 accurately ripped (confidence 18) [F943ECC9] (AR v2)Track 12 accurately ripped (confidence 18) [15FE10CD] (AR v2)Track 13 accurately ripped (confidence 18) [11F4E820] (AR v2)Track 14 accurately ripped (confidence 18) [316DC763] (AR v2)Track 15 accurately ripped (confidence 18) [4A66ECAF] (AR v2)Track 16 accurately ripped (confidence 18) [95E237BF] (AR v2)Track 17 accurately ripped (confidence 18) [6F44DC16] (AR v2)Track 18 accurately ripped (confidence 18) [EB34567E] (AR v2)Track 19 accurately ripped (confidence 18) [34D30D04] (AR v2)Track 20 accurately ripped (confidence 18) [38B7D25C] (AR v2)Track 21 accurately ripped (confidence 18) [5C7EB0FD] (AR v2)Track 22 accurately ripped (confidence 18) [DD9AB735] (AR v2)Track 23 accurately ripped (confidence 18) [666AE9C5] (AR v2)Track 24 accurately ripped (confidence 18) [6559E45D] (AR v2)Track 25 accurately ripped (confidence 18) [4ED87B4D] (AR v2)Track 26 accurately ripped (confidence 18) [D353EC05] (AR v2)Track 27 accurately ripped (confidence 18) [D767C36D] (AR v2)Track 28 accurately ripped (confidence 18) [9259F552] (AR v2)Track 29 accurately ripped (confidence 18) [DFFCB963] (AR v2)Track 30 accurately ripped (confidence 18) [85EF5298] (AR v2)Track 31 accurately ripped (confidence 18) [3D020E6E] (AR v2)Track 32 accurately ripped (confidence 18) [0DFCF192] (AR v2)Track 33 accurately ripped (confidence 18) [D8263BC0] (AR v2)Track 34 accurately ripped (confidence 18) [BDCFFB6F] (AR v2)Track 35 accurately ripped (confidence 18) [FF06162F] (AR v2)Track 36 accurately ripped (confidence 18) [674FE586] (AR v2)Track 37 accurately ripped (confidence 18) [67ABAC8F] (AR v2)Track 38 accurately ripped (confidence 18) [BC02FE27] (AR v2)Track 39 accurately ripped (confidence 18) [C81ABA0B] (AR v2)Track 40 accurately ripped (confidence 18) [2F92E0FE] (AR v2)Track 41 accurately ripped (confidence 18) [080F8A96] (AR v2)Track 42 accurately ripped (confidence 18) [D0726C25] (AR v2)Track 43 accurately ripped (confidence 18) [FEE64CBD] (AR v2)Track 44 accurately ripped (confidence 18) [62946F04] (AR v2)Track 45 accurately ripped (confidence 18) [38F00FFB] (AR v2)Track 46 accurately ripped (confidence 18) [A7460480] (AR v2)Track 47 accurately ripped (confidence 18) [80F44E2A] (AR v2)Track 48 accurately ripped (confidence 18) [8B99EF79] (AR v2)Track 49 accurately ripped (confidence 18) [15120B61] (AR v2)Track 50 accurately ripped (confidence 18) [1A9EE0E5] (AR v2)

All tracks accurately ripped

End of status report

==== Log checksum B1984070922BD5FD0639C058DAE9AA1C693E4939058910087BE51B07525DE0A6 ====
01. Batman: The Animated Series - Main Title (MIDI Version) [01:04.04]
Composed by Danny Elfman & Shirley Walker

Almost Got 'Im - music by Stuart Balcomb
02. Almost Got 'Im [01:24.31]
03. Pumpkin Patch / Batman's Scorn [01:10.70]
04. A Bad Penny [01:11.61]
05. Penguin's Setup / Birds Of A Feather [02:42.06]
06. Laugh O Meter / Catwoman To The Rescue / Catwoman KO'd [01:09.72]
07. Shadow Secrets / Cat Food For Thought / Maybe Some Day [02:08.16]

Bonus Tracks
08. Club Source #2 [00:59.18]
09. Club Source #4 [00:57.11]
10. Joker Talk Show Source (Extended) [00:49.30]
11. Joker Bumper [00:14.47]
12. Just For Laughs [01:39.46]

If You're So Smart, Why Aren't You Rich? - music by Carlos Rodriguez
13. If You're So Smart, Why Aren't You Rich? / Silent Radio [00:44.45]
14. The Wasteland / Rescue Attempt / Riddler Escapes [04:17.62]
15. Minotaur's Myth / The Griffin / Griffin Fight / Hand Of Fate [03:04.44]
16. Hijacked Hand / The Minotaur / Destroy Them / Deadbolts [03:06.08]

Bonus Tracks
17. If You're So Smart Source [02:10.41] - Shirley Walker
18. Riddle Of The Minotaur Source [00:12.58]
19. Griffin Theme [00:09.35]
20. Question Mark Motif [00:08.19]
21. Hand Of Fate Motif [00:09.36]
22. Wasteland Motif [00:07.13]
23. Musical Puzzle [00:12.25]

The Demon's Quest, Part I - music by Michael McCuistion
24. The Demon's Quest [01:47.00]
25. Sad News / Strike One [01:05.53]
26. Calcutta / Alley Fight [01:48.16]
27. Black Cat / Sweet Dreams, Kitty [02:02.39]
28. After You [00:32.66]
29. Power Trooper / The Demon's Guard / They Call Him Ra's [02:45.15]
30. Strike Three - You're Out [00:44.07]
31. The Lazarus Pit / Revitalized Demon [02:03.71]

The Demon's Quest, Part II - music by Harvey R. Cohen
32. Recap [00:51.70]
33. The Demon's Quest, Part II [01:25.62]
34. Parted Lovers / Goodbye Beloved [01:29.15]
35. Orpheus / Lets Do It / Caravan [01:47.26]
36. Pay For This Trespass [01:13.37]
37. Lower The Bombs / Crazy / To The Tower [01:10.27]
38. To Remember Me, Beloved / Countdown [01:44.22]
39. He'll Ruin Everything [03:34.66]
40. Prisoner Of Love [00:57.15]

The Laughing Fish - music by Shirley Walker
41. The Laughing Fish / Joker's Insane Scheme [03:14.63]
42. Friendly Fish Truck / Missile Fish / Francis Gets Happy (Extended) / I Know You're Watching [01:12.47]
43. Jackson's Cat [00:57.31]
44. Oceanside Aquarium / Sharkey's Appetite [02:13.00]
45. Catch Of The Day / How Do You Spell Relief? [01:57.35]
46. Batman Rides The Shark / Jumping Joker Sees Jaws / Is The Joker Gone? [03:29.46]

Bonus Tracks
47. "Joker's Fish Song" [01:03.26] - Nerida Tyson-Chew
48. Joker's Door Chime #1 [00:11.15]
49. Joker's Door Chime #2 [00:12.03]

50. Batman: The Animated Series - End Credits (Alternate Ending) [00:54.23]
Composed by Danny Elfman
Exact Audio Copy V1.0 beta 3 from 29. August 2011

EAC extraction logfile from 4. September 2016, 19:03

Shirley Walker / Batman: The Animated Series - Volume 2 (Disc 3)

Used drive : TSSTcorpCDDVDW SH-S202H Adapter: 0 ID: 0

Read mode : SecureUtilize accurate stream : YesDefeat audio cache : YesMake use of C2 pointers : No

Read offset correction : 6Overread into Lead-In and Lead-Out : NoFill up missing offset samples with silence : YesDelete leading and trailing silent blocks : NoNull samples used in CRC calculations : YesUsed interface : Native Win32 interface for Win NT & 2000

Used output format : Internal WAV RoutinesSample format : 44.100 Hz; 16 Bit; Stereo

TOC of the extracted CD

Track | Start | Length | Start sector | End sector --------------------------------------------------------- 1 | 0:00.00 | 1:04.04 | 0 | 4803 2 | 1:04.04 | 1:24.31 | 4804 | 11134 3 | 2:28.35 | 1:10.70 | 11135 | 16454 4 | 3:39.30 | 1:11.61 | 16455 | 21840 5 | 4:51.16 | 2:42.06 | 21841 | 33996 6 | 7:33.22 | 1:09.72 | 33997 | 39243 7 | 8:43.19 | 2:08.16 | 39244 | 48859 8 | 10:51.35 | 0:59.18 | 48860 | 53302 9 | 11:50.53 | 0:57.11 | 53303 | 57588 10 | 12:47.64 | 0:49.30 | 57589 | 61293 11 | 13:37.19 | 0:14.47 | 61294 | 62390 12 | 13:51.66 | 1:39.46 | 62391 | 69861 13 | 15:31.37 | 0:44.45 | 69862 | 73206 14 | 16:16.07 | 4:17.62 | 73207 | 92543 15 | 20:33.69 | 3:04.44 | 92544 | 106387 16 | 23:38.38 | 3:06.08 | 106388 | 120345 17 | 26:44.46 | 2:10.41 | 120346 | 130136 18 | 28:55.12 | 0:12.58 | 130137 | 131094 19 | 29:07.70 | 0:09.35 | 131095 | 131804 20 | 29:17.30 | 0:08.19 | 131805 | 132423 21 | 29:25.49 | 0:09.36 | 132424 | 133134 22 | 29:35.10 | 0:07.13 | 133135 | 133672 23 | 29:42.23 | 0:12.25 | 133673 | 134597 24 | 29:54.48 | 1:47.00 | 134598 | 142622 25 | 31:41.48 | 1:05.53 | 142623 | 147550 26 | 32:47.26 | 1:48.16 | 147551 | 155666 27 | 34:35.42 | 2:02.39 | 155667 | 164855 28 | 36:38.06 | 0:32.66 | 164856 | 167321 29 | 37:10.72 | 2:45.15 | 167322 | 179711 30 | 39:56.12 | 0:44.07 | 179712 | 183018 31 | 40:40.19 | 2:03.71 | 183019 | 192314 32 | 42:44.15 | 0:51.70 | 192315 | 196209 33 | 43:36.10 | 1:25.62 | 196210 | 202646 34 | 45:01.72 | 1:29.15 | 202647 | 209336 35 | 46:31.12 | 1:47.26 | 209337 | 217387 36 | 48:18.38 | 1:13.37 | 217388 | 222899 37 | 49:32.00 | 1:10.27 | 222900 | 228176 38 | 50:42.27 | 1:44.22 | 228177 | 235998 39 | 52:26.49 | 3:34.66 | 235999 | 252114 40 | 56:01.40 | 0:57.15 | 252115 | 256404 41 | 56:58.55 | 3:14.63 | 256405 | 271017 42 | 60:13.43 | 1:12.47 | 271018 | 276464 43 | 61:26.15 | 0:57.31 | 276465 | 280770 44 | 62:23.46 | 2:13.00 | 280771 | 290745 45 | 64:36.46 | 1:57.35 | 290746 | 299555 46 | 66:34.06 | 3:29.46 | 299556 | 315276 47 | 70:03.52 | 1:03.26 | 315277 | 320027 48 | 71:07.03 | 0:11.15 | 320028 | 320867 49 | 71:18.18 | 0:12.03 | 320868 | 321770 50 | 71:30.21 | 0:54.23 | 321771 | 325843

Range status and errors

Selected range

Filename D:\Shirley Walker - Batman- The Animated Series - Volume 2\Shirley Walker - Batman- The Animated Series - Volume 2 (Disc 3).wav

Peak level 99.6 % Extraction speed 7.9 X Range quality 100.0 % Test CRC 3B866F15 Copy CRC 3B866F15 Copy OK

No errors occurred

AccurateRip summary

Track 1 accurately ripped (confidence 16) [F4F9CB42] (AR v2)Track 2 accurately ripped (confidence 17) [C0DDC079] (AR v2)Track 3 accurately ripped (confidence 17) [ADA0BAD0] (AR v2)Track 4 accurately ripped (confidence 17) [5CF6D9B3] (AR v2)Track 5 accurately ripped (confidence 17) [E3408F3F] (AR v2)Track 6 accurately ripped (confidence 17) [FEBC973E] (AR v2)Track 7 accurately ripped (confidence 17) [ED01BE1E] (AR v2)Track 8 accurately ripped (confidence 17) [192AEDC2] (AR v2)Track 9 accurately ripped (confidence 17) [7CDF6A87] (AR v2)Track 10 accurately ripped (confidence 17) [CA1CD704] (AR v2)Track 11 accurately ripped (confidence 17) [8502BDD2] (AR v2)Track 12 accurately ripped (confidence 17) [2715EF55] (AR v2)Track 13 accurately ripped (confidence 17) [2DABE054] (AR v2)Track 14 accurately ripped (confidence 17) [B46C6EBE] (AR v2)Track 15 accurately ripped (confidence 18) [91F0AADF] (AR v2)Track 16 accurately ripped (confidence 17) [93A8DC54] (AR v2)Track 17 accurately ripped (confidence 17) [0F15F012] (AR v2)Track 18 accurately ripped (confidence 17) [B714D164] (AR v2)Track 19 accurately ripped (confidence 17) [B580C008] (AR v2)Track 20 accurately ripped (confidence 17) [AA2D0E33] (AR v2)Track 21 accurately ripped (confidence 17) [9F7C2C45] (AR v2)Track 22 not present in databaseTrack 23 accurately ripped (confidence 17) [5B65D25E] (AR v2)Track 24 accurately ripped (confidence 17) [4D4FE0D3] (AR v2)Track 25 accurately ripped (confidence 17) [29A7201A] (AR v2)Track 26 accurately ripped (confidence 17) [FF5A1C56] (AR v2)Track 27 accurately ripped (confidence 17) [74C9298D] (AR v2)Track 28 accurately ripped (confidence 17) [CB4169D9] (AR v2)Track 29 accurately ripped (confidence 17) [718DB0F0] (AR v2)Track 30 accurately ripped (confidence 17) [5440D6B2] (AR v2)Track 31 accurately ripped (confidence 17) [CAB4B46B] (AR v2)Track 32 accurately ripped (confidence 17) [742D05F7] (AR v2)Track 33 accurately ripped (confidence 17) [9E6BD59A] (AR v2)Track 34 accurately ripped (confidence 17) [C70ECFA3] (AR v2)Track 35 accurately ripped (confidence 17) [B8160FEE] (AR v2)Track 36 accurately ripped (confidence 17) [417E2797] (AR v2)Track 37 accurately ripped (confidence 17) [7380E923] (AR v2)Track 38 accurately ripped (confidence 17) [0DAE1092] (AR v2)Track 39 accurately ripped (confidence 17) [CE072FAD] (AR v2)Track 40 accurately ripped (confidence 17) [42F046F3] (AR v2)Track 41 accurately ripped (confidence 17) [3FA18F0E] (AR v2)Track 42 accurately ripped (confidence 17) [F12F6FBE] (AR v2)Track 43 accurately ripped (confidence 17) [D370C227] (AR v2)Track 44 accurately ripped (confidence 17) [323AA966] (AR v2)Track 45 accurately ripped (confidence 17) [3E5F2BAB] (AR v2)Track 46 accurately ripped (confidence 16) [306EC043] (AR v2)Track 47 accurately ripped (confidence 16) [BC5DDB14] (AR v2)Track 48 accurately ripped (confidence 17) [E42ECF12] (AR v2)Track 49 accurately ripped (confidence 17) [393C9E66] (AR v2)Track 50 accurately ripped (confidence 17) [B479DB48] (AR v2)

49 трек(и) скопированы точно 1 трек(и) не содержатся в базе AccurateRip

Some tracks could not be verified as accurate

End of status report

==== Log checksum E962466B0302A9239BDAF517F462F2C6434F46F7FFC7CCCF429EC5C5E950FB38 ====
01. Batman: The Animated Series - Main Title (With Sound Effects) [01:03.59]
Composed by Danny Elfman

Shadow Of The Bat, Part I - music by Shirley Walker
02. Shadow Of The Bat / Thorne On The Roof [02:00.56]
03. Gordon's Arrest [01:01.64]
04. We'll See About This / The Evidence Room [01:06.38]
05. Two-Face's Hideout / The Batgirl / Batgirl Takes Action / Batgirl Gets Trashed [02:37.05]
06. Bad Company / A Different Disguise / Matches Malone [03:55.54]

Shadow Of The Bat, Part II - music by Harvey R. Cohen
07. Recap [01:18.68]
08. Shadow Of The Bat, Part II / Casing Gil's Apartment [01:20.57]
09. Robin And Batgirl Follow / Matches Gives The Signal / Bad Guys Escape [02:58.25]
10. Water In The Tunnel / Water, Water Everywhere / Saving Robin / Batgirl Up The Rope [01:47.09]
11. Blasted Out Of Jail / Batgirl Finds Out [00:59.73]
12. Subway Escape [01:44.19]
13. Rescue Of The Commish / Batgirl's A Real Drag / Batgirl Sees The Statue [03:16.15]
14. Welcome To Gotham [00:32.12]

Bonus Tracks
15. Recap (Alternate) [01:19.69]
16. Matches Gives The Signal (No Bass) / Bad Guys Escape (No Bass) [01:41.32]

Harley And Ivy - music by Peter Davison, Michael McCuistion, Lolita Ritmanis & Shirley Walker
17. Harley And Ivy [02:56.60] - Michael McCuistion & Lolita Ritmanis
18. Harley Is On Her Own / The Girls Escape [03:17.71] - Shirley Walker & Lolita Ritmanis
19. Toxic Dump / Crime Spree [01:09.52] - Peter Davison & Shirley Walker
20. Batman Finds A Clue / Tie Me Up, Tie Me Down / Locked In Chains / Batman Escapes Bondage [01:43.37] - Peter Davison & Shirley Walker
21. The Joker's Flower / Batman Rescues Mr. J / No More Women [02:03.44] - Shirley Walker, Lolita Ritmanis & Michael McCuistion

Read My Lips - music by Shirley Walker
22. Read My Lips / Scarface's Boys [02:14.00]
23. What A Dummy [01:16.69]
24. Drapes For The Bat / Lumber Slumber / No Apples [02:49.53]
25. A Prima Notion [01:14.32]
26. Platinum Vault / Hang In There [01:24.09]
27. Dummy Up / Here We Go Again [03:23.68]

Fire From Olympus - music by Shirley Walker
28. Fire From Olympus [02:16.53]
29. Max On High [01:16.19]
30. Lightning Demonstration [00:39.02]
31. Sneaking Batman In / Fire In The Sky [02:38.39]
32. Batman Enters Olympus / Snake Fight [01:51.37]
33. Olympus Battle [04:58.71]

34. Batman: The Animated Series - End Credits (Alternate Beginning And Ending) [01:57.57] + hidden Easter Egg!!!
Composed by Danny Elfman
Exact Audio Copy V1.0 beta 3 from 29. August 2011

EAC extraction logfile from 21. August 2016, 22:29

Shirley Walker / Batman: The Animated Series - Volume 2 (Disc 4)

Used drive : TSSTcorpCDDVDW SH-S202H Adapter: 0 ID: 0

Read mode : SecureUtilize accurate stream : YesDefeat audio cache : YesMake use of C2 pointers : No

Read offset correction : 6Overread into Lead-In and Lead-Out : NoFill up missing offset samples with silence : YesDelete leading and trailing silent blocks : NoNull samples used in CRC calculations : YesUsed interface : Native Win32 interface for Win NT & 2000

Used output format : Internal WAV RoutinesSample format : 44.100 Hz; 16 Bit; Stereo

TOC of the extracted CD

Track | Start | Length | Start sector | End sector --------------------------------------------------------- 1 | 0:00.00 | 1:03.59 | 0 | 4783 2 | 1:03.59 | 2:00.56 | 4784 | 13839 3 | 3:04.40 | 1:01.64 | 13840 | 18478 4 | 4:06.29 | 1:06.38 | 18479 | 23466 5 | 5:12.67 | 2:37.05 | 23467 | 35246 6 | 7:49.72 | 3:55.54 | 35247 | 52925 7 | 11:45.51 | 1:18.68 | 52926 | 58843 8 | 13:04.44 | 1:20.57 | 58844 | 64900 9 | 14:25.26 | 2:58.25 | 64901 | 78275 10 | 17:23.51 | 1:47.09 | 78276 | 86309 11 | 19:10.60 | 0:59.73 | 86310 | 90807 12 | 20:10.58 | 1:44.19 | 90808 | 98626 13 | 21:55.02 | 3:16.15 | 98627 | 113341 14 | 25:11.17 | 0:32.12 | 113342 | 115753 15 | 25:43.29 | 1:19.69 | 115754 | 121747 16 | 27:03.23 | 1:41.32 | 121748 | 129354 17 | 28:44.55 | 2:56.60 | 129355 | 142614 18 | 31:41.40 | 3:17.71 | 142615 | 157460 19 | 34:59.36 | 1:09.52 | 157461 | 162687 20 | 36:09.13 | 1:43.37 | 162688 | 170449 21 | 37:52.50 | 2:03.44 | 170450 | 179718 22 | 39:56.19 | 2:14.00 | 179719 | 189768 23 | 42:10.19 | 1:16.69 | 189769 | 195537 24 | 43:27.13 | 2:49.53 | 195538 | 208265 25 | 46:16.66 | 1:14.32 | 208266 | 213847 26 | 47:31.23 | 1:24.09 | 213848 | 220156 27 | 48:55.32 | 3:23.68 | 220157 | 235449 28 | 52:19.25 | 2:16.53 | 235450 | 245702 29 | 54:36.03 | 1:16.19 | 245703 | 251421 30 | 55:52.22 | 0:39.02 | 251422 | 254348 31 | 56:31.24 | 2:38.39 | 254349 | 266237 32 | 59:09.63 | 1:51.37 | 266238 | 274599 33 | 61:01.25 | 4:58.71 | 274600 | 297020 34 | 66:00.21 | 1:57.57 | 297021 | 305852

Range status and errors

Selected range

Filename D:\Shirley Walker - Batman- The Animated Series - Volume 2\Shirley Walker - Batman- The Animated Series - Volume 2 (Disc 4).wav

Peak level 99.9 % Extraction speed 7.4 X Range quality 100.0 % Test CRC C384E388 Copy CRC C384E388 Copy OK

No errors occurred

AccurateRip summary

Track 1 accurately ripped (confidence 17) [C7B0166C] (AR v2)Track 2 accurately ripped (confidence 17) [56784863] (AR v2)Track 3 accurately ripped (confidence 17) [DF3AF30F] (AR v2)Track 4 accurately ripped (confidence 17) [EB16A5D1] (AR v2)Track 5 accurately ripped (confidence 17) [0F34CD8C] (AR v2)Track 6 accurately ripped (confidence 17) [9E73FD5F] (AR v2)Track 7 accurately ripped (confidence 17) [6BB8A7B7] (AR v2)Track 8 accurately ripped (confidence 17) [3E7CCCAE] (AR v2)Track 9 accurately ripped (confidence 17) [C17AD673] (AR v2)Track 10 accurately ripped (confidence 17) [870745EA] (AR v2)Track 11 accurately ripped (confidence 17) [5495C48A] (AR v2)Track 12 accurately ripped (confidence 17) [6D5D2146] (AR v2)Track 13 accurately ripped (confidence 17) [79866DC3] (AR v2)Track 14 accurately ripped (confidence 17) [0B7BF92A] (AR v2)Track 15 accurately ripped (confidence 17) [A0137D03] (AR v2)Track 16 accurately ripped (confidence 17) [F154C99C] (AR v2)Track 17 accurately ripped (confidence 17) [6CBFD49C] (AR v2)Track 18 accurately ripped (confidence 17) [D8136E87] (AR v2)Track 19 accurately ripped (confidence 17) [E08CAE0B] (AR v2)Track 20 accurately ripped (confidence 17) [8AD0897F] (AR v2)Track 21 accurately ripped (confidence 17) [6145B4EF] (AR v2)Track 22 accurately ripped (confidence 17) [E93AB730] (AR v2)Track 23 accurately ripped (confidence 17) [C9ED12B8] (AR v2)Track 24 accurately ripped (confidence 17) [27BD340E] (AR v2)Track 25 accurately ripped (confidence 17) [C43B9BB7] (AR v2)Track 26 accurately ripped (confidence 17) [68F1D556] (AR v2)Track 27 accurately ripped (confidence 17) [F2C73162] (AR v2)Track 28 accurately ripped (confidence 17) [B854ABE2] (AR v2)Track 29 accurately ripped (confidence 17) [5FB59CEC] (AR v2)Track 30 accurately ripped (confidence 17) [669C9DCA] (AR v2)Track 31 accurately ripped (confidence 17) [102C0699] (AR v2)Track 32 accurately ripped (confidence 17) [6BD99F40] (AR v2)Track 33 accurately ripped (confidence 17) [0D3E6CE0] (AR v2)Track 34 accurately ripped (confidence 17) [44521A18] (AR v2)

All tracks accurately ripped

End of status report

==== Log checksum F6CD398FF39E1F631F83DD78C70E94C3FD338FEB5FE2D16629A65E5A16AA08FD ====


Трекер:  [ 06-Сен-2016 19:00 ]

  

Скачать .torrent

Размер .torrent файла 40 KB


Размер: 4.81 GB
Хэш (hash) релиза: 70ac834c3c5285f2aa4bc9915f7b264d3ccc521b

Еще никто не оставлял запись к записи скачать торрент Бэтмен Batman: The Animated Series . Будь первым!

!Обратная связь