Скачать через торрент Маги: Приключения Синдбада Magi: Sinbad no Bouken бесплатно Аниме Все серии на русском torrent

Если у вас наблюдаются проблемы со скриншотами, переходом по ссылками, скачиванием торрентов - проблемы в блокировщике рекламы AdBlock. #хорошегоДня!


Статистика раздачи
Размер:  4.7 GB   |    Зарегистрирован:  1 год 3 месяца   |    .torrent скачан:  31 раз   |   
Раздают:  1  
   
Загрузка...
 
Автор Сообщение

Galfimbul

avatar Galfimbul


Маги: Приключения Синдбада / Magi: Sinbad no Bouken

Страна: Япония
Год выпуска: 2016 г.
Жанр: приключения, комедия, фэнтези, сёнэн
Тип: TV
Продолжительность: 13 эп ~ 24 мин.
Режиссер: Мияо Ёсикадзу
Студия:
Описание: Синдбад обычный 14-ти летний парень, по стечению обстоятельств знакомится с путешественником Юнаном, который отправляет его в Первый Лабиринт. Покорив его Синдбад становится на путь, который сделает его Легендой Семи Морей, и величайшим покорителем Лабиринтов.
Перевод, оформление: Redgar-firegorn
Коррекция, редактирование: Igorek1102
Караоке: Thousandth Day
Сверка с японским: UzurpatorKel
Качество: HDTVRip
Тип релиза: Без хардсаба
Формат видео: MKV
Наличие линковки: Нет
Релиз/Автор рипа: [Leopard-Raws]
Видео: H.264 | 1280x720 | ~ 2300 Kbps | 23.976 fps | 8 bit
Аудио Jap: AAC | 192 kbps | 48 Hz | 2 ch
Субтитры Rus: .ass | в составе контейнера | Включены по умолчанию
GeneralUnique ID : 174296281926848057803435959875811492687 (0x83203E2BCCAD621A8C58D3CBDE5D434F)Complete name : D:\Раздачи\Magi-Sinbad no Bouken [720p]\Magi - Sinbad no Bouken (2016) - 01 RAW (TBS 1280x720 x264 AAC).mkvFormat : MatroskaFormat version : Version 4 / Version 2File size : 452 MiBDuration : 24mn 28sOverall bit rate : 2 580 KbpsEncoded date : UTC 2016-05-02 13:25:35Writing application : mkvmerge v8.8.0 ('Wind at my back') 64bitWriting library : libebml v1.3.3 + libmatroska v1.4.4Attachments : Anime Ace v3_0.ttf / BenguiatGothicCTT_0_0.ttf / Comic_Sans_0_0.ttf / ExposureCOne_0.ttf / Deutsch-Gothic_0_0.ttf

VideoID : 1Format : AVCFormat/Info : Advanced Video CodecFormat profile : High@L4.1Format settings, CABAC : YesFormat settings, ReFrames : 4 framesCodec ID : V_MPEG4/ISO/AVCDuration : 24mn 27sBit rate : 2 386 KbpsWidth : 1 280 pixelsHeight : 720 pixelsDisplay aspect ratio : 16:9Frame rate mode : ConstantFrame rate : 23.976 (24000/1001) fpsColor space : YUVChroma subsampling : 4:2:0Bit depth : 8 bitsScan type : ProgressiveBits/(Pixel*Frame) : 0.108Stream size : 417 MiB (92%)Writing library : x264 core 129 r2245+729M 1a52e03Encoding settings : cabac=1 / ref=4 / deblock=1:1:-1 / analyse=0x3:0x113 / me=umh / subme=9 / psy=1 / fade_compensate=0.00 / psy_rd=1.00:0.00 / mixed_ref=1 / me_range=24 / chroma_me=1 / trellis=2 / 8x8dct=1 / cqm=0 / deadzone=21,11 / fast_pskip=1 / chroma_qp_offset=-2 / threads=8 / lookahead_threads=1 / sliced_threads=0 / nr=0 / decimate=1 / interlaced=0 / bluray_compat=0 / constrained_intra=0 / fgo=0 / bframes=9 / b_pyramid=2 / b_adapt=2 / b_bias=0 / direct=1 / weightb=1 / open_gop=0 / weightp=2 / keyint=240 / keyint_min=24 / scenecut=40 / intra_refresh=0 / rc=crf / mbtree=0 / crf=17.5 / qcomp=0.72 / qpmin=0 / qpmax=69 / qpstep=4 / ip_ratio=1.40 / pb_ratio=1.30 / aq=1:0.85Default : YesForced : NoColor range : LimitedColor primaries : BT.709Transfer characteristics : BT.709Matrix coefficients : BT.709

AudioID : 2Format : AACFormat/Info : Advanced Audio CodecFormat profile : LCCodec ID : A_AACDuration : 24mn 27sBit rate : 192 KbpsChannel(s) : 2 channelsChannel positions : Front: L RSampling rate : 48.0 KHzFrame rate : 46.875 fps (1024 spf)Compression mode : LossyStream size : 33.6 MiB (7%)Language : JapaneseDefault : YesForced : No

TextID : 3Format : ASSCodec ID : S_TEXT/ASSCodec ID/Info : Advanced Sub Station AlphaDuration : 24mn 16sBit rate : 1 509 bpsCount of elements : 1546Compression mode : LosslessStream size : 268 KiB (0%)Title : [Firegorn Team]Language : RussianDefault : YesForced : No
01 - Дитя судьбы
02 - Синдбад-Мореход
03 - Покорение лабиринта Баал
04 - Покорение лабиринта Валефор I
05 - Покорение лабиринта Валефор II
06 - Своё место...
07 - Торговец Синдбад
08 - Реликвия
09 - Королевство Сасан
10 - Сила, меняющая мир
<a href="tracker.php?rid=16325518" class="postLink"> </a>
Не забываем нажимать на кнопку "сказать спасибо" тем самым выражая свою благодарность!!!
Раздавать буду преимущественно с 7:00 до 00:00

Трекер:  [ 10-Сен-2016 21:30 ]

  

Скачать .torrent

Размер .torrent файла 13 KB


Размер: 4.7 GB
Хэш (hash) релиза: 2645cb474a7decedab5f07319ea70804e0c2cc12
Подписка на обновления:

Торренты, похожие на Маги: Приключения Синдбада Magi: Sinbad no Bouken скачать торрент

Форум Название Автор Размер S L Добавлен
Аниме | HD Rips ·· Маги: Приключения Синдбада / Magi: Sinbad no Bouken (Мияо Ёсикадзу) [TV] [13 из 13] [Без хардсаба] [RUS(ext), JAP+SUB] [2016, приключения, комедия, фэнтези, сёнэн, HDTVRip] [720p] Galfimbul 68456118706.38 GB 0 0 1484412239

19:43

14-Янв-17

Аниме | HD Rips ·· Маги: Приключения Синдбада / Magi: Sinbad no Bouken [TV] [01-09 из 13] [Без хардсаба] [RUS(int), JAP+SUB] [2016 г. приключения, комедия, фэнтези, сёнэн, HDTVRip] [720p] Galfimbul 48548517724.52 GB 0 0 1474022091

13:34

16-Сен-16

Аниме | HD Rips ·· Маги: Приключения Синдбада / Magi: Sinbad no Bouken [TV] [01-07 из 13] [Без хардсаба] [RUS(int), JAP+SUB] [2016 г. приключения, комедия, фэнтези, сёнэн, HDTVRip] [720p] Galfimbul 38615976553.6 GB 0 0 1472291642

12:54

27-Авг-16

Аниме | HD Rips ·· Маги: Приключения Синдбада / Magi: Sinbad no Bouken [TV] [8 из 13] [Без хардсаба] [JAP+SUB] [2016 г. приключения, комедия, фэнтези, сёнэн, HDTVRip] [720p] Galfimbul 40832856723.8 GB 0 0 1471455025

20:30

17-Авг-16

Аниме | Rips ·· Маги: Приключение Синдбада / Magi: Sinbad no Bouken [TV] [02 из 13] [Без хардсаба] [RUS(int)] [2016 г., приключения, фэнтези, HDTVRip] [720p] Galfimbul 1000869982955 MB 0 0 1465170978

02:56

6-Июн-16

Аниме | HD Rips ·· Маги: Приключения Синдбада / Magi: Sinbad no Bouken [TV] [01-06 из 13] [Без хардсаба] [RUS(int), JAP+SUB] [2016 г. приключения, комедия, фэнтези, сёнэн, HDTVRip] [720p] Galfimbul 33924587963.16 GB 0 0 1464165235

11:33

25-Май-16

Аниме | HD Rips ·· Маги: Приключения Синдбада / Magi: Sinbad no Bouken [TV] [01-05 из 13] [Без хардсаба] [RUS(int), JAP+SUB] [2016 г. приключения, комедия, фэнтези, сёнэн, HDTVRip] [720p] Galfimbul 27880426482.6 GB 0 0 1464002882

14:28

23-Май-16

Аниме | HD Rips ·· Маги: Приключения Синдбада / Magi: Sinbad no Bouken [TV] [6 из 13] [Без хардсаба] [JAP+SUB] [2016 г. приключения, комедия, фэнтези, сёнэн, HDTVRip] [720p] Galfimbul 31809310392.96 GB 0 0 1463839769

17:09

21-Май-16

Аниме | HD Rips ·· Маги: Приключения Синдбада / Magi: Sinbad no Bouken [TV] [5 из 13] [Без хардсаба] [JAP+SUB] [2016 г. приключения, комедия, фэнтези, сёнэн, HDTVRip] [720p] Galfimbul 26118736242.43 GB 0 0 1463234657

17:04

14-Май-16

Аниме | HD Rips ·· Маги: Приключения Синдбада / Magi: Sinbad no Bouken [TV] [01-04 из 13] [Без хардсаба] [RUS(int), JAP+SUB] [2016 г. приключения, комедия, фэнтези, сёнэн, HDTVRip] [720p] Galfimbul 22010988362.05 GB 0 0 1462872889

12:34

10-Май-16

Аниме | HD Rips ·· Маги: Приключения Синдбада / Magi: Sinbad no Bouken [TV] [4 из 13] [Без хардсаба] [JAP+SUB] [2016 г. приключения, комедия, фэнтези, сёнэн, HDTVRip] [720p] Galfimbul 20596642261.92 GB 0 0 1462635345

18:35

7-Май-16

Аниме | HD Rips ·· Маги: Приключения Синдбада / Magi: Sinbad no Bouken [TV] [3 из 13] [Без хардсаба] [JAP+SUB] [2016 г. приключения, комедия, фэнтези, сёнэн, HDTVRip] [720p] Galfimbul 15489560991.44 GB 0 0 1462198361

17:12

2-Май-16

Аниме | Rips ·· Маги: Приключения Синдбада / Magi: Sinbad no Bouken [OVA] [Без хардсаба] [3 из 4] [JAP+SUB, RUS(ext)] [2014 г. приключения, комедия, фэнтези, сёнэн, DVDRip] Galfimbul 12100092891.13 GB 0 0 1422042635

22:50

23-Янв-15

Аниме | Rips ·· Маги: Приключения Синдбада / Magi: Sinbad no Bouken [OVA] [2 из 3] [Без хардсаба] [JAP] [2014 г. приключения, комедия, фэнтези, сёнэн, DVDRip] Galfimbul 740725119706 MB 0 0 1410481809

03:30

12-Сен-14

Еще никто не оставлял запись к записи скачать торрент Маги: Приключения Синдбада Magi: Sinbad no Bouken . Будь первым!

!Обратная связь