Скачать через торрент Орендж Апельсин бесплатно Аниме Все серии на русском torrent

Если у вас наблюдаются проблемы со скриншотами, переходом по ссылками, скачиванием торрентов - проблемы в блокировщике рекламы AdBlock. #хорошегоДня!


Статистика раздачи
Размер:  3.09 GB   |    Зарегистрирован:  1 год 3 месяца   |    .torrent скачан:  10 раз   |   
Раздают:  1  
   
Загрузка...
 
Автор Сообщение

Galfimbul

avatar Galfimbul


<a href="viewtopic.php?t=5252003" class="postLink"> </a>
<span class="post-font-cursive1">Страна: Япония
Год выпуска: 2016 г.
Жанр: драма, романтика, школа, сёдзе, фантастика
Продолжительность: ТВ, 13 эп. по 23 мин.</span>
<span class="post-font-cursive1">Перевод:</span>
<ol class="post-ul">
<span class="post-font-cursive1"> субтитры от YakuSub Studio (полные/надписи)
перевод: SeshaRim, редакция: Little Devil, оформление: Bizon4ik</span>
</ol>
<span class="post-font-cursive1">Озвучка:</span>
<ol class="post-ul">
<span class="post-font-cursive1"> двухголосая (муж./жен.) от KingMaster & Milirina (KMEDIA & Anything-Group)</span>
</ol>
<span class="post-font-cursive1">Режиссер: Хамасаки Хироси
Студия:
Описание: Однажды Нахо Такамия получает письмо от самой себя — взрослой, старше на десять лет. В письме точно описываются события, еще не наступившие, включая перевод нового студента, Какэру Нарусэ, в ее класс.
В письме взрослая Такамия неоднократно повторяет, что о многом жалеет и хочет все исправить, надеясь, что Нахо из прошлого будет принимать правильные решения, особенно по отношению к Нарусэ. Дочитав письмо, девушка узнает, что в будущем, десять лет спустя, Какэру с ними уже не будет. Нахо из будущего настоятельно просит внимательно приглядывать за Какэру, так как она не хочет потерять столь драгоценного для нее человека. © Tehanu</span>
<span class="post-font-cursive1">Ссылки: AniDB || World Art || MAL
Качество: HDTVRip
Автор рипа: Leopard-Raws
Тип релиза: без хардсаба
Формат видео: mkv
Видео: x264 (8bit), 1280x720, ~1700kbps, 23.976fps
Аудио (int) rus : AAC, 192kbps, 48000Hz, 2ch
Аудио (int) jap : AAC, 192kbps, 48000Hz, 2ch</span>
<span class="post-font-cursive1">От раздачи <a href="viewtopic.php?t=5250623" class="postLink">Izuu</a></span>
<ol class="post-ul">
<span class="post-font-cursive1">Наличие озвучки</span>
</ol>
GeneralUnique ID : 233010958471577510235668582738004583882 (0xAF4C473A055793FEB502A9C79E44A5CA)Complete name : D:\Releases\[ARRU] Orange TV (HDTVRip 720p x264 AAC) [KMEDIA & Anything-Group]\[ARRU] Orange TV [02] [KMEDIA & Anything-Group].mkvFormat : MatroskaFormat version : Version 4 / Version 2File size : 330 MiBDuration : 23mn 59sOverall bit rate : 1 923 KbpsEncoded date : UTC 2016-07-13 18:53:16Writing application : mkvmerge v8.9.0 ('Father Daughter') 64bitWriting library : libebml v1.3.3 + libmatroska v1.4.4Attachments : Action Man Cyr.ttf

VideoID : 1Format : AVCFormat/Info : Advanced Video CodecFormat profile : High@L4.1Format settings, CABAC : YesFormat settings, ReFrames : 4 framesCodec ID : V_MPEG4/ISO/AVCDuration : 23mn 59sBit rate : 1 536 KbpsWidth : 1 280 pixelsHeight : 720 pixelsDisplay aspect ratio : 16:9Frame rate mode : ConstantFrame rate : 23.976 (24000/1001) fpsColor space : YUVChroma subsampling : 4:2:0Bit depth : 8 bitsScan type : ProgressiveBits/(Pixel*Frame) : 0.070Stream size : 264 MiB (80%)Title : Orange - 02Writing library : x264 core 129 r2245+729M 1a52e03Encoding settings : cabac=1 / ref=4 / deblock=1:1:-1 / analyse=0x3:0x113 / me=umh / subme=9 / psy=1 / fade_compensate=0.00 / psy_rd=1.00:0.00 / mixed_ref=1 / me_range=24 / chroma_me=1 / trellis=2 / 8x8dct=1 / cqm=0 / deadzone=21,11 / fast_pskip=1 / chroma_qp_offset=-2 / threads=8 / lookahead_threads=1 / sliced_threads=0 / nr=0 / decimate=1 / interlaced=0 / bluray_compat=0 / constrained_intra=0 / fgo=0 / bframes=9 / b_pyramid=2 / b_adapt=2 / b_bias=0 / direct=1 / weightb=1 / open_gop=0 / weightp=2 / keyint=240 / keyint_min=24 / scenecut=40 / intra_refresh=0 / rc=crf / mbtree=0 / crf=18.0 / qcomp=0.72 / qpmin=0 / qpmax=69 / qpstep=4 / ip_ratio=1.40 / pb_ratio=1.30 / aq=1:0.85Language : JapaneseDefault : YesForced : NoColor range : LimitedColor primaries : BT.709Transfer characteristics : BT.709Matrix coefficients : BT.709

Audio #1ID : 2Format : AACFormat/Info : Advanced Audio CodecFormat profile : LCCodec ID : A_AACDuration : 23mn 59sBit rate : 192 KbpsChannel(s) : 2 channelsChannel positions : Front: L RSampling rate : 48.0 KHzFrame rate : 46.875 fps (1024 spf)Compression mode : LossyDelay relative to video : 9msStream size : 32.9 MiB (10%)Title : KingMaster & MilirinaLanguage : RussianDefault : YesForced : No

Audio #2ID : 3Format : AACFormat/Info : Advanced Audio CodecFormat profile : LCCodec ID : A_AACDuration : 23mn 59sBit rate : 192 KbpsChannel(s) : 2 channelsChannel positions : Front: L RSampling rate : 48.0 KHzFrame rate : 46.875 fps (1024 spf)Compression mode : LossyStream size : 32.8 MiB (10%)Title : OriginalLanguage : JapaneseDefault : NoForced : No

Text #1ID : 4Format : ASSCodec ID : S_TEXT/ASSCodec ID/Info : Advanced Sub Station AlphaDuration : 21mn 58sBit rate : 203 bpsCount of elements : 355Compression mode : LosslessStream size : 32.7 KiB (0%)Title : YakuSub Studio (Full)Language : RussianDefault : NoForced : No

Text #2ID : 5Format : ASSCodec ID : S_TEXT/ASSCodec ID/Info : Advanced Sub Station AlphaDuration : 21mn 58sBit rate : 26 bpsCount of elements : 23Compression mode : LosslessStream size : 4.24 KiB (0%)Title : YakuSub StudioLanguage : RussianDefault : YesForced : No

Когда выйдет следующая серия

Трекер:  [ 11-Сен-2016 16:30 ]

  

Скачать .torrent

Размер .torrent файла 16 KB


Размер: 3.09 GB
Хэш (hash) релиза: 1d98a942571d48601d89db4f2e877fbc3567254e
Подписка на обновления:

Торренты, похожие на Орендж Апельсин скачать торрент

Форум Название Автор Размер S L Добавлен
Аниме | Rips ·· Орендж / Апельсин / Orange [TV] [13 из 13] [Без хардсаба] [RUS(int), JAP, SUB] [2016, драма, романтика, школа, сёдзе, фантастика, HDTVRip] [HWP] Galfimbul 45202422924.21 GB 0 0 1478272312

18:11

4-Ноя-16

Аниме | HD Rips ·· Орендж / Апельсин / Orange [TV] [13 из 13] [Без хардсаба] [RUS(int), JAP, SUB] [2016, драма, романтика, школа, сёдзе, фантастика, HDTVRip] [720p] Galfimbul 56235710605.24 GB 0 0 1478264333

15:58

4-Ноя-16

Аниме | Rips ·· Орендж / Апельсин / Orange [TV] [13 из 13] [Без хардсаба] [RUS(ext), JAP, SUB] [2016 г., Романтика, Драма, Школа, Сёдзё, HDTVRip] [720p] Galfimbul 73185636806.82 GB 0 0 1476464664

20:04

14-Окт-16

Аниме | HD Rips ·· Орендж / Апельсин / Orange [TV] [10 из 13] [Без хардсаба] [RUS(int), JAP, SUB] [2016 г., драма, романтика, школа, сёдзе, фантастика, HDTVRip] [720p] Galfimbul 37650184683.51 GB 0 0 1476302808

23:06

12-Окт-16

Аниме | Rips ·· Орендж / Апельсин / Orange [TV] [13 из 13] [Без хардсаба] [RUS(ext), JAP, SUB] [2016 г., Романтика, Драма, Школа, Сёдзё, HDTVRip] [720p] Galfimbul 72146091156.72 GB 0 0 1475771577

19:32

6-Окт-16

Аниме | Rips ·· Орендж / Апельсин / Orange [TV] [13 из 13] [Без хардсаба] [RUS(ext), JAP, SUB] [2016 г., Романтика, Драма, Школа, Сёдзё, HDTVRip] [720p] Galfimbul 70412696416.56 GB 0 0 1475374831

05:20

2-Окт-16

Аниме | Rips ·· Орендж / Апельсин / Orange [TV] [13 из 13] [Без хардсаба] [RUS(ext), JAP, SUB] [2016 г., Романтика, Драма, Школа, Сёдзё, HDTVRip] [720p] Galfimbul 69009245166.43 GB 0 0 1475287169

04:59

1-Окт-16

Аниме | HD Rips ·· Орендж / Апельсин / Orange [TV] [13 из 13] [Без хардсаба] [JAP+SUB] [2016 г., романтика, драма, школа, фантастика, WEBRip] [720p] Galfimbul 46016726174.29 GB 0 0 1474900471

17:34

26-Сен-16

Аниме | Rips ·· Орендж / Апельсин / Orange [TV] [01-12 из 13] [Без хардсаба] [RUS(ext), JAP, SUB] [2016 г., Романтика, Драма, Школа, Сёдзё, HDTVRip] [720p] Galfimbul 60243496265.61 GB 0 0 1474441373

10:02

21-Сен-16

Аниме | HD Rips ·· Орендж / Апельсин / Orange [TV] [1-12 из 13] [Без хардсаба] [JAP+SUB] [2016 г., романтика, драма, школа, фантастика, WEBRip] [720p] Galfimbul 40610129783.78 GB 0 0 1474287965

15:26

19-Сен-16

Аниме | Rips ·· Орендж / Апельсин / Orange [TV] [01-11 из 13] [Без хардсаба] [RUS(ext), JAP, SUB] [2016 г., Романтика, Драма, Школа, Сёдзё, HDTVRip] [720p] Galfimbul 51293313894.78 GB 0 0 1473992652

05:24

16-Сен-16

Аниме | HD Rips ·· Орендж / Апельсин / Orange [TV] [1-11 из 13] [Без хардсаба] [JAP+SUB] [2016 г., романтика, драма, школа, фантастика, WEBRip] [720p] Galfimbul 37226326773.47 GB 0 0 1473694047

18:27

12-Сен-16

Аниме | Rips ·· Орендж / Апельсин / Orange [TV] [9 из 13] [Без хардсаба] [RUS(int), JAP, SUB] [2016 г., драма, романтика, школа, сёдзе, фантастика, HDTVRip] [HWP] Galfimbul 29934586872.79 GB 0 0 1473606260

18:04

11-Сен-16

Аниме | Rips ·· Орендж / Апельсин / Orange [TV] [01-10 из 13] [Без хардсаба] [RUS(ext), JAP, SUB] [2016 г., Романтика, Драма, Школа, Сёдзё, HDTVRip] [720p] Galfimbul 45677998954.25 GB 0 0 1473256999

17:03

7-Сен-16

Аниме | HD Rips ·· Орендж / Апельсин / Orange [TV] [8 из 13] [Без хардсаба] [RUS(int), JAP, SUB] [2016 г., драма, романтика, школа, сёдзе, фантастика, HDTVRip] [720p] Galfimbul 29273820692.73 GB 0 0 1473194394

23:39

6-Сен-16

Аниме | Rips ·· Орендж / Апельсин / Orange [TV] [8 из 13] [Без хардсаба] [RUS(int), JAP, SUB] [2016 г., драма, романтика, школа, сёдзе, фантастика, HDTVRip] [HWP] Galfimbul 26601336382.48 GB 0 0 1473194369

23:39

6-Сен-16

Аниме | HD Rips ·· Орендж / Апельсин / Orange [TV] [1-10 из 13] [Без хардсаба] [JAP+SUB] [2016 г., романтика, драма, школа, фантастика, WEBRip] [720p] Galfimbul 33845372223.15 GB 0 0 1473071031

13:23

5-Сен-16

Аниме | Rips ·· Орендж / Апельсин / Orange [TV] [01-09 из 13] [Без хардсаба] [RUS(ext), JAP, SUB] [2016 г., Романтика, Драма, Школа, Сёдзё, HDTVRip] [720p] Galfimbul 40496119233.77 GB 0 0 1472678001

00:13

1-Сен-16

Аниме | HD Rips ·· Орендж / Апельсин / Orange [TV] [1-9 из 13] [Без хардсаба] [JAP+SUB] [2016 г., романтика, драма, школа, фантастика, WEBRip] [720p] Galfimbul 30468307632.84 GB 0 0 1472475113

15:51

29-Авг-16

Еще никто не оставлял запись к записи скачать торрент Орендж Апельсин . Будь первым!

!Обратная связь