Скачать через торрент Идолмастер: Сияющий фестиваль THE iDOLM@STER Shiny Festa бесплатно Аниме Все серии на русском torrent

Если у вас наблюдаются проблемы со скриншотами, переходом по ссылками, скачиванием торрентов - проблемы в блокировщике рекламы AdBlock. #хорошегоДня!


Статистика раздачи
Размер:  1.14 GB   |    Зарегистрирован:  1 год 3 месяца   |    .torrent скачан:  18 раз   |   
Раздают:  1  
   
Загрузка...
 
Автор Сообщение

Galfimbul

avatar Galfimbul


Идолмастер: Сияющий фестиваль / THE iDOLM@STER Shiny Festa / The Idolmaster: Shiny Festa

Страна: Япония
Год выпуска: 2012 г.
Жанр: комедия, музыкальный
Тип: OVA
Продолжительность: 3 эп, ~24 мин. серия
Режиссер: Нисигори Ацуси
Студия: A-1 Pictures Inc.

Описание: Всем известно, что «фабрику звезд» изобрели в Японии! Именно там в 1970-е годы из самых обычных ребят и девушек начали массово создавать «айдору» - молодежных идолов. В этом бурном потоке уже в наши дни свою мирную и денежную гавань отчаянно ищет небольшая продюсерская компания «Студия 765», она же «765-про». Руководство связывает радужные надежды с приходом молодого продюсера, которому должны помочь менеджер Рицуко, несмотря на молодые годы – бывший идол и ветеран бизнеса, и секретарь Котори, надежная, как скала. Осталась самая малость – раскрутить приданную дюжину местных талантов!

Итак, на агентство работают двенадцать девушек от 13 до 20 лет, из разных семей, с самыми разными характерами, привычками, достоинствами и недостатками. Да и мотивы у каждой свои – кто-то зарабатывает на хлеб, а кто-то хочет доказать, что способен добиться успеха без помощи влиятельных родственников. Объединяют же всех героинь способности и любовь к музыке, пению и танцам. Вот только путь на сцену нелегок, и дружному коллективу придется начинать с малого, буквально с сельских праздников, двигаясь вперед постепенно, пусть даже слегка «растянувшись» по дороге. Дружба и талант все равно соберут всех вместе!
© Hollow, World Art

Доп. информация: Каждый эпизод прилагался в качестве бонуса к одной из трёх версий одноимённой игры.

Качество: BDRip (EA)
Тип релиза: Без хардсаба
Формат видео: MKV
Видео: AVC (10 bit), 1280x720, 1527 Kbps, 23.976 fps
Аудио: FLAC, 756 kbps, 48.0 kHz, 2 ch Язык Японский
Субтитры: ASS, Внешние, Полные | Надписи «YakuSub Studio» Язык субтитров русский ; Переводчик/Перевод песен/Оформление: Nika_Elrik | Редактор: Aero
GeneralUnique ID : 171878717083239794042873205157268520243 (0x814EA3058B4ED5C5AD53EB4E88AF7D33)Complete name : The Idolmaster\THE iDOLM@STER Shiny Festa [BD] [720p]\[EA] THE iDOLM@STER Shiny Festa [01] [BDRip, 720p, FLAC].mkvFormat : MatroskaFormat version : Version 4 / Version 2File size : 391 MiBDuration : 23mn 50sOverall bit rate mode : VariableOverall bit rate : 2 292 KbpsEncoded date : UTC 2016-09-14 20:32:16Writing application : mkvmerge v9.4.2 ('So High') 64bitWriting library : libebml v1.3.4 + libmatroska v1.4.5Attachments : AGAALER.TTF / Andy.ttf / decak___.ttf / DOMN.TTF / ExposureCOneRough.otf / FMPTSR-Credits.ttf / TCM_____.TTF / UNVR55X.TTF

VideoID : 1Format : AVCFormat/Info : Advanced Video CodecFormat profile : High 10@L5Format settings, CABAC : YesFormat settings, ReFrames : 16 framesCodec ID : V_MPEG4/ISO/AVCDuration : 23mn 50sBit rate : 1 527 KbpsWidth : 1 280 pixelsHeight : 720 pixelsDisplay aspect ratio : 16:9Frame rate mode : ConstantFrame rate : 23.976 (24000/1001) fpsColor space : YUVChroma subsampling : 4:2:0Bit depth : 10 bitsScan type : ProgressiveBits/(Pixel*Frame) : 0.069Stream size : 260 MiB (67%)Writing library : x264 core 146 r2538 121396cEncoding settings : cabac=1 / ref=16 / deblock=1:-2:-2 / analyse=0x3:0x113 / me=umh / subme=10 / psy=1 / psy_rd=1.00:0.00 / mixed_ref=1 / me_range=24 / chroma_me=1 / trellis=2 / 8x8dct=1 / cqm=0 / deadzone=21,11 / fast_pskip=1 / chroma_qp_offset=-2 / threads=6 / lookahead_threads=1 / sliced_threads=0 / nr=0 / decimate=1 / interlaced=0 / bluray_compat=0 / constrained_intra=0 / bframes=3 / b_pyramid=2 / b_adapt=2 / b_bias=0 / direct=3 / weightb=1 / open_gop=0 / weightp=2 / keyint=240 / keyint_min=23 / scenecut=40 / intra_refresh=0 / rc_lookahead=40 / rc=2pass / mbtree=1 / bitrate=1527 / ratetol=1.0 / qcomp=0.60 / qpmin=0 / qpmax=81 / qpstep=4 / cplxblur=20.0 / qblur=0.5 / ip_ratio=1.40 / aq=1:1.00Language : JapaneseDefault : YesForced : No

AudioID : 2Format : FLACFormat/Info : Free Lossless Audio CodecCodec ID : A_FLACDuration : 23mn 50sBit rate mode : VariableBit rate : 756 KbpsChannel(s) : 2 channelsChannel positions : Front: L RSampling rate : 48.0 KHzFrame rate : 11.719 fps (4096 spf)Bit depth : 16 bitsStream size : 129 MiB (33%)Writing library : libFLAC 1.3.0 (UTC 2013-05-26)Language : JapaneseDefault : YesForced : No
01. Музыка в нашем мире
02. Музыка - наш друг
03. Музыка любви


Трекер:  [ 15-Сен-2016 07:30 ]

  

Скачать .torrent

Размер .torrent файла 12 KB


Размер: 1.14 GB
Хэш (hash) релиза: 5a5be8135e29099d28297e5ec29eb8da89c737fd
Подписка на обновления:

Торренты, похожие на Идолмастер: Сияющий фестиваль THE iDOLM@STER Shiny Festa скачать торрент

Форум Название Автор Размер S L Добавлен
Аниме | HD Rips ·· Идолмастер: Сияющий фестиваль / The iDOLM@STER Shiny Festa / The Idolmaster: Shiny Festa [OVA] [3 из 3] [Без хардсаба] [JAP+SUB] [2012 г., комедия, музыкальный, BDRip] [720p] Galfimbul 12258400301.14 GB 0 0 1473915077

07:51

15-Сен-16

Аниме | HD Rips ·· Идолмастер: Сияющий фестиваль / The iDOLM@STER Shiny Festa / The Idolmaster: Shiny Festa [OVA] [3 из 3] [Без хардсаба] [JAP+SUB] [2012 г., комедия, музыкальный, BDRip] [720p] Galfimbul 12258400301.14 GB 0 0 1473886723

23:58

14-Сен-16

Еще никто не оставлял запись к записи скачать торрент Идолмастер: Сияющий фестиваль THE iDOLM@STER Shiny Festa . Будь первым!

!Обратная связь