Скачать через торрент Планетарианка: Мечта одинокой звёздочки Planetarian: Chiisana Hoshi no Yume бесплатно Аниме Все серии на русском torrent

Если у вас наблюдаются проблемы со скриншотами, переходом по ссылками, скачиванием торрентов - проблемы в блокировщике рекламы AdBlock. #хорошегоДня!


Статистика раздачи
Размер:  1.87 GB   |    Зарегистрирован:  1 год 2 месяца   |    .torrent скачан:  24 раза   |   
Раздают:  1  
   
Загрузка...
 
Автор Сообщение

Galfimbul

avatar Galfimbul



<span class="post-font-cursive1">Год выпуска: <span class="post-font-sans3">2016</span> <span class="post-font-cursive1">|</span> <span class="post-font-cursive1">Страна:</span> <span class="post-font-sans3">Япония</span>
<span class="post-font-cursive1">Жанр:</span> <span class="post-font-sans3">драма, фантастика</span>
<span class="post-font-cursive1">Продолжительность:</span> <span class="post-font-sans3">ONA, 5 эп. по 19 мин.</span>
<span class="post-font-cursive1">Перевод:</span> <span class="post-font-sans3">субтитры от Shimizu & GMC</span>
<span class="post-font-cursive1">переводчик: Sovereign, oформление: [Dark]Scorpio
<span class="post-font-cursive1">Режиссер: <span class="post-font-sans3">Наокацу Цуда
<span class="post-font-cursive1">Студия:
<span class="post-font-cursive1">AniDB <span class="post-font-cursive1"> World Art <span class="post-font-cursive1"></span> MAL</span>
<span class="post-font-cursive1">Качество:</span> <span class="post-font-sans3">BDRip</span> <span class="post-font-cursive1">|</span> <span class="post-font-cursive1">Рип:</span> <span class="post-font-sans3">neko-raws</span>
<span class="post-font-cursive1">Тип релиза:</span> <span class="post-font-sans3">без хардсаба, без линковки</span>
<span class="post-font-cursive1">Формат видео:</span> <span class="post-font-sans3">MKV</span>
<span class="post-font-cursive1">Видео:</span> <span class="post-font-sans3">x264, Hi10P, 1280x720, 23.976fps, 2500 Kbps</span>
<span class="post-font-cursive1">Аудио JAP:</span> <span class="post-font-sans3">AAC, 48.0 kHz, 2ch, 168 Kbps</span>
<span class="post-font-cursive1">Описание:</span> <span class="post-font-sans3">Сюжет разворачивается в заброшенном городе, покинутом людьми 30 лет тому назад после биологической бомбардировки. С тех пор человечество находится на грани вымирания, а в руинах города обитают лишь автономные военные роботы.
Однажды, в поисках провизии в город забредает человек по имени Кудзуя. Во время своих поисков он натыкается на военных роботов, и они начинают погоню за ним. В спешке юноша находит укрытие в старом здании универмага, на крыше которого он обнаруживает планетарий. Здесь он сталкивается с девушкой по имени Юмэми Хосино. Она — андроид и член персонала планетария. Чтобы показать своему посетителю увлекательную программу, Юмэми просит Кудзую отремонтировать сломанный проектор. Тогда у него начинает просыпаться давно забытый интерес к звездам. И Кудзуя начинает задумываться о небе, полном звезд, и судьбе своей планеты.

</span></span></span></span></span></span></span>
GeneralUnique ID : 213916269389961649585805744821373623849 (0xA0EEC65E9976F606A3BEDBA371B9DE29)Complete name : a:\[neko-raws] Planetarian [BD][720p][AAC]\[neko-raws] Planetarian 01 [BD][720p][AAC].mkvFormat : MatroskaFormat version : Version 4 / Version 2File size : 345 MiBDuration : 18 min 7 sOverall bit rate : 2 662 kb/sEncoded date : UTC 2016-10-03 09:35:43Writing application : mkvmerge v9.4.0 ('Knurl') 64bitWriting library : libebml v1.3.4 + libmatroska v1.4.5

VideoID : 1Format : AVCFormat/Info : Advanced Video CodecFormat profile : High 10@L5Format settings, CABAC : YesFormat settings, ReFrames : 16 framesCodec ID : V_MPEG4/ISO/AVCDuration : 18 min 7 sBit rate : 2 495 kb/sWidth : 1 280 pixelsHeight : 720 pixelsDisplay aspect ratio : 16:9Frame rate mode : ConstantFrame rate : 23.976 (24000/1001) FPSColor space : YUVChroma subsampling : 4:2:0Bit depth : 10 bitsScan type : ProgressiveBits/(Pixel*Frame) : 0.113Stream size : 323 MiB (94%)Title : encode by neko-shiWriting library : x264 core 146 r2538 121396cEncoding settings : cabac=1 / ref=16 / deblock=1:0:0 / analyse=0x3:0x133 / me=umh / subme=10 / psy=1 / psy_rd=1.00:0.00 / mixed_ref=1 / me_range=24 / chroma_me=1 / trellis=2 / 8x8dct=1 / cqm=0 / deadzone=21,11 / fast_pskip=1 / chroma_qp_offset=-2 / threads=12 / lookahead_threads=3 / sliced_threads=0 / nr=0 / decimate=1 / interlaced=0 / bluray_compat=0 / constrained_intra=0 / bframes=16 / b_pyramid=2 / b_adapt=2 / b_bias=0 / direct=3 / weightb=1 / open_gop=0 / weightp=2 / keyint=240 / keyint_min=22 / scenecut=40 / intra_refresh=0 / rc_lookahead=60 / rc=crf / mbtree=1 / crf=16.0 / qcomp=0.70 / qpmin=10 / qpmax=81 / qpstep=4 / ip_ratio=1.40 / aq=1:1.00Default : YesForced : No

AudioID : 2Format : AACFormat/Info : Advanced Audio CodecFormat profile : LCCodec ID : A_AACDuration : 18 min 7 sBit rate : 164 kb/sChannel(s) : 2 channelsChannel positions : Front: L RSampling rate : 48.0 kHzFrame rate : 46.875 FPS (1024 spf)Compression mode : LossyStream size : 21.3 MiB (6%)Title : AACLanguage : JapaneseDefault : YesForced : No
<span class="post-font-sans3"><a href="viewtopic.php?t=5253929" class="postLink">...5253929</a>
<a href="viewtopic.php?t=5253930" class="postLink">...5253930</a>
<a href="viewtopic.php?t=5290552" class="postLink">...5290552</a>
BDRip 720p</span>
<span class="post-font-cursive1">1 The Robot`s Bouquet
2 Repairing the Projector
3 Yumemi`s Projection
4 Drunk with Alcohol
5 Yumemi`s Wish</span>


Трекер:  [ 04-Окт-2016 19:00 ]

  

Скачать .torrent

Размер .torrent файла 38 KB


Размер: 1.87 GB
Хэш (hash) релиза: beb0889d5328bf137bf12d65da94305f90dac83d
Подписка на обновления:

Торренты, похожие на Планетарианка: Мечта одинокой звёздочки Planetarian: Chiisana Hoshi no Yume скачать торрент

Форум Название Автор Размер S L Добавлен
Аниме | Rips ·· Планетарианка: Мечта одинокой звёздочки / Planetarian: Chiisana Hoshi no Yume / Planetarian: The Reverie of a Little Planet [ONA] [5 из 5] [Без хардсаба] [RUS(int), JAP+SUB] [2016, фантастика, драма, BDRip] [HWP] Galfimbul 989487345944 MB 0 0 1493786063

07:34

3-Май-17

Аниме | Rips ·· Планетарианка: Мечта одинокой звёздочки / Planetarian: Chiisana Hoshi no Yume / Planetarian: The Reverie of a Little Planet (Наокацу Цуда) [ONA] [5 из 5] [без хардсаба] [RUS(ext),JAP+SUB] [2016, драма, фантастика, BDRip] [1080p] Galfimbul 86012088628.01 GB 0 0 1477253665

23:14

23-Окт-16

Аниме | HD Rips ·· Планетарианка: Мечта одинокой звёздочки / Planetarian: Chiisana Hoshi no Yume [ONA] [5 из 5] [Без хардсаба] [JAP+SUB] [2016, драма, фантастика, BDRip] [1080p] Galfimbul 1118544877210.42 GB 0 0 1477741569

14:46

29-Окт-16

Аниме | HD Rips ·· Планетарианка: Мечта одинокой звёздочки / Planetarian: Chiisana Hoshi no Yume [ONA] [5 из 5] [Без хардсаба] [JAP+SUB] [2016, драма, фантастика, BDRemux] [1080p] Galfimbul 2668601010124.85 GB 0 0 1476530974

14:29

15-Окт-16

Аниме | HD Rips ·· Планетарианка: Мечта одинокой звёздочки / Planetarian: Chiisana Hoshi no Yume [ONA] [5 из 5] [Без хардсаба] [JAP+SUB] [2016 г., драма, фантастика, BDRemux] [1080p] Galfimbul 2666655516424.84 GB 0 0 1476514884

10:01

15-Окт-16

Аниме | HD Rips ·· Планетарианка: Мечта одинокой звёздочки / Planetarian: Chiisana Hoshi no Yume [ONA] [5 из 5] [Без хардсаба] [JAP+SUB] [2016 г., драма, фантастика, BDRip] [1080p] Galfimbul 1668605374315.54 GB 0 0 1476422917

08:28

14-Окт-16

Аниме | HD Rips ·· Планетарианка: Мечта одинокой звёздочки / Planetarian: Chiisana Hoshi no Yume [ONA] [5 из 5] [Без хардсаба] [JAP+SUB] [2016 г., драма, фантастика, WEBRip] [720p] Galfimbul 15698246631.46 GB 0 0 1470579869

17:24

7-Авг-16

Аниме | HD Rips ·· Планетарианка: Мечта одинокой звёздочки / Planetarian: Chiisana Hoshi no Yume [ONA] [5 из 5] [Хардсаб] [JAP+SUB] [2016 г., драма, фантастика, WEBRip] [1080p] Galfimbul 29567064992.75 GB 0 0 1470577021

16:37

7-Авг-16

Аниме | HD Rips ·· Планетарианка: Мечта одинокой звёздочки / Planetarian: Chiisana Hoshi no Yume [ONA] [2 из 5] [Без хардсаба] [JAP+SUB] [2016 г., драма, фантастика, WEBRip] [720p] Galfimbul 498662237476 MB 0 0 1468627792

03:09

16-Июл-16

Еще никто не оставлял запись к записи скачать торрент Планетарианка: Мечта одинокой звёздочки Planetarian: Chiisana Hoshi no Yume . Будь первым!

!Обратная связь