Скачать через торрент Карнавальный Фантазм: Сезон EX Carnival Phantasm EX Season бесплатно Аниме Все серии на русском torrent

Если у вас наблюдаются проблемы со скриншотами, переходом по ссылками, скачиванием торрентов - проблемы в блокировщике рекламы AdBlock. #хорошегоДня!


Статистика раздачи
Размер:  5.41 GB   |    Зарегистрирован:  1 год 2 месяца   |    .torrent скачан:  19 раз   |   
Раздают:  1  
   
Загрузка...
 
Автор Сообщение

Galfimbul

avatar Galfimbul


Карнавальный Фантазм: Сезон EX / Carnival Phantasm EX Season

Год выпуска: 2011
Страна: Япония
Жанр: комедия, пародия
Тип: OVA
Продолжительность: 20 мин.
Озвучка:
<ol class="post-ul">
Двухголосая (муж/жен) от DemonOFmooN & Lali (AniFilm)
</ol>

Русские субтитры: есть (отдельным файлом, формат .ass)
Перевод:
<ol class="post-ul">
Korochun
</ol>
Хардсаб: Нет
Режиссер: Киси Сэйдзи
Студия: Lerche

Описание: Бонус-эпизод к ограниченному изданию Take Moon.

Качество: Blu-Ray Remux
Формат: MKV
Видео кодек: AVC
Аудио кодек: FLAC
Видео: 1920x1080 (16:9) 23,976 fps ~36,1 Mbps 8bit
Аудио:
Jap FLAC, 48000Hz, ~749 Kbps, 2ch
RUS (ext) AC3, 48000Hz, ~192 Kbps, 2ch

Чаптеры присутствуют.
Общее
Уникальный идентификатор : 222724477915352600017071267527237780789 (0xA78F2C9435FEA5E5B675712FF9AB4535)
Полное имя : Z:\Anime Release - working\Carnival\EX\[anti-raws]Carnival Phantasm EX Season[BDRemux].mkv
Формат : Matroska
Версия формата : Version 4 / Version 2
Размер файла : 5,38 Гбайт
Продолжительность : 20 м.
Режим общего битрейта : Переменный
Общий поток : 37,7 Мбит/сек
Дата кодирования : UTC 2016-10-08 22:25:25
Программа кодирования : mkvmerge v9.4.2 ('So High') 64bit
Библиотека кодирования : libebml v1.3.4 + libmatroska v1.4.5

Видео
Идентификатор : 2
Формат : AVC
Формат/Информация : Advanced Video Codec
Профиль формата : High@L4.1
Параметр CABAC формата : Да
Параметр ReFrames формата : 4 кадра
Идентификатор кодека : V_MPEG4/ISO/AVC
Продолжительность : 20 м.
Вид битрейта : Переменный
Битрейт : 37,0 Мбит/сек
Максимальный битрейт : 39,0 Мбит/сек
Ширина : 1920 пикселей
Высота : 1080 пикселей
Соотношение сторон : 16:9
Режим частоты кадров : Постоянный
Частота кадров : 23,976 (24000/1001) кадра/сек
Цветовое пространство : YUV
Субдискретизация насыщенности : 4:2:0
Битовая глубина : 8 бит
Тип развёртки : Прогрессивная
Бит/(Пиксели*Кадры) : 0.744
Размер потока : 5,28 Гбайт (98%)
Default : Нет
Forced : Нет

Аудио
Идентификатор : 1
Формат : FLAC
Формат/Информация : Free Lossless Audio Codec
Идентификатор кодека : A_FLAC
Продолжительность : 20 м.
Вид битрейта : Переменный
Битрейт : 749 Кбит/сек
Каналы : 2 канала
Расположение каналов : Front: L R
Частота : 48,0 КГц
Частота кадров : 11,719 кадров/сек (4096 spf)
Битовая глубина : 16 бит
Размер потока : 109 Мбайт (2%)
Библиотека кодирования : libFLAC 1.2.1 (UTC 2007-09-17)
Язык : Japanese
Default : Да
Forced : Нет

Меню
00:00:00.000 : en:00:00:00.000
00:01:17.995 : en:00:01:17.995
00:01:45.272 : en:00:01:45.272
00:03:20.951 : en:00:03:20.951
00:03:59.239 : en:00:03:59.239
00:04:12.377 : en:00:04:12.377
00:08:59.080 : en:00:08:59.080
00:09:14.053 : en:00:09:14.053
00:10:09.442 : en:00:10:09.442
00:10:28.962 : en:00:10:28.962
00:10:52.652 : en:00:10:52.652
00:11:03.162 : en:00:11:03.162
00:15:04.654 : en:00:15:04.654
00:15:23.297 : en:00:15:23.297
00:15:44.360 : en:00:15:44.360
00:16:11.971 : en:00:16:11.971
00:16:50.509 : en:00:16:50.509
00:17:42.353 : en:00:17:42.353
00:19:12.860 : en:00:19:12.860


Трекер:  [ 09-Окт-2016 21:00 ]

  

Скачать .torrent

Размер .torrent файла 7 KB


Размер: 5.41 GB
Хэш (hash) релиза: e624a92871801c7a273450527027dd5243634ea9
Подписка на обновления:

Еще никто не оставлял запись к записи скачать торрент Карнавальный Фантазм: Сезон EX Carnival Phantasm EX Season . Будь первым!

!Обратная связь