Скачать через торрент Я требую яоя! Watashi ga Motete Dousunda бесплатно Аниме Все серии на русском torrent

Если у вас наблюдаются проблемы со скриншотами, переходом по ссылками, скачиванием торрентов - проблемы в блокировщике рекламы AdBlock. #хорошегоДня!


Статистика раздачи
Размер:  345 MB   |    Зарегистрирован:  1 год 2 месяца   |    .torrent скачан:  13 раз   |   
Раздают:  1  
   
Загрузка...
 
Автор Сообщение

Galfimbul

avatar Galfimbul


Я требую яоя! / Watashi ga Motete Dousunda / Kiss Him, Not Me
Страна: Япония
Год выпуска: 2016 г.
Тип: TV
Жанр: Комедия, романтика, сёдзё, школа
Продолжительность: 12 эп. по 25 мин
Русские субтитры: [b]YakuSub Studio
Редактор: Nagaki
Переводчик/Перевод песен/Оформление: Nika_Elrik
Режиссер: Исиодори Хироси

Студия:

Описание: Каэ Сэринума учится на втором году старшей школы и просто обожает яой, в тайне придумывая разные развратные истории про своих одноклассников, Игараши Юске и Нанашиму Нозому. Однажды, у неё с подругой даже разгорелся спор о том, кто из мальчиков должен быть сверху... Единственной её проблемой по жизни был излишний вес, много лишнего веса. И она не собиралась ничего менять, она принимала себя такой какая она есть, и любила в себе эту черту. Оно поменялось само. Буквально за неделю, она сбросила весь лишний вес и превратилась в красавицу. Перемены произошли от стресса после смерти её любимого персонажа в аниме.

Так или иначе, теперь Каэ очень популярна в школе, за ней бегают мальчики: Хаято Шиномия с первого года и Асума Муцуми с третьего. Однако, её любовь к яою за ночь не исчезла, и теперь она испытывает трудности в отношениях с парнями. Данное аниме будет повествовать нам о нелегкой жизни бывшей жирухи-яойщицы, которая превратилась в красавицу, и теперь, когда сильная половинка хочет наладить с ней отношения, она пытается отвязаться от них, послать в далекое путешествие.

<span class="post-font-sans1">Качество: HDTVRip | Равка: Leopard-Raws Формат: mp4 | Тип Видео: без хардсаба
Видео: х264, 8 bits, 1280x720, 1772 kbps, 23.976 fps, (16:9)
JP - AAC, 192 kbps, 48.0 KHz, 2 ch Язык Японский[/b]</span>
01. Can She Do It? A Real Life Otome Game
Общее
Полное имя : D:\[Leopard-Raws]\[Leopard-Raws] Watashi ga Motete Dousunda\[Leopard-Raws] Watashi ga Motete Dousunda - 01 RAW (TBS 1280x720 x264 AAC).mp4
Формат : MPEG-4
Профиль формата : Base Media
Идентификатор кодека : isom
Размер файла : 345 Мбайт
Продолжительность : 24 м.
Режим общего битрейта : Переменный
Общий поток : 1968 Кбит/сек
Дата кодирования : UTC 2016-10-07 10:24:51
Дата пометки : UTC 2016-10-07 10:24:51

Видео
Идентификатор : 1
Формат : AVC
Формат/Информация : Advanced Video Codec
Профиль формата : High@L4.1
Параметр CABAC формата : Да
Параметр ReFrames формата : 4 кадра
Идентификатор кодека : avc1
Идентификатор кодека/Информация : Advanced Video Coding
Продолжительность : 24 м.
Битрейт : 1772 Кбит/сек
Максимальный битрейт : 16,6 Мбит/сек
Ширина : 1280 пикселей
Высота : 720 пикселей
Соотношение сторон : 16:9
Режим частоты кадров : Постоянный
Частота кадров : 23,976 кадра/сек
Цветовое пространство : YUV
Субдискретизация насыщенности : 4:2:0
Битовая глубина : 8 бит
Тип развёртки : Прогрессивная
Бит/(Пиксели*Кадры) : 0.080
Размер потока : 311 Мбайт (90%)
Заголовок : 264:fps=23.976@GPAC0.5.2-DEV-rev376-g5eeb74d-master
Библиотека кодирования : x264 core 129 r2245+729M 1a52e03
Настройки программы : cabac=1 / ref=4 / deblock=1:1:-1 / analyse=0x3:0x113 / me=umh / subme=9 / psy=1 / fade_compensate=0.00 / psy_rd=1.00:0.00 / mixed_ref=1 / me_range=24 / chroma_me=1 / trellis=2 / 8x8dct=1 / cqm=0 / deadzone=21,11 / fast_pskip=1 / chroma_qp_offset=-2 / threads=8 / lookahead_threads=1 / sliced_threads=0 / nr=0 / decimate=1 / interlaced=0 / bluray_compat=0 / constrained_intra=0 / fgo=0 / bframes=9 / b_pyramid=2 / b_adapt=2 / b_bias=0 / direct=1 / weightb=1 / open_gop=0 / weightp=2 / keyint=240 / keyint_min=24 / scenecut=40 / intra_refresh=0 / rc=crf / mbtree=0 / crf=18.5 / qcomp=0.72 / qpmin=0 / qpmax=69 / qpstep=4 / ip_ratio=1.40 / pb_ratio=1.30 / aq=1:0.85
Дата кодирования : UTC 2016-10-07 10:24:51
Дата пометки : UTC 2016-10-07 10:24:56
Основные цвета : BT.709
Характеристики трансфера : BT.709
Коэффициенты матрицы : BT.709

Аудио
Идентификатор : 2
Формат : AAC
Формат/Информация : Advanced Audio Codec
Профиль формата : LC
Идентификатор кодека : 40
Продолжительность : 24 м.
Вид битрейта : Переменный
Битрейт : 192 Кбит/сек
Максимальный битрейт : 231 Кбит/сек
Каналы : 2 канала
Расположение каналов : Front: L R
Частота : 48,0 КГц
Метод сжатия : С потерями
Размер потока : 33,6 Мбайт (10%)
Язык : Japanese
Дата кодирования : UTC 2016-10-06 18:13:48
Дата пометки : UTC 2016-10-07 10:24:56


Трекер:  [ 10-Окт-2016 07:30 ]

  

Скачать .torrent

Размер .torrent файла 14 KB


Размер: 345 MB
Хэш (hash) релиза: 253a826f04a141038cab8acf4339ed8573417c18
Подписка на обновления:

Торренты, похожие на Я требую яоя! Watashi ga Motete Dousunda скачать торрент

Форум Название Автор Размер S L Добавлен
Аниме | HD Rips ·· Я требую яоя! / Watashi ga Motete Dousunda / Kiss Him, Not Me (Исиодори Хироси) [TV] [12 из 12] [Без хардсаба] [JAP+SUB] [2016, комедия, романтика, сёдзё, школа HDTVRip] [720p] Galfimbul 53544067984.99 GB 0 0 1482663497

13:58

25-Дек-16

Аниме | HD Rips ·· Я требую яоя! / Watashi ga Motete Dousunda / Kiss Him, Not Me (Исиодори Хироси) [TV] [11 из 12] [Без хардсаба] [JAP+SUB] [2016, комедия, романтика, сёдзё, школа HDTVRip] [720p] Galfimbul 48525457274.52 GB 0 0 1482218932

10:28

20-Дек-16

Аниме | HD Rips ·· Я требую яоя! / Watashi ga Motete Dousunda / Kiss Him, Not Me (Исиодори Хироси) [TV] [10 из 12] [Без хардсаба] [JAP+SUB] [2016, комедия, романтика, сёдзё, школа HDTVRip] [720p] Galfimbul 43434678924.05 GB 0 0 1481538640

13:30

12-Дек-16

Аниме | HD Rips ·· Я требую яоя! / Watashi ga Motete Dousunda / Kiss Him, Not Me (Исиодори Хироси) [TV] [9 из 12] [Без хардсаба] [JAP+SUB] [2016, комедия, романтика, сёдзё, школа HDTVRip] [720p] Galfimbul 39189200313.65 GB 0 0 1480802934

01:08

4-Дек-16

Аниме | HD Rips ·· Я требую яоя! / Watashi ga Motete Dousunda / Kiss Him, Not Me (Исиодори Хироси) [TV] [8 из 12] [Без хардсаба] [JAP+SUB] [2016, комедия, романтика, сёдзё, школа HDTVRip] [720p] Galfimbul 34108829423.18 GB 0 0 1480586784

13:06

1-Дек-16

Аниме | HD Rips ·· Я требую яоя! / Watashi ga Motete Dousunda / Kiss Him, Not Me (Исиодори Хироси) [TV] [7 из 12] [Без хардсаба] [JAP+SUB] [2016, комедия, романтика, сёдзё, школа HDTVRip] [720p] Galfimbul 29300694492.73 GB 0 0 1479813611

14:20

22-Ноя-16

Аниме | HD Rips ·· Я требую яоя! / Watashi ga Motete Dousunda / Kiss Him, Not Me (Исиодори Хироси) [TV] [6 из 12] [Без хардсаба] [JAP+SUB] [2016, комедия, романтика, сёдзё, школа HDTVRip] [720p] Galfimbul 23736262792.21 GB 0 0 1479057187

20:13

13-Ноя-16

Аниме | HD Rips ·· Я требую яоя! / Watashi ga Motete Dousunda / Kiss Him, Not Me (Исиодори Хироси) [TV] [5 из 12] [Без хардсаба] [JAP+SUB] [2016, комедия, романтика, сёдзё, школа HDTVRip] [720p] Galfimbul 19584973551.82 GB 0 0 1478856705

12:31

11-Ноя-16

Аниме | HD Rips ·· Я требую яоя! / Watashi ga Motete Dousunda / Kiss Him, Not Me (Исиодори Хироси) [TV] [4 из 12] [Без хардсаба] [JAP+SUB] [2016, комедия, романтика, сёдзё, школа HDTVRip] [720p] Galfimbul 15781120751.47 GB 0 0 1477953130

01:32

1-Ноя-16

Аниме | HD Rips ·· Я требую яоя! / Watashi ga Motete Dousunda / Kiss Him, Not Me (Исиодори Хироси) [TV] [3 из 12] [Без хардсаба] [JAP+SUB] [2016, комедия, романтика, сёдзё, школа HDTVRip] [720p] Galfimbul 11957908041.11 GB 0 0 1477261748

01:29

24-Окт-16

Аниме | HD Rips ·· Я требую яоя! / Watashi ga Motete Dousunda / Kiss Him, Not Me (Исиодори Хироси) [TV] [2 из 12] [Без хардсаба] [JAP+SUB] [2016, комедия, романтика, сёдзё, школа HDTVRip] [720p] Galfimbul 792762841756 MB 0 0 1477254159

23:22

23-Окт-16

Еще никто не оставлял запись к записи скачать торрент Я требую яоя! Watashi ga Motete Dousunda . Будь первым!

!Обратная связь