Скачать через торрент музыку Танцующий в пустыне Desert Dancer бесплатно без регистрации torrent

Если у вас наблюдаются проблемы со скриншотами, переходом по ссылками, скачиванием торрентов - проблемы в блокировщике рекламы AdBlock. #хорошегоДня!


Статистика раздачи
Размер:  225 MB   |    Зарегистрирован:  1 год 1 месяц   |    .torrent скачан:  26 раз   |   
Раздают:  1  
   
Загрузка...
 
Автор Сообщение

Galfimbul

avatar Galfimbul


Benjamin Wallfisch - Desert Dancer (фильм Танцующий в пустыне)

<span class="post-font-sans1">Жанр: Score
Композитор: Benjamin Wallfisch
Год выпуска диска: 2015
Год выпуска фильма: 2014
Страна-производитель диска: U.S. (США)
Издатель (лейбл): Varese Sarabande
Номер по каталогу: Varese Sarabande 302 067 340 8
Аудиокодек: FLAC (*.flac) Тип рипа: image+.cue
Битрейт аудио: lossless
Продолжительность: 0:44:47
Источник: скачано с soundtrackjungle
Наличие сканов в содержимом раздачи: да

Треклист:
01. Afshin's Theme (5:32)
02. Beat Him Artistically (2:17)
03. You Danced Inside My Heart (1:41)
04. Somewhere to Rehearse (1:02)
05. Elaheh's Audition (2:48)
06. Hand Dance (2:17)
07. We Can Breathe (5:13)
08. Desert Dancer (9:26)
09. Withdrawal (4:04)
10. Silent Protest (00:58)
11. Dance Is My Weapon (5:41)
12. Where No One Else Can See You (3:29)</span>
Exact Audio Copy V1.0 beta 3 from 29. August 2011

EAC extraction logfile from 18. May 2015, 16:36

Benjamin Wallfisch / Desert Dancer

Used drive : TSSTcorpCDDVDW SE-S224Q Adapter: 1 ID: 0

Read mode : SecureUtilize accurate stream : YesDefeat audio cache : YesMake use of C2 pointers : No

Read offset correction : 6Overread into Lead-In and Lead-Out : NoFill up missing offset samples with silence : YesDelete leading and trailing silent blocks : NoNull samples used in CRC calculations : YesUsed interface : Native Win32 interface for Win NT & 2000

Used output format : User Defined EncoderSelected bitrate : 768 kBit/sQuality : HighAdd ID3 tag : NoCommand line compressor : C:\Program Files (x86)\Exact Audio Copy\FLAC\FLAC.EXEAdditional command line options : -6 -V -T "ARTIST=%artist%" -T "TITLE=%title%" -T "ALBUM=%albumtitle%" -T "DATE=%year%" -T "TRACKNUMBER=%tracknr%" -T "GENRE=%genre%" -T "COMMENT=%comment%" -T "BAND=%albuminterpret%" -T "ALBUMARTIST=%albuminterpret%" -T "COMPOSER=%composer%" %haslyrics%--tag-from-file=LYRICS="%lyricsfile%"%haslyrics% -T "DISCNUMBER=%cdnumber%" -T "TOTALDISCS=%totalcds%" -T "TOTALTRACKS=%numtracks%" %hascover%--picture="%coverfile%"%hascover% %source% -o %dest%

TOC of the extracted CD

Track | Start | Length | Start sector | End sector --------------------------------------------------------- 1 | 0:00.00 | 5:32.22 | 0 | 24921 2 | 5:32.22 | 2:16.44 | 24922 | 35165 3 | 7:48.66 | 1:41.27 | 35166 | 42767 4 | 9:30.18 | 1:01.52 | 42768 | 47394 5 | 10:31.70 | 2:48.29 | 47395 | 60023 6 | 13:20.24 | 2:17.20 | 60024 | 70318 7 | 15:37.44 | 5:13.18 | 70319 | 93811 8 | 20:50.62 | 9:25.65 | 93812 | 136251 9 | 30:16.52 | 4:03.58 | 136252 | 154534 10 | 34:20.35 | 0:57.50 | 154535 | 158859 11 | 35:18.10 | 5:40.68 | 158860 | 184427 12 | 40:59.03 | 3:48.43 | 184428 | 201570

Range status and errors

Selected range

Filename C:\Users\Jean\LOSMA\Benjamin Wallfisch - Desert Dancer.wav

Peak level 98.8 % Extraction speed 2.8 X Range quality 100.0 % Test CRC 69B5138D Copy CRC 69B5138D Copy OK

No errors occurred

AccurateRip summary

Track 1 not present in databaseTrack 2 not present in databaseTrack 3 not present in databaseTrack 4 not present in databaseTrack 5 not present in databaseTrack 6 not present in databaseTrack 7 not present in databaseTrack 8 not present in databaseTrack 9 not present in databaseTrack 10 not present in databaseTrack 11 not present in databaseTrack 12 not present in database

None of the tracks are present in the AccurateRip database

End of status report


Трекер:  [ 06-Ноя-2016 16:30 ]

  

Скачать .torrent

Размер .torrent файла 18 KB


Размер: 225 MB
Хэш (hash) релиза: fa438d0bd95ee239a4a9bb256a13442e9538316f

Торренты, похожие на Танцующий в пустыне Desert Dancer скачать торрент

Форум Название Автор Размер S L Добавлен
Саундтреки к фильмам и мультфильмам (mp3) ·· (Score) Танцующий в пустыне / Desert Dancer (Benjamin Wallfisch) - 2015 (2014), MP3 (tracks) 320 kbps Galfimbul 117498183112 MB 0 0 1478197251

21:20

3-Ноя-16

Еще никто не оставлял запись к записи скачать торрент Танцующий в пустыне Desert Dancer . Будь первым!

!Обратная связь