Скачать через торрент музыку Anne Dudley - "A Different Light" бесплатно без регистрации torrent

Если у вас наблюдаются проблемы со скриншотами, переходом по ссылками, скачиванием торрентов - проблемы в блокировщике рекламы AdBlock. #хорошегоДня!


Статистика раздачи
Размер:  260 MB   |    Зарегистрирован:  1 год   |    .torrent скачан:  10 раз   |   
Раздают:  1  
   
Загрузка...
 
Автор Сообщение

Galfimbul

avatar Galfimbul


Anne Dudley - "A Different Light"

Название альбома: A Different Light
Жанр: Score
Композитор: Anne Dudley
Год выпуска диска: 2001
Страна-производитель диска: USA
Издатель (лейбл): Angel Records
Номер по каталогу: 7243 5 57158 2 1
Аудиокодек: FLAC (*.flac)
Тип рипа: image+.cue
Битрейт аудио: lossless
Продолжительность: 50'07
Источник: собственный рип
Наличие сканов в содержимом раздачи: да
Треклист:
1. The Crying Game 3'35
2. Pie Jesu 4'37
3. Turbulent Serenity 2'14
4. Moments in Love 11'04
5. American History X 3'26
6. Two Brothers 2'54
7. The Club with No Name 8'02
8. A Different Light 3'18
9. A Kind of Clue 2'27
10. An Inspector Calls 2'57
11. A Different Life 3'55
Exact Audio Copy V1.0 beta 3 from 29. August 2011

Отчёт EAC об извлечении, выполненном 23. ноября 2016, 14:08

Anne Dudley / A Different Light

Дисковод: Optiarc DVD RW AD-7261S Adapter: 0 ID: 0

Режим чтения : ДостоверностьИспользование точного потока : ДаОтключение кэша аудио : ДаИспользование указателей C2 : Нет

Коррекция смещения при чтении : 48Способность читать области Lead-in и Lead-out : НетЗаполнение пропущенных сэмплов тишиной : ДаУдаление блоков с тишиной в начале и конце : НетПри вычислениях CRC использовались нулевые сэмплы : ДаИнтерфейс : Встроенный Win32-интерфейс для Win NT/2000

Выходной формат : Пользовательский кодировщикВыбранный битрейт : 768 kBit/sКачество : ВысокийДобавление ID3-тега : НетУтилита сжатия : C:\Program Files\Exact Audio Copy\FLAC\FLAC.EXEДополнительные параметры : -V -8 -T "Date=%year%" -T "Genre=%genre%" %source%

TOC извлечённого CD

Трек | Старт | Длительность | Начальный сектор | Конечный сектор --------------------------------------------------------------------- 1 | 0:00.00 | 3:40.63 | 0 | 16562 2 | 3:40.63 | 4:41.62 | 16563 | 37699 3 | 8:22.50 | 3:17.51 | 37700 | 52525 4 | 11:40.26 | 11:08.51 | 52526 | 102676 5 | 22:49.02 | 3:30.39 | 102677 | 118465 6 | 26:19.41 | 2:55.59 | 118466 | 131649 7 | 29:15.25 | 8:07.11 | 131650 | 168185 8 | 37:22.36 | 3:23.26 | 168186 | 183436 9 | 40:45.62 | 2:27.51 | 183437 | 194512 10 | 43:13.38 | 2:57.22 | 194513 | 207809 11 | 46:10.60 | 3:56.16 | 207810 | 225525

Характеристики диапазона извлечения и сообщения об ошибках

Выбранный диапазон

Имя файла F:\My musica\Anne Dudley - A Different Light\Anne Dudley - A Different Light.wav

Пиковый уровень 100.0 % Скорость извлечения 4.0 X Качество диапазона 100.0 % CRC теста B1E6F425 CRC копии B1E6F425 Копирование... OK

Ошибок не произошло

AccurateRip: сводка

Трек 1 : извлечено точно (доверие 8) [326124A9] (AR v2)Трек 2 : извлечено точно (доверие 7) [4DFA4BA3] (AR v2)Трек 3 : извлечено точно (доверие 7) [14EE12B5] (AR v2)Трек 4 : извлечено точно (доверие 7) [F014A26C] (AR v2)Трек 5 : извлечено точно (доверие 7) [7D84E063] (AR v2)Трек 6 : извлечено точно (доверие 7) [B3432067] (AR v2)Трек 7 : извлечено точно (доверие 7) [67BE578D] (AR v2)Трек 8 : извлечено точно (доверие 7) [0BFB57D9] (AR v2)Трек 9 : извлечено точно (доверие 7) [A43923B6] (AR v2)Трек 10 : извлечено точно (доверие 7) [45F5DE72] (AR v2)Трек 11 : извлечено точно (доверие 7) [3DE7C300] (AR v2)

Все треки извлечены точно

Конец отчёта

---- CUETools DB Plugin V2.1.3

[CTDB TOCID: aK0yVRLuc0eiYJGZ.PiL_iSEo9w-] found, Submit result: aK0yVRLuc0eiYJGZ.PiL_iSEo9w- has been confirmed[6ee44fca] (18/18) Accurately ripped

==== Контрольная сумма отчёта D5FFC6ED501D8CA7D599A90AF936B0450526606A0B79CCCB976C5CC668E1A9D8 ====
REM GENRE MiscREM DATE 2001REM DISCID 8D0BBF0BREM COMMENT "ExactAudioCopy v1.0b3"CATALOG 0724355715821PERFORMER "Anne Dudley"TITLE "A Different Light"FILE "Anne Dudley - A Different Light.flac" WAVE TRACK 01 AUDIO TITLE "The Crying Game" PERFORMER "Anne Dudley" ISRC USAR20101365 INDEX 01 00:00:00 TRACK 02 AUDIO TITLE "Pie Jesu" PERFORMER "Anne Dudley" ISRC USAR20101371 INDEX 00 03:36:59 INDEX 01 03:40:63 TRACK 03 AUDIO TITLE "Turbulent Serenity" PERFORMER "Anne Dudley" ISRC USAR20101369 INDEX 00 08:18:29 INDEX 01 08:22:50 TRACK 04 AUDIO TITLE "Moments In Love" PERFORMER "Anne Dudley" ISRC USAR20101368 INDEX 00 11:36:40 INDEX 01 11:40:26 TRACK 05 AUDIO TITLE "American History X" PERFORMER "Anne Dudley" ISRC USAR20101366 INDEX 00 22:44:39 INDEX 01 22:49:02 TRACK 06 AUDIO TITLE "Two Brothers" PERFORMER "Anne Dudley" ISRC USAR20101367 INDEX 00 26:15:24 INDEX 01 26:19:41 TRACK 07 AUDIO TITLE "The Club With No Name" PERFORMER "Anne Dudley" ISRC USAR20101372 INDEX 00 29:10:53 INDEX 01 29:15:25 TRACK 08 AUDIO TITLE "A Different Light" PERFORMER "Anne Dudley" ISRC USAR20101370 INDEX 00 37:17:42 INDEX 01 37:22:36 TRACK 09 AUDIO TITLE "A Kind Of Clue" PERFORMER "Anne Dudley" ISRC USAR20101373 INDEX 00 40:40:13 INDEX 01 40:45:62 TRACK 10 AUDIO TITLE "An Inspector Calls" PERFORMER "Anne Dudley" ISRC USAR20101374 INDEX 00 43:12:27 INDEX 01 43:13:38 TRACK 11 AUDIO TITLE "A Different Life" PERFORMER "Anne Dudley" ISRC USAR20101375 INDEX 00 46:10:37 INDEX 01 46:10:60
Девушка из группы The Art of Noise вспоминает свои работы разных лет.


Трекер:  [ 23-Ноя-2016 13:30 ]

  

Скачать .torrent

Размер .torrent файла 11 KB


Размер: 260 MB
Хэш (hash) релиза: af0f53d82c4d5a7bb7c9e7ffad342cef5a1d70da

Еще никто не оставлял запись к записи скачать торрент Anne Dudley - "A Different Light" . Будь первым!

!Обратная связь