Скачать через торрент Код Люгера 1951 Luger Code 1951 бесплатно Аниме Все серии на русском torrent

Если у вас наблюдаются проблемы со скриншотами, переходом по ссылками, скачиванием торрентов - проблемы в блокировщике рекламы AdBlock. #хорошегоДня!


Статистика раздачи
Размер:  401 MB   |    Зарегистрирован:  1 год   |    .torrent скачан:  48 раз   |   
Раздают:  1  
   
Загрузка...
 
Автор Сообщение

Galfimbul

avatar Galfimbul


Код Люгера 1951 / Luger Code 1951
Страна: Япония
Год выпуска: 2016
Жанр: экшен, фэнтези, сёнен, сверхъестественное
Тип: ONA
Продолжительность: 1 эп. по 25 мин.
Режиссер: Синъя Такахаси
Студия: Studio DEEN
Перевод: Sesha Rim, Aero, Loony Key
Озвучание: двухголосое (муж./жен.) от Soer, MezIdA [DeadLine Studio]
Работа со звуком: Soer [DeadLine Studio]
<span class="post-font-sans1">
Описание:
Сюжет расскажет о молодом, но, несмотря на это, гениальном профессоре университета, Теста. Ему под силу изучить любой язык, из-за чего его попросили расшифровать код, используемый в радио-связи — Код Люгера, что был изобретен оборотнями, врагами человечества. Но оказывается, что Теста не может расшифровать код, и профессору приходится отправиться в экспедицию по поимке оборотня, который поможет ему научиться читать их коды.</span>
Семпл
Качество: WEBRip | Формат: .mkv | Рип: Ohys-Raws
Видео: x264(8 bit.), 1280x720, 1824 Kbps, 23.976 fps
Звук (Russian): acс, 172 kbps, 48.0 KHz, 2.0 ch | [2VO]
Звук (Japanese): acс, 204 kbps, 48.0 KHz, 2.0 ch | Original
Субтитры (Russian): ass, встроенные | Надписи
Субтитры (Russian): ass, встроенные | Субтитры
Хардсаб: отсутствует
<a href="viewtopic.php?t=5303648" class="postLink">...5303648</a> - Альтернативная озвучка

General
Unique ID : 215436583481795168606646119069542835820 (0xA21393A435F2CFAF8354CD51D16CE66C)
Complete name : D:\[DLS] Luger Code 1951 [ONA] [Soer & MezIdA]\[DeadLine] Luger Code 1951 [ONA] [Soer & MezIdA] [720p WEBRip].mkv
Format : Matroska
Format version : Version 4 / Version 2
File size : 401 MiB
Duration : 25mn 25s
Overall bit rate : 2 203 Kbps
Encoded date : UTC 2016-12-02 15:57:49
Writing application : mkvmerge v7.6.0 ('Garden of Dreams') 64bit built on Feb 8 2015 13:04:34
Writing library : libebml v1.3.1 + libmatroska v1.4.2

Video
ID : 1
Format : AVC
Format/Info : Advanced Video Codec
Format profile : Main@L4.1
Format settings, CABAC : Yes
Format settings, ReFrames : 4 frames
Codec ID : V_MPEG4/ISO/AVC
Duration : 25mn 24s
Bit rate : 1 824 Kbps
Width : 1 280 pixels
Height : 720 pixels
Display aspect ratio : 16:9
Frame rate mode : Constant
Frame rate : 23.976 (24000/1001) fps
Color space : YUV
Chroma subsampling : 4:2:0
Bit depth : 8 bits
Scan type : Progressive
Bits/(Pixel*Frame) : 0.083
Stream size : 332 MiB (83%)
Writing library : x264 core 148 r2721 72d53ab
Encoding settings : cabac=1 / ref=3 / deblock=1:0:0 / analyse=0x1:0x111 / me=hex / subme=7 / psy=1 / psy_rd=1.00:0.00 / mixed_ref=1 / me_range=16 / chroma_me=1 / trellis=1 / 8x8dct=0 / cqm=0 / deadzone=21,11 / fast_pskip=1 / chroma_qp_offset=-2 / threads=12 / lookahead_threads=2 / sliced_threads=0 / nr=0 / decimate=1 / interlaced=0 / bluray_compat=0 / constrained_intra=0 / bframes=3 / b_pyramid=2 / b_adapt=1 / b_bias=0 / direct=1 / weightb=1 / open_gop=0 / weightp=2 / keyint=240 / keyint_min=1 / scenecut=40 / intra_refresh=0 / rc_lookahead=40 / rc=crf / mbtree=1 / crf=20.0 / qcomp=0.60 / qpmin=0 / qpmax=69 / qpstep=4 / ip_ratio=1.40 / aq=1:1.50
Default : Yes
Forced : No
Color range : Limited
Color primaries : BT.709
Transfer characteristics : BT.709
Matrix coefficients : BT.709

Audio #1
ID : 2
Format : AAC
Format/Info : Advanced Audio Codec
Format profile : LC
Codec ID : A_AAC
Duration : 25mn 24s
Bit rate : 172 Kbps
Channel(s) : 2 channels
Channel positions : Front: L R
Sampling rate : 48.0 KHz
Frame rate : 46.875 fps (1024 spf)
Compression mode : Lossy
Delay relative to video : 20ms
Stream size : 31.2 MiB (8%)
Title : [Soer & MezIdA] [Deadline Studio]
Language : Russian
Default : Yes
Forced : Yes

Audio #2
ID : 3
Format : AAC
Format/Info : Advanced Audio Codec
Format profile : LC
Codec ID : A_AAC
Duration : 25mn 25s
Bit rate : 204 Kbps
Channel(s) : 2 channels
Channel positions : Front: L R
Sampling rate : 48.0 KHz
Frame rate : 46.875 fps (1024 spf)
Compression mode : Lossy
Stream size : 37.0 MiB (9%)
Title : Original
Language : Japanese
Default : No
Forced : No

Text #1
ID : 4
Format : ASS
Codec ID : S_TEXT/ASS
Codec ID/Info : Advanced Sub Station Alpha
Duration : 2mn 7s
Bit rate : 739 bps
Count of elements : 95
Compression mode : Lossless
Stream size : 11.5 KiB (0%)
Title : Надписи
Language : Russian
Default : Yes
Forced : Yes

Text #2
ID : 5
Format : ASS
Codec ID : S_TEXT/ASS
Codec ID/Info : Advanced Sub Station Alpha
Duration : 23mn 35s
Bit rate : 170 bps
Count of elements : 354
Compression mode : Lossless
Stream size : 29.4 KiB (0%)
Title : Полные субтитры
Language : Russian
Default : No
Forced : No


Трекер:  [ 02-Дек-2016 18:00 ]

  

Скачать .torrent

Размер .torrent файла 16 KB


Размер: 401 MB
Хэш (hash) релиза: 3e88d59adf9135f5a287d06123d09fa01e7abb66
Подписка на обновления:

Торренты, похожие на Код Люгера 1951 Luger Code 1951 скачать торрент

Форум Название Автор Размер S L Добавлен
Аниме | HD Rips ·· Код Люгера 1951 / Luger Code 1951 [ONA] [1 из 1] [Без хардсаба] [RUS(int), JAP, SUB] [2016, экшен, фэнтези, HDTVRip] [720p] Galfimbul 423862415404 MB 0 0 1477731943

12:05

29-Окт-16

Еще никто не оставлял запись к записи скачать торрент Код Люгера 1951 Luger Code 1951 . Будь первым!

!Обратная связь