Скачать через торрент Намбака Nanbaka бесплатно Аниме Все серии на русском torrent

Если у вас наблюдаются проблемы со скриншотами, переходом по ссылками, скачиванием торрентов - проблемы в блокировщике рекламы AdBlock. #хорошегоДня!


Статистика раздачи
Размер:  5.46 GB   |    Зарегистрирован:  11 месяцев   |    .torrent скачан:  35 раз   |   
Раздают:  1  
   
Загрузка...
 
Автор Сообщение

Galfimbul

avatar Galfimbul


Намбака / Nanbaka
Страна: Япония
Год выпуска: 2016 г.
Тип: TV
Жанр: Драма, экшен, комедия
Продолжительность: 12 эп. по 25 мин
Русские субтитры: AOS
Перевод: RazGildyai
Режиссер: Такамацу Синдзи

Студия:

Описание: Юго, Уно, Нико и Рок - четыре заключенных "самой охраняемой" тюрьмы Японии под названием "Нанба". Крупнейшее место лишения свободы в Японии. От всего остального мира она ограждена огромной стеной, также это место славится своими передовыми системами безопасности. В этой самой тюрьме заключенных разделяют на группы и присваивают им номера. Оттуда еще никому не удавалось сбежать, почти...

Юго - заключенный номер 15, он ненавидит окулистов, по национальности японец и помешан на побегах. Именно он может сбежать из этой непреступной тюрьмы по несколько раз на дню. Уно - заключенный номер 11, хороший игрок в покер, англичанин, его главным занятием являются аферы. До того, как он попал в тюрьму, у него была невеста... именно, что была: не дождавшись любимого, она выскочила замуж за "точную копию". Рок - заключенный номер 69, американец, любит пончики и не упускает возможности помахать кулаками. Нико - заключенный номер 25, америцанец, анимешник, считает, что аниме должно захватить мир. Именно эти четыре персонажа будут вечно доставать своего охранника - Хаджиме. Как они это будут делать? Узнаете при просмотре!

<span class="post-font-sans1">Качество: HDTVRip | Равка: Leopard-Raws Формат: mp4 | Тип Видео: без хардсаба
Видео: х264, 8 bits, 1280x720, 2715 kbps, 23.976 fps, (16:9)
JP - AAC, 192 kbps, 48.0 KHz, 2 ch Язык Японский</span>
01. Idiots with Numbers!
02. The Inmates Are Stupid! The Guards Are Kind of Stupid, Too!
03. Another Idiot Has Come!!
04. Happy New Year! The New Year`s Tournament Is Where We Get Serious!!
05. A Fraud and a Hero
06. The Booster Episode
07. It`s a Surprisingly Sad Story
08. A Monster and a Gorilla
09. You`re Empty!!
10. A Melancholy Day for the Dog, Monkey, and Pheasant
11. We Got Our Rewards
Общее
Полное имя : D:\[Leopard-Raws]\[Leopard-Raws] Nanbaka\[Leopard-Raws] Nanbaka - 01 RAW (MBS 1280x720 x264 AAC).mp4
Формат : MPEG-4
Профиль формата : Base Media
Идентификатор кодека : isom
Размер файла : 499 Мбайт
Продолжительность : 23 м.
Режим общего битрейта : Переменный
Общий поток : 2910 Кбит/сек
Дата кодирования : UTC 2016-10-05 09:38:38
Дата пометки : UTC 2016-10-05 09:38:38

Видео
Идентификатор : 1
Формат : AVC
Формат/Информация : Advanced Video Codec
Профиль формата : High@L4.1
Параметр CABAC формата : Да
Параметр ReFrames формата : 4 кадра
Идентификатор кодека : avc1
Идентификатор кодека/Информация : Advanced Video Coding
Продолжительность : 23 м.
Битрейт : 2715 Кбит/сек
Максимальный битрейт : 19,9 Мбит/сек
Ширина : 1280 пикселей
Высота : 720 пикселей
Соотношение сторон : 16:9
Режим частоты кадров : Постоянный
Частота кадров : 23,976 кадра/сек
Цветовое пространство : YUV
Субдискретизация насыщенности : 4:2:0
Битовая глубина : 8 бит
Тип развёртки : Прогрессивная
Бит/(Пиксели*Кадры) : 0.123
Размер потока : 466 Мбайт (93%)
Заголовок : 264:fps=23.976@GPAC0.5.2-DEV-rev376-g5eeb74d-master
Библиотека кодирования : x264 core 129 r2245+729M 1a52e03
Настройки программы : cabac=1 / ref=4 / deblock=1:1:-1 / analyse=0x3:0x113 / me=umh / subme=9 / psy=1 / fade_compensate=0.00 / psy_rd=1.00:0.00 / mixed_ref=1 / me_range=24 / chroma_me=1 / trellis=2 / 8x8dct=1 / cqm=0 / deadzone=21,11 / fast_pskip=1 / chroma_qp_offset=-2 / threads=8 / lookahead_threads=1 / sliced_threads=0 / nr=0 / decimate=1 / interlaced=0 / bluray_compat=0 / constrained_intra=0 / fgo=0 / bframes=9 / b_pyramid=2 / b_adapt=2 / b_bias=0 / direct=1 / weightb=1 / open_gop=0 / weightp=2 / keyint=240 / keyint_min=24 / scenecut=40 / intra_refresh=0 / rc=crf / mbtree=0 / crf=18.5 / qcomp=0.72 / qpmin=0 / qpmax=69 / qpstep=4 / ip_ratio=1.40 / pb_ratio=1.30 / aq=1:0.85
Дата кодирования : UTC 2016-10-05 09:38:38
Дата пометки : UTC 2016-10-05 09:38:43
Основные цвета : BT.709
Характеристики трансфера : BT.709
Коэффициенты матрицы : BT.709

Аудио
Идентификатор : 2
Формат : AAC
Формат/Информация : Advanced Audio Codec
Профиль формата : LC
Идентификатор кодека : 40
Продолжительность : 23 м.
Вид битрейта : Переменный
Битрейт : 192 Кбит/сек
Максимальный битрейт : 221 Кбит/сек
Каналы : 2 канала
Расположение каналов : Front: L R
Частота : 48,0 КГц
Метод сжатия : С потерями
Размер потока : 32,9 Мбайт (7%)
Язык : Japanese
Дата кодирования : UTC 2016-10-05 08:02:42
Дата пометки : UTC 2016-10-05 09:38:43


Обновите торент файл, добавлена 11я серия

Трекер:  [ 20-Дек-2016 10:00 ]

  

Скачать .torrent

Размер .torrent файла 16 KB


Размер: 5.46 GB
Хэш (hash) релиза: 66af750886c8d025102da4cb042e28d0d50d2b89
Подписка на обновления:

Торренты, похожие на Намбака Nanbaka скачать торрент

Форум Название Автор Размер S L Добавлен
Аниме | HD Rips ·· Намбака / Nanbaka (Такамацу Синдзи) [TV] [12 из 13] [Без хардсаба] [JAP+SUB] [2016, драма комедия, экшн, HDTVRip] [720p] Galfimbul 63365453115.9 GB 0 0 1482919058

12:57

28-Дек-16

Аниме | HD Rips ·· Намбака / Nanbaka (Такамацу Синдзи) [TV] [10 из 12] [Без хардсаба] [JAP+SUB] [2016, драма комедия, экшн, HDTVRip] [720p] Galfimbul 53420582604.98 GB 0 0 1481573442

23:10

12-Дек-16

Аниме | HD Rips ·· Намбака / Nanbaka (Такамацу Синдзи) [TV] [9 из 12] [Без хардсаба] [JAP+SUB] [2016, драма комедия, экшн, HDTVRip] [720p] Galfimbul 48628639754.53 GB 0 0 1481155439

03:03

8-Дек-16

Аниме | HD Rips ·· Намбака / Nanbaka (Такамацу Синдзи) [TV] [8 из 12] [Без хардсаба] [JAP+SUB] [2016, драма комедия, экшн, HDTVRip] [720p] Galfimbul 44217151874.12 GB 0 0 1480619133

22:05

1-Дек-16

Аниме | HD Rips ·· Намбака / Nanbaka (Такамацу Синдзи) [TV] [7 из 12] [Без хардсаба] [JAP+SUB] [2016, драма комедия, экшн, HDTVRip] [720p] Galfimbul 38296367873.57 GB 0 0 1479852788

01:13

23-Ноя-16

Аниме | HD Rips ·· Намбака / Nanbaka (Такамацу Синдзи) [TV] [4 из 12] [Без хардсаба] [JAP+SUB] [2016, драма комедия, экшн, HDTVRip] [720p] Galfimbul 21054122861.96 GB 0 0 1477959290

03:14

1-Ноя-16

Аниме | HD Rips ·· Намбака / Nanbaka (Такамацу Синдзи) [TV] [3 из 12] [Без хардсаба] [JAP+SUB] [2016, драма комедия, экшн, HDTVRip] [720p] Galfimbul 15002454451.4 GB 0 0 1477263602

02:00

24-Окт-16

Аниме | HD Rips ·· Намбака / Nanbaka (Такамацу Синдзи) [TV] [2 из 12] [Без хардсаба] [JAP+SUB] [2016, драма комедия, экшн, HDTVRip] [720p] Galfimbul 993059064947 MB 0 0 1477254239

23:23

23-Окт-16

Аниме | HD Rips ·· Намбака / Nanbaka (Такамацу Синдзи) [TV] [1 из 12] [Без хардсаба] [JAP+SUB] [2016 г., драма комедия, экшн, HDTVRip] [720p] Galfimbul 523665754499 MB 0 0 1476045643

23:40

9-Окт-16

Аниме | HD Rips ·· Намбака / Nanbaka (Такамацу Синдзи) [TV] [1 из 12] [Без хардсаба] [JAP+SUB] [2016 г., драма комедия, экшн, HDTVRip] [720p] Galfimbul 523665754499 MB 0 0 1475995219

09:40

9-Окт-16

Еще никто не оставлял запись к записи скачать торрент Намбака Nanbaka . Будь первым!

!Обратная связь