Скачать через торрент Истории ран Kizumonogatari бесплатно Аниме Все серии на русском torrent

Если у вас наблюдаются проблемы со скриншотами, переходом по ссылками, скачиванием торрентов - проблемы в блокировщике рекламы AdBlock. #хорошегоДня!


Статистика раздачи
Размер:  3.43 GB   |    Зарегистрирован:  11 месяцев   |    .torrent скачан:  31 раз   |   
Раздают:  1  
   
Загрузка...
 
Автор Сообщение

Galfimbul

avatar Galfimbul


Истории ран / Kizumonogatari

Страна: Япония
Год выпуска: 2016 г.
Жанр: приключения, мистика
Тип: Movie
Продолжительность: 2 фильма, ~64-69 мин.
Режиссер: Симбо Акиюки
Студия: SHAFT

Описание: Я думаю, что самое время рассказать о Кисс-Шот-Ацерола-Орион-Харт-Андер-Блэйд. Я думаю, что должен сделать это. Я встретил ее на весенних каникулах по окончании второго года обучения. Эта встреча была подобна взрыву. Думал ли я, что серьезно влип? Конечно, ничего бы не произошло, если бы я не оказался там, или на моем месте был бы кто-то другой. На самом деле, я думаю, что свалить все на неудачу было бы чересчур безответственно, и, полагаю, должен признать - это была полностью моя ошибка. В конце концов, я верю, что мое существование породило дальнейшую цепь событий.

Качество: BDRip (gt35)
Тип релиза: Без хардсаба
Формат видео: MKV
Видео: AVC (10 bit), 1280x544, 2517 kbps, 23.976 fps
Аудио: AC3, 448 kbps, 48.0 kHz, 6 ch Язык Японский
Аудио 2: FLAC, 48.0 KHz, 714 kbps, 2ch Язык Русский (внешним файлом); Озвучка: двухголосная (муж./жен.), NIKITOS & Viki (SHIZA Project)
Субтитры: ASS, внешние, полные | надписи «Sovetromantica» Язык субтитров русский ; Перевод: Ararararagi | Редактура: Sempre_Libera
Субтитры 2: ASS, внешние, полные | надписи «YakuSub Studio» Язык субтитров русский ; Переводчики: SeshaRim, Yukigawa | Редакция: Aero | Оформление: Helge
от
<a href="viewtopic.php?t=5260511" class="postLink">...5260511</a>
-720p
<a href="viewtopic.php?t=5261104" class="postLink">...5261104</a>
-BDRip
<a href="viewtopic.php?t=5261125" class="postLink">...5261125</a>
-наличие озвучки, лучшее качество (сравнение скриншотов)
GeneralUnique ID : 190169346631918386076754390058454542041 (0x8F1148AEDE974D09A9940BC5ED34E6D9)Complete name : Monogatari series\Kizumonogatari I [BD] [720p]\[gt35] Kizumonogatari I Tekketsu-hen (BDRip, 544p, AC3).mkvFormat : MatroskaFormat version : Version 4 / Version 2File size : 1.32 GiBDuration : 1h 3mnOverall bit rate : 2 971 KbpsEncoded date : UTC 2016-07-29 19:47:48Writing application : mkvmerge v9.3.1 ('Mask Machine') 64bitWriting library : libebml v1.3.4 + libmatroska v1.4.5Attachments : 9126.ttf / 9475.otf / BREME_0.TTF / cambriab_3.ttf / Fowviel.ttf / GOTHIC.TTF / Intro Cond Light Free.otf / Lora-Regular.ttf / Vollkorn-Bold.otf

VideoID : 1Format : AVCFormat/Info : Advanced Video CodecFormat profile : High 10@L5Format settings, CABAC : YesFormat settings, ReFrames : 11 framesCodec ID : V_MPEG4/ISO/AVCDuration : 1h 3mnBit rate : 2 517 KbpsWidth : 1 280 pixelsHeight : 544 pixelsDisplay aspect ratio : 2.35:1Frame rate mode : ConstantFrame rate : 23.976 (24000/1001) fpsColor space : YUVChroma subsampling : 4:2:0Bit depth : 10 bitsScan type : ProgressiveBits/(Pixel*Frame) : 0.151Stream size : 1.12 GiB (85%)Writing library : x264 core 148 r2638 7599210Encoding settings : cabac=1 / ref=11 / deblock=1:-2:-2 / analyse=0x3:0x133 / me=umh / subme=9 / psy=1 / psy_rd=0.90:0.00 / mixed_ref=1 / me_range=24 / chroma_me=1 / trellis=2 / 8x8dct=1 / cqm=0 / deadzone=21,11 / fast_pskip=0 / chroma_qp_offset=-4 / threads=12 / lookahead_threads=2 / sliced_threads=0 / nr=0 / decimate=1 / interlaced=0 / bluray_compat=0 / constrained_intra=0 / bframes=8 / b_pyramid=2 / b_adapt=2 / b_bias=0 / direct=3 / weightb=1 / open_gop=0 / weightp=2 / keyint=250 / keyint_min=23 / scenecut=40 / intra_refresh=0 / rc_lookahead=40 / rc=crf / mbtree=1 / crf=15.0 / qcomp=0.70 / qpmin=0 / qpmax=40 / qpstep=4 / vbv_maxrate=168750 / vbv_bufsize=168750 / crf_max=0.0 / nal_hrd=none / filler=0 / ip_ratio=1.40 / aq=1:1.00Language : JapaneseDefault : YesForced : No

AudioID : 2Format : AC-3Format/Info : Audio Coding 3Mode extension : CM (complete main)Format settings, Endianness : BigCodec ID : A_AC3Duration : 1h 3mnBit rate mode : ConstantBit rate : 448 KbpsChannel(s) : 6 channelsChannel positions : Front: L C R, Side: L R, LFESampling rate : 48.0 KHzFrame rate : 31.250 fps (1536 spf)Compression mode : LossyStream size : 204 MiB (15%)Language : JapaneseDefault : YesForced : No


Трекер:  [ 24-Дек-2016 18:00 ]

  

Скачать .torrent

Размер .torrent файла 18 KB


Размер: 3.43 GB
Хэш (hash) релиза: d18e8a4522ab43115e6615427d07b04227d081d1
Подписка на обновления:

Торренты, похожие на Истории ран Kizumonogatari скачать торрент

Форум Название Автор Размер S L Добавлен
Аниме | HD Rips ·· Истории ран / Kizumonogatari [Movie] [1-2 из 3] [Без хардсаба] [RUS(ext),JAP+SUB] [2016, приключения, мистика, BDRip] [1080p] Galfimbul 81662379767.61 GB 0 0 1496965282

02:41

9-Июн-17

Аниме | HD Rips ·· Истории ран / Kizumonogatari [Movie] [1-2 из 3] [Без хардсаба] [JAP+SUB] [2016, приключения, мистика, BDRemux] [1080p] Galfimbul 4162960709938.77 GB 0 0 1482590431

17:40

24-Дек-16

Аниме | HD Rips ·· Истории ран / Kizumonogatari [Movie] [1-2 из 3] [Без хардсаба] [JAP+SUB] [2016, приключения, мистика, BDRip] [1080p] Galfimbul 79363392227.39 GB 0 0 1482578915

14:28

24-Дек-16

Аниме | HD Rips ·· Истории ран. Часть 1: Железная кровь / Kizumonogatari Part 1: Tekketsu-hen [Movie] [Без хардсаба] [RUS(ext), JAP+SUB] [2016, приключения, мистика, BDRip] [720p] Galfimbul 17554585091.63 GB 0 0 1477931686

19:34

31-Окт-16

Аниме | Rips ·· Истории ран. Часть 1: Железная кровь / Kizumonogatari Part 1: Tekketsu-hen [Movie] [Без хардсаба] [RUS(int), JAP+SUB] [2016 г., приключения, мистика, BDRip] [720p] Galfimbul 12358991331.15 GB 0 0 1472677996

00:13

1-Сен-16

Аниме | HD Rips ·· Истории ран. Часть 1: Железная кровь / Kizumonogatari Part 1: Tekketsu-hen [Movie] [Без хардсаба] [RUS(ext),JAP+SUB] [2016 г., приключения, мистика, BDRip] [720p] Galfimbul 14216286531.32 GB 0 0 1471042968

02:02

13-Авг-16

Аниме | HD Rips ·· Истории ран. Часть 1: Железная кровь / Kizumonogatari Part 1: Tekketsu-hen [Movie] [Без хардсаба] [RUS(ext), JAP+SUB] [2016 г., приключения, мистика, BDRip] [720p] Galfimbul 17552439981.63 GB 0 0 1471018404

19:13

12-Авг-16

Аниме | HD Rips ·· Истории ран. Часть 1: Железная кровь / Kizumonogatari Part 1: Tekketsu-hen [Movie] [Без хардсаба] [JAP+SUB] [2016 г., приключения, мистика, BDRemux] [1080p] Galfimbul 2028371027318.89 GB 0 0 1470410857

18:27

5-Авг-16

Аниме | HD Rips ·· Истории ран. Часть 1: Железная кровь / Kizumonogatari Part 1: Tekketsu-hen [Movie] [Без хардсаба] [JAP+SUB] [2016 г., приключения, мистика, BDRip] [1080p] Galfimbul 31972080952.98 GB 0 0 1470410849

18:27

5-Авг-16

Аниме | HD Rips ·· Истории ран. Часть 1: Железная кровь / Kizumonogatari Part 1: Tekketsu-hen [Movie] [Без хардсаба] [JAP+SUB] [2016 г., приключения, мистика, BDRip] [1080p] Galfimbul 31444884242.93 GB 0 0 1469876767

14:06

30-Июл-16

Аниме | HD Rips ·· Истории ран. Часть 1: Железная кровь / Kizumonogatari Part 1: Tekketsu-hen [Movie] [Без хардсаба] [JAP+SUB] [2016 г., приключения, мистика, BDRip] [544p] Galfimbul 14150953591.32 GB 0 0 1469826368

00:06

30-Июл-16

Аниме | HD Rips ·· Истории ран. Часть 1: Железная кровь / Kizumonogatari Part 1: Tekketsu-hen [Movie] [Без хардсаба] [JAP+SUB] [2016 г., приключения, мистика, BDRip] [720p] Galfimbul 12405347721.16 GB 0 0 1469806217

18:30

29-Июл-16

Аниме | HD Rips ·· Истории ран. Часть 1: Железная кровь / Kizumonogatari Part 1: Tekketsu-hen [Movie] [Без хардсаба] [JAP+SUB] [2016 г., приключения, мистика, BDRemux] [1080p] Galfimbul 1699018310015.82 GB 0 0 1469804350

17:59

29-Июл-16

Аниме | HD Rips ·· Истории ран. Часть 1: Железная кровь / Kizumonogatari Part 1: Tekketsu-hen [Movie] [Без хардсаба] [JAP+SUB] [2016 г., приключения, мистика, BDRip] [1080p] Galfimbul 11033352501.03 GB 0 0 1469681789

07:56

28-Июл-16

Еще никто не оставлял запись к записи скачать торрент Истории ран Kizumonogatari . Будь первым!

!Обратная связь