Скачать через торрент музыку бесплатно без регистрации torrent

Если у вас наблюдаются проблемы со скриншотами, переходом по ссылками, скачиванием торрентов - проблемы в блокировщике рекламы AdBlock. #хорошегоДня!


Статистика раздачи
Размер:  628 MB   |    Зарегистрирован:  11 месяцев   |    .torrent скачан:  20 раз   |   
Раздают:  1  
   
Загрузка...
 
Автор Сообщение

Galfimbul

avatar Galfimbul


Луни Тюнз. Ну, с Рождеством! / Bah, Humduck! A Looney Tunes Christmas
<var class="postImg postImgAligned img-right" title="https://i.imgbox.com/E6HdNZg6.jpg">
</var>Название альбома: Bah, Humduck! A Looney Tunes Christmas
Жанр: Score
Композитор: Gordon Goodwin's Big Phat Band
Год выпуска диска: 2006
Год выпуска фильма: 2006
Страна-производитель диска: USA
Издатель (лейбл): Warner Bros.
Номер по каталогу: 67662-84105-2-3
Аудиокодек: FLAC (*.flac)
Тип рипа: tracks+.cue
Битрейт аудио: lossless
Продолжительность: CD1: 49:53; CD2: 44:11
Источник: собственный рип
Наличие сканов в содержимом раздачи: да
<var class="postImg postImgAligned img-right" title="https://i.imgbox.com/vlpQ5MbO.jpg">
</var>01. Main Title - 3:27
02. Attention Holiday Shoppers - 4:18
03. Kiss Me, It's Christmas - 2:05
04. That Spitting Problem - 2:48
05. The Taskmaster 7000 - 3:57
06. Profits On The Rise - 2:19
07. The Lucky Duck Orphanage - 2:54
08. This Is The Final Indignity - 2:33
09. Bugs Hides Daffy - 4:51
10. Bah, Humduck! Finale - 5:13
11. Yo Tannenbaum - 5:27
12. This Is Christmas - 4:32
13. God Rest Ye Merry Gentlemen - 5:31
Exact Audio Copy V1.3 from 2. September 2016

EAC extraction logfile from 20. December 2016, 16:34

Gordon Goodwin's Big Phat Band / Bah, Humduck! (A Looney Tunes Christmas)

Used drive : TSSTcorpCDDVDW TS-U633J Adapter: 1 ID: 0

Read mode : SecureUtilize accurate stream : YesDefeat audio cache : YesMake use of C2 pointers : No

Read offset correction : 6Overread into Lead-In and Lead-Out : NoFill up missing offset samples with silence : YesDelete leading and trailing silent blocks : NoNull samples used in CRC calculations : YesUsed interface : Native Win32 interface for Win NT & 2000Gap handling : Appended to previous track

Used output format : User Defined EncoderSelected bitrate : 1024 kBit/sQuality : HighAdd ID3 tag : NoCommand line compressor : C:\Program Files (x86)\Exact Audio Copy\Flac\flac.exeAdditional command line options : -8 -e -V -T "ARTIST=%artist%" -T "TITLE=%title%" -T "ALBUM=%albumtitle%" -T "DATE=%year%" -T "TRACKNUMBER=%tracknr%" -T "GENRE=%genre%" -T "PERFORMER=%albuminterpret%" -T "COMPOSER=%composer%" %haslyrics%--tag-from-file=LYRICS="%lyricsfile%"%haslyrics% -T "ALBUMARTIST=%albumartist%" -T "DISCNUMBER=%cdnumber%" -T "TOTALDISCS=%totalcds%" -T "TOTALTRACKS=%numtracks%" -T "COMMENT=%comment%" %source% -o %dest%

TOC of the extracted CD

Track | Start | Length | Start sector | End sector --------------------------------------------------------- 1 | 0:00.00 | 3:26.55 | 0 | 15504 2 | 3:26.55 | 4:18.32 | 15505 | 34886 3 | 7:45.12 | 2:04.55 | 34887 | 44241 4 | 9:49.67 | 2:47.43 | 44242 | 56809 5 | 12:37.35 | 3:57.12 | 56810 | 74596 6 | 16:34.47 | 2:19.33 | 74597 | 85054 7 | 18:54.05 | 2:53.40 | 85055 | 98069 8 | 21:47.45 | 2:32.47 | 98070 | 109516 9 | 24:20.17 | 4:50.60 | 109517 | 131326 10 | 29:11.02 | 5:12.45 | 131327 | 154771 11 | 34:23.47 | 5:26.40 | 154772 | 179261 12 | 39:50.12 | 4:32.33 | 179262 | 199694 13 | 44:22.45 | 5:30.65 | 199695 | 224509

Track 1

Filename C:\EAC Rips\Gordon Goodwin's Big Phat Band - Bah, Humduck! (2006)\CD1\01 - Main Title.wav

Pre-gap length 0:00:02.00

Peak level 97.7 % Extraction speed 0.9 X Track quality 100.0 % Test CRC 7FD3B640 Copy CRC 7FD3B640 Accurately ripped (confidence 5) [24221E60] (AR v2) Copy OK

Track 2

Filename C:\EAC Rips\Gordon Goodwin's Big Phat Band - Bah, Humduck! (2006)\CD1\02 - Attention Holiday Shoppers.wav

Peak level 97.7 % Extraction speed 1.0 X Track quality 100.0 % Test CRC 9E7487DF Copy CRC 9E7487DF Accurately ripped (confidence 5) [47374AF5] (AR v2) Copy OK

Track 3

Filename C:\EAC Rips\Gordon Goodwin's Big Phat Band - Bah, Humduck! (2006)\CD1\03 - Kiss Me, It's Christmas.wav

Peak level 97.7 % Extraction speed 1.0 X Track quality 100.0 % Test CRC 7DA22114 Copy CRC 7DA22114 Accurately ripped (confidence 5) [643FDCA8] (AR v2) Copy OK

Track 4

Filename C:\EAC Rips\Gordon Goodwin's Big Phat Band - Bah, Humduck! (2006)\CD1\04 - That Spitting Problem.wav

Peak level 97.7 % Extraction speed 1.1 X Track quality 100.0 % Test CRC D7C1F810 Copy CRC D7C1F810 Accurately ripped (confidence 5) [9734843D] (AR v2) Copy OK

Track 5

Filename C:\EAC Rips\Gordon Goodwin's Big Phat Band - Bah, Humduck! (2006)\CD1\05 - The Taskmaster 7000.wav

Peak level 97.7 % Extraction speed 1.2 X Track quality 100.0 % Test CRC B411ECB6 Copy CRC B411ECB6 Accurately ripped (confidence 5) [63096D3D] (AR v2) Copy OK

Track 6

Filename C:\EAC Rips\Gordon Goodwin's Big Phat Band - Bah, Humduck! (2006)\CD1\06 - Profits On The Rise.wav

Peak level 97.7 % Extraction speed 0.9 X Track quality 99.9 % Test CRC 7261BD64 Copy CRC 7261BD64 Accurately ripped (confidence 5) [7717FEC5] (AR v2) Copy OK

Track 7

Filename C:\EAC Rips\Gordon Goodwin's Big Phat Band - Bah, Humduck! (2006)\CD1\07 - The Lucky Duck Orphanage.wav

Peak level 97.7 % Extraction speed 1.2 X Track quality 100.0 % Test CRC 5AE5C17D Copy CRC 5AE5C17D Accurately ripped (confidence 5) [AACF5AC2] (AR v2) Copy OK

Track 8

Filename C:\EAC Rips\Gordon Goodwin's Big Phat Band - Bah, Humduck! (2006)\CD1\08 - This Is The Final Indignity.wav

Peak level 97.7 % Extraction speed 1.2 X Track quality 100.0 % Test CRC ABFF8C01 Copy CRC ABFF8C01 Accurately ripped (confidence 5) [386D63E8] (AR v2) Copy OK

Track 9

Filename C:\EAC Rips\Gordon Goodwin's Big Phat Band - Bah, Humduck! (2006)\CD1\09 - Bugs Hides Daffy.wav

Peak level 97.7 % Extraction speed 1.3 X Track quality 99.9 % Test CRC 71433BF2 Copy CRC 71433BF2 Accurately ripped (confidence 5) [B240DAB9] (AR v2) Copy OK

Track 10

Filename C:\EAC Rips\Gordon Goodwin's Big Phat Band - Bah, Humduck! (2006)\CD1\10 - Bah, Humduck! Finale.wav

Peak level 97.7 % Extraction speed 1.5 X Track quality 100.0 % Test CRC 42F3ADEC Copy CRC 42F3ADEC Accurately ripped (confidence 5) [EF15D148] (AR v2) Copy OK

Track 11

Filename C:\EAC Rips\Gordon Goodwin's Big Phat Band - Bah, Humduck! (2006)\CD1\11 - Yo Tannenbaum.wav

Peak level 97.7 % Extraction speed 1.6 X Track quality 100.0 % Test CRC 7C774D4A Copy CRC 7C774D4A Accurately ripped (confidence 5) [C9322933] (AR v2) Copy OK

Track 12

Filename C:\EAC Rips\Gordon Goodwin's Big Phat Band - Bah, Humduck! (2006)\CD1\12 - This Is Christmas.wav

Peak level 87.1 % Extraction speed 1.6 X Track quality 100.0 % Test CRC 050D7F25 Copy CRC 050D7F25 Accurately ripped (confidence 5) [B58A3688] (AR v2) Copy OK

Track 13

Filename C:\EAC Rips\Gordon Goodwin's Big Phat Band - Bah, Humduck! (2006)\CD1\13 - God Rest Ye Merry Gentlemen.wav

Peak level 92.2 % Extraction speed 1.7 X Track quality 100.0 % Test CRC EE6A6AD3 Copy CRC EE6A6AD3 Accurately ripped (confidence 5) [10CD4D72] (AR v2) Copy OK

All tracks accurately ripped

No errors occurred

End of status report

---- CUETools DB Plugin V2.1.6

[CTDB TOCID: 4zChcWWtF2Jb.DiHB8ph7GUd95E-] foundSubmit result: 4zChcWWtF2Jb.DiHB8ph7GUd95E- has been confirmedTrack | CTDB Status 1 | (7/7) Accurately ripped 2 | (7/7) Accurately ripped 3 | (7/7) Accurately ripped 4 | (7/7) Accurately ripped 5 | (7/7) Accurately ripped 6 | (7/7) Accurately ripped 7 | (7/7) Accurately ripped 8 | (7/7) Accurately ripped 9 | (7/7) Accurately ripped 10 | (7/7) Accurately ripped 11 | (7/7) Accurately ripped 12 | (7/7) Accurately ripped 13 | (7/7) Accurately ripped

==== Log checksum 19B0ECBB2E06669C3D83FBE818A9B196BE46A7EC34AC59BD1B25F2A4E31143EF ====
REM COMMENT "CUETools generated dummy CUE sheet"FILE "01 - Main Title.flac" WAVE TRACK 01 AUDIO INDEX 01 00:00:00FILE "02 - Attention Holiday Shoppers.flac" WAVE TRACK 02 AUDIO INDEX 01 00:00:00FILE "03 - Kiss Me, It's Christmas.flac" WAVE TRACK 03 AUDIO INDEX 01 00:00:00FILE "04 - That Spitting Problem.flac" WAVE TRACK 04 AUDIO INDEX 01 00:00:00FILE "05 - The Taskmaster 7000.flac" WAVE TRACK 05 AUDIO INDEX 01 00:00:00FILE "06 - Profits On The Rise.flac" WAVE TRACK 06 AUDIO INDEX 01 00:00:00FILE "07 - The Lucky Duck Orphanage.flac" WAVE TRACK 07 AUDIO INDEX 01 00:00:00FILE "08 - This Is The Final Indignity.flac" WAVE TRACK 08 AUDIO INDEX 01 00:00:00FILE "09 - Bugs Hides Daffy.flac" WAVE TRACK 09 AUDIO INDEX 01 00:00:00FILE "10 - Bah, Humduck! Finale.flac" WAVE TRACK 10 AUDIO INDEX 01 00:00:00FILE "11 - Yo Tannenbaum.flac" WAVE TRACK 11 AUDIO INDEX 01 00:00:00FILE "12 - This Is Christmas.flac" WAVE TRACK 12 AUDIO INDEX 01 00:00:00FILE "13 - God Rest Ye Merry Gentlemen.flac" WAVE TRACK 13 AUDIO INDEX 01 00:00:00
---- CUETools DB Plugin V2.1.6

[CTDB TOCID: 4zChcWWtF2Jb.DiHB8ph7GUd95E-] foundSubmit result: 4zChcWWtF2Jb.DiHB8ph7GUd95E- has been confirmedTrack | CTDB Status 1 | (7/7) Accurately ripped 2 | (7/7) Accurately ripped 3 | (7/7) Accurately ripped 4 | (7/7) Accurately ripped 5 | (7/7) Accurately ripped 6 | (7/7) Accurately ripped 7 | (7/7) Accurately ripped 8 | (7/7) Accurately ripped 9 | (7/7) Accurately ripped 10 | (7/7) Accurately ripped 11 | (7/7) Accurately ripped 12 | (7/7) Accurately ripped 13 | (7/7) Accurately ripped

==== Log checksum 19B0ECBB2E06669C3D83FBE818A9B196BE46A7EC34AC59BD1B25F2A4E31143EF ====
<var class="postImg postImgAligned img-right" title="https://i.imgbox.com/0jfnvoF7.jpg">
</var>01. Jungle Bells - 3:10
02. Frosty The Snowman - 2:44
03. Little Drummer Boy - 3:13
04. Feliz Navidad - 3:06
05. Oh Christmas Tree - 2:12
06. Santa Claus Is Coming To Town - 2:48
07. Joy To The World - 2:30
08. Jingle Bell Rock - 2:32
09. Rudolph The Red-Nosed Reindeer - 3:07
10. The 12 Days Of Christmas - 4:27
11. Hark, The Herald Angels Sing - 2:36
12. Up On The Housetop - 2:16
13. Silent Night - 2:42
14. We Wish You A Merry Christmas - 2:35
15. Gordon Goodwin And Bugs Bunny Talk About Bah Humduck - 4:12
Exact Audio Copy V1.3 from 2. September 2016

EAC extraction logfile from 20. December 2016, 17:44

Gordon Goodwin's Big Phat Band / Bah, Humduck! (A Looney Tunes Christmas)

Used drive : TSSTcorpCDDVDW TS-U633J Adapter: 1 ID: 0

Read mode : SecureUtilize accurate stream : YesDefeat audio cache : YesMake use of C2 pointers : No

Read offset correction : 6Overread into Lead-In and Lead-Out : NoFill up missing offset samples with silence : YesDelete leading and trailing silent blocks : NoNull samples used in CRC calculations : YesUsed interface : Native Win32 interface for Win NT & 2000Gap handling : Appended to previous track

Used output format : User Defined EncoderSelected bitrate : 1024 kBit/sQuality : HighAdd ID3 tag : NoCommand line compressor : C:\Program Files (x86)\Exact Audio Copy\Flac\flac.exeAdditional command line options : -8 -e -V -T "ARTIST=%artist%" -T "TITLE=%title%" -T "ALBUM=%albumtitle%" -T "DATE=%year%" -T "TRACKNUMBER=%tracknr%" -T "GENRE=%genre%" -T "PERFORMER=%albuminterpret%" -T "COMPOSER=%composer%" %haslyrics%--tag-from-file=LYRICS="%lyricsfile%"%haslyrics% -T "ALBUMARTIST=%albumartist%" -T "DISCNUMBER=%cdnumber%" -T "TOTALDISCS=%totalcds%" -T "TOTALTRACKS=%numtracks%" -T "COMMENT=%comment%" %source% -o %dest%

TOC of the extracted CD

Track | Start | Length | Start sector | End sector --------------------------------------------------------- 1 | 0:00.00 | 3:10.12 | 0 | 14261 2 | 3:10.12 | 2:43.53 | 14262 | 26539 3 | 5:53.65 | 3:13.37 | 26540 | 41051 4 | 9:07.27 | 3:06.00 | 41052 | 55001 5 | 12:13.27 | 2:12.08 | 55002 | 64909 6 | 14:25.35 | 2:48.05 | 64910 | 77514 7 | 17:13.40 | 2:29.70 | 77515 | 88759 8 | 19:43.35 | 2:32.05 | 88760 | 100164 9 | 22:15.40 | 3:06.72 | 100165 | 114186 10 | 25:22.37 | 4:26.60 | 114187 | 134196 11 | 29:49.22 | 2:36.03 | 134197 | 145899 12 | 32:25.25 | 2:16.27 | 145900 | 156126 13 | 34:41.52 | 2:42.13 | 156127 | 168289 14 | 37:23.65 | 2:35.37 | 168290 | 179951 15 | 39:59.27 | 4:12.20 | 179952 | 198871

Track 1

Filename C:\EAC Rips\Gordon Goodwin's Big Phat Band - Bah, Humduck! (2006)\CD2\01 - Kids And All Characters - Jungle Bells.wav

Pre-gap length 0:00:02.00

Peak level 95.5 % Extraction speed 2.4 X Track quality 100.0 % Test CRC 82977F4E Copy CRC 82977F4E Accurately ripped (confidence 2) [7729D365] (AR v2) Copy OK

Track 2

Filename C:\EAC Rips\Gordon Goodwin's Big Phat Band - Bah, Humduck! (2006)\CD2\02 - Kids , Foghorn Leghorn - Frosty The Snowman.wav

Peak level 97.3 % Extraction speed 2.5 X Track quality 100.0 % Test CRC 9D601147 Copy CRC 9D601147 Accurately ripped (confidence 3) [40A24EAF] (AR v2) Copy OK

Track 3

Filename C:\EAC Rips\Gordon Goodwin's Big Phat Band - Bah, Humduck! (2006)\CD2\03 - Kids & Porky Pig (2) - Little Drummer Boy.wav

Peak level 97.7 % Extraction speed 2.8 X Track quality 100.0 % Test CRC 135FCF83 Copy CRC 135FCF83 Accurately ripped (confidence 3) [5CFE2E59] (AR v2) Copy OK

Track 4

Filename C:\EAC Rips\Gordon Goodwin's Big Phat Band - Bah, Humduck! (2006)\CD2\04 - Speedy Gonzales (5) - Feliz Navidad.wav

Pre-gap length 0:00:01.42

Peak level 97.7 % Extraction speed 3.0 X Track quality 100.0 % Test CRC 7B85A70C Copy CRC 7B85A70C Accurately ripped (confidence 3) [210A4CFB] (AR v2) Copy OK

Track 5

Filename C:\EAC Rips\Gordon Goodwin's Big Phat Band - Bah, Humduck! (2006)\CD2\05 - Kids , Bugs Bunny - Oh Christmas Tree.wav

Pre-gap length 0:00:01.20

Peak level 97.7 % Extraction speed 2.2 X Track quality 99.9 % Test CRC BBB85C20 Copy CRC BBB85C20 Accurately ripped (confidence 3) [8685A74F] (AR v2) Copy OK

Track 6

Filename C:\EAC Rips\Gordon Goodwin's Big Phat Band - Bah, Humduck! (2006)\CD2\06 - Foghorn Leghorn - Santa Claus Is Coming To Town.wav

Peak level 92.2 % Extraction speed 3.2 X Track quality 100.0 % Test CRC BD7E9E9C Copy CRC BD7E9E9C Accurately ripped (confidence 3) [5DF088C7] (AR v2) Copy OK

Track 7

Filename C:\EAC Rips\Gordon Goodwin's Big Phat Band - Bah, Humduck! (2006)\CD2\07 - Kids , Tweety Bird (2) , Marvin The Martian (2) - Joy To The World.wav

Peak level 93.3 % Extraction speed 3.3 X Track quality 100.0 % Test CRC 7A4CCDFE Copy CRC 7A4CCDFE Accurately ripped (confidence 3) [04276B28] (AR v2) Copy OK

Track 8

Filename C:\EAC Rips\Gordon Goodwin's Big Phat Band - Bah, Humduck! (2006)\CD2\08 - All Characters - Jingle Bell Rock.wav

Peak level 93.3 % Extraction speed 2.6 X Track quality 99.9 % Test CRC DDDA4E57 Copy CRC DDDA4E57 Accurately ripped (confidence 3) [D21112CE] (AR v2) Copy OK

Track 9

Filename C:\EAC Rips\Gordon Goodwin's Big Phat Band - Bah, Humduck! (2006)\CD2\09 - All Characters - Rudolph The Red-Nosed Reindeer.wav

Peak level 97.7 % Extraction speed 3.6 X Track quality 100.0 % Test CRC C7D94994 Copy CRC C7D94994 Accurately ripped (confidence 3) [4369CB34] (AR v2) Copy OK

Track 10

Filename C:\EAC Rips\Gordon Goodwin's Big Phat Band - Bah, Humduck! (2006)\CD2\10 - Kids & All Characters - The 12 Days Of Christmas.wav

Pre-gap length 0:00:01.09

Peak level 96.3 % Extraction speed 4.0 X Track quality 100.0 % Test CRC EEC05165 Copy CRC EEC05165 Accurately ripped (confidence 3) [A09B5C20] (AR v2) Copy OK

Track 11

Filename C:\EAC Rips\Gordon Goodwin's Big Phat Band - Bah, Humduck! (2006)\CD2\11 - Bugs And Elmer - Hark, The Herald Angels Sing.wav

Pre-gap length 0:00:01.42

Peak level 97.7 % Extraction speed 2.9 X Track quality 99.9 % Test CRC 459F0715 Copy CRC 459F0715 Accurately ripped (confidence 3) [16ACE759] (AR v2) Copy OK

Track 12

Filename C:\EAC Rips\Gordon Goodwin's Big Phat Band - Bah, Humduck! (2006)\CD2\12 - Kids , Foghorn Leghorn - Up On The Housetop.wav

Peak level 97.7 % Extraction speed 3.8 X Track quality 100.0 % Test CRC A16A17F5 Copy CRC A16A17F5 Accurately ripped (confidence 3) [05F8AC8B] (AR v2) Copy OK

Track 13

Filename C:\EAC Rips\Gordon Goodwin's Big Phat Band - Bah, Humduck! (2006)\CD2\13 - Kids , Bugs Bunny , Elmer Fudd - Silent Night.wav

Pre-gap length 0:00:01.20

Peak level 95.3 % Extraction speed 4.0 X Track quality 100.0 % Test CRC 633131A6 Copy CRC 633131A6 Accurately ripped (confidence 3) [3C740D29] (AR v2) Copy OK

Track 14

Filename C:\EAC Rips\Gordon Goodwin's Big Phat Band - Bah, Humduck! (2006)\CD2\14 - All Characters - We Wish You A Merry Christmas.wav

Peak level 95.8 % Extraction speed 4.1 X Track quality 100.0 % Test CRC 9EF12C22 Copy CRC 9EF12C22 Accurately ripped (confidence 3) [98D905B9] (AR v2) Copy OK

Track 15

Filename C:\EAC Rips\Gordon Goodwin's Big Phat Band - Bah, Humduck! (2006)\CD2\15 - Gordon Goodwin , Bugs Bunny - Gordon Goodwin And Bugs Bunny Talk About Bah Humduck.wav

Peak level 67.5 % Extraction speed 4.5 X Track quality 100.0 % Test CRC AA133842 Copy CRC AA133842 Accurately ripped (confidence 3) [83225C77] (AR v2) Copy OK

All tracks accurately ripped

No errors occurred

End of status report

---- CUETools DB Plugin V2.1.6

[CTDB TOCID: uC5hjbqfDFY6HWDqQgk4Fey3e.Q-] foundSubmit result: uC5hjbqfDFY6HWDqQgk4Fey3e.Q- has been confirmedTrack | CTDB Status 1 | (4/5) Accurately ripped, or (1/5) differs in 180 samples @02:42:30 2 | (5/5) Accurately ripped 3 | (5/5) Accurately ripped 4 | (5/5) Accurately ripped 5 | (5/5) Accurately ripped 6 | (5/5) Accurately ripped 7 | (5/5) Accurately ripped 8 | (5/5) Accurately ripped 9 | (5/5) Accurately ripped 10 | (5/5) Accurately ripped 11 | (5/5) Accurately ripped 12 | (5/5) Accurately ripped 13 | (5/5) Accurately ripped 14 | (5/5) Accurately ripped 15 | (5/5) Accurately ripped

==== Log checksum 2794FC72578734D42DD633A76C3B5E93461FDB4A6EC61A3A97731D792A3CBBEB ====
REM COMMENT "CUETools generated dummy CUE sheet"FILE "01 - Kids And All Characters - Jungle Bells.flac" WAVE TRACK 01 AUDIO INDEX 01 00:00:00FILE "02 - Kids , Foghorn Leghorn - Frosty The Snowman.flac" WAVE TRACK 02 AUDIO INDEX 01 00:00:00FILE "03 - Kids & Porky Pig (2) - Little Drummer Boy.flac" WAVE TRACK 03 AUDIO INDEX 01 00:00:00FILE "04 - Speedy Gonzales (5) - Feliz Navidad.flac" WAVE TRACK 04 AUDIO INDEX 01 00:00:00FILE "05 - Kids , Bugs Bunny - Oh Christmas Tree.flac" WAVE TRACK 05 AUDIO INDEX 01 00:00:00FILE "06 - Foghorn Leghorn - Santa Claus Is Coming To Town.flac" WAVE TRACK 06 AUDIO INDEX 01 00:00:00FILE "07 - Kids , Tweety Bird (2) , Marvin The Martian (2) - Joy To The World.flac" WAVE TRACK 07 AUDIO INDEX 01 00:00:00FILE "08 - All Characters - Jingle Bell Rock.flac" WAVE TRACK 08 AUDIO INDEX 01 00:00:00FILE "09 - All Characters - Rudolph The Red-Nosed Reindeer.flac" WAVE TRACK 09 AUDIO INDEX 01 00:00:00FILE "10 - Kids & All Characters - The 12 Days Of Christmas.flac" WAVE TRACK 10 AUDIO INDEX 01 00:00:00FILE "11 - Bugs And Elmer - Hark, The Herald Angels Sing.flac" WAVE TRACK 11 AUDIO INDEX 01 00:00:00FILE "12 - Kids , Foghorn Leghorn - Up On The Housetop.flac" WAVE TRACK 12 AUDIO INDEX 01 00:00:00FILE "13 - Kids , Bugs Bunny , Elmer Fudd - Silent Night.flac" WAVE TRACK 13 AUDIO INDEX 01 00:00:00FILE "14 - All Characters - We Wish You A Merry Christmas.flac" WAVE TRACK 14 AUDIO INDEX 01 00:00:00FILE "15 - Gordon Goodwin , Bugs Bunny - Gordon Goodwin And Bugs Bunny Talk About Bah Humduck.flac" WAVE TRACK 15 AUDIO INDEX 01 00:00:00
---- CUETools DB Plugin V2.1.6

[CTDB TOCID: uC5hjbqfDFY6HWDqQgk4Fey3e.Q-] foundSubmit result: uC5hjbqfDFY6HWDqQgk4Fey3e.Q- has been confirmedTrack | CTDB Status 1 | (4/5) Accurately ripped, or (1/5) differs in 180 samples @02:42:30 2 | (5/5) Accurately ripped 3 | (5/5) Accurately ripped 4 | (5/5) Accurately ripped 5 | (5/5) Accurately ripped 6 | (5/5) Accurately ripped 7 | (5/5) Accurately ripped 8 | (5/5) Accurately ripped 9 | (5/5) Accurately ripped 10 | (5/5) Accurately ripped 11 | (5/5) Accurately ripped 12 | (5/5) Accurately ripped 13 | (5/5) Accurately ripped 14 | (5/5) Accurately ripped 15 | (5/5) Accurately ripped

==== Log checksum 2794FC72578734D42DD633A76C3B5E93461FDB4A6EC61A3A97731D792A3CBBEB ====


Трекер:  [ 29-Дек-2016 08:00 ]

  

Скачать .torrent

Размер .torrent файла 28 KB


Размер: 628 MB
Хэш (hash) релиза: d98c90cdef753ff314afd26598cb101b5d5aa9a7

Еще никто не оставлял запись к записи скачать торрент . Будь первым!

!Обратная связь