Скачать через торрент музыку Доброе утро, Вьетнам Good Morning, Vietnam бесплатно без регистрации torrent

Если у вас наблюдаются проблемы со скриншотами, переходом по ссылками, скачиванием торрентов - проблемы в блокировщике рекламы AdBlock. #хорошегоДня!


Статистика раздачи
Размер:  191 MB   |    Зарегистрирован:  11 месяцев   |    .torrent скачан:  108 раз   |   
Раздают:  1  
   
Загрузка...
 
Автор Сообщение

Galfimbul

avatar Galfimbul


Доброе утро, Вьетнам / Good Morning, Vietnam

Название альбома: Original Motion Picture Soundtrack
Жанр: Soundtrack
Год выпуска диска: 1988
Страна-производитель диска: USA
Издатель (лейбл): A&M
Номер по каталогу: CD 3340
Аудиокодек: FLAC (*.flac)
Тип рипа: image+.cue
Битрейт аудио: lossless
Продолжительность: 00:34:45
Источник: собственный рип
Наличие сканов в содержимом раздачи: да
Треклист:
01. Robin Williams - Adrian Cronauer - Good Morning Vietnam
02. Martha Reeves & The Vandellas - Nowhere To Run
03. Beach Boys - I Get Around
04. Wayne Fontana & the Mindbenders - Game Of Love
05. Robin Williams - Adrian Cronauer - Bob Cramer, Artillery
06. Searchers - Sugar & Spice
07. Robin Williams - Adrian Cronauer - Crete, Gomer, Lyndon
08. Castaways - Liar, Liar
09. Beach Boys - The Warmth Of The Sun
10. Robin Williams - Adrian Cronauer - Mr. Leo
11. James Brown - I Got You (I Feel Good)
12. Robin Williams - Adrian Cronauer - Lawrence Welk
13. Them - Baby Please Don't Go
14. Robin Williams - Adrian Cronauer - Nixon
15. Marvelettes - Danger Heartbreak Dead Ahead
16. Vogues - Five O'Clock World
17. Rivieras - California Sun
18. Robin Williams - Adrian Cronauer - Here's The News
19. Louis Armstrong - What A Wonderful World
Exact Audio Copy V1.3 from 2. September 2016

EAC extraction logfile from 7. January 2017, 15:31

Various Artists / Good Morning, Vietnam

Used drive : HL-DT-STDVDRAM GH24NSB0 Adapter: 1 ID: 1

Read mode : SecureUtilize accurate stream : YesDefeat audio cache : YesMake use of C2 pointers : No

Read offset correction : 6Overread into Lead-In and Lead-Out : NoFill up missing offset samples with silence : YesDelete leading and trailing silent blocks : NoNull samples used in CRC calculations : YesUsed interface : Native Win32 interface for Win NT & 2000

Used output format : User Defined EncoderSelected bitrate : 1024 kBit/sQuality : HighAdd ID3 tag : NoCommand line compressor : C:\Program Files (x86)\Exact Audio Copy\Flac\flac.exeAdditional command line options : -V -6 %source% -o %dest%

TOC of the extracted CD

Track | Start | Length | Start sector | End sector --------------------------------------------------------- 1 | 0:00.33 | 2:09.17 | 33 | 9724 2 | 2:09.50 | 2:55.13 | 9725 | 22862 3 | 5:04.63 | 2:09.00 | 22863 | 32537 4 | 7:13.63 | 2:04.55 | 32538 | 41892 5 | 9:18.43 | 0:15.57 | 41893 | 43074 6 | 9:34.25 | 2:13.68 | 43075 | 53117 7 | 11:48.18 | 0:47.30 | 53118 | 56672 8 | 12:35.48 | 1:51.67 | 56673 | 65064 9 | 14:27.40 | 2:48.48 | 65065 | 77712 10 | 17:16.13 | 0:34.37 | 77713 | 80299 11 | 17:50.50 | 2:44.68 | 80300 | 92667 12 | 20:35.43 | 0:08.32 | 92668 | 93299 13 | 20:44.00 | 2:40.30 | 93300 | 105329 14 | 23:24.30 | 0:33.45 | 105330 | 107849 15 | 23:58.00 | 2:28.55 | 107850 | 119004 16 | 26:26.55 | 2:19.20 | 119005 | 129449 17 | 28:46.00 | 2:22.35 | 129450 | 140134 18 | 31:08.35 | 1:21.00 | 140135 | 146209 19 | 32:29.35 | 2:16.33 | 146210 | 156442

Range status and errors

Selected range

Filename D:\WORKING\Various Artists - Good Morning, Vietnam.wav

Peak level 100.0 % Extraction speed 1.5 X Range quality 100.0 % Test CRC 9FBBF0C9 Copy CRC 9FBBF0C9 Copy OK

No errors occurred

AccurateRip summary

Track 1 accurately ripped (confidence 13) [F6626B29] (AR v2)Track 2 accurately ripped (confidence 13) [94C8EC2E] (AR v2)Track 3 accurately ripped (confidence 14) [11258E9D] (AR v2)Track 4 accurately ripped (confidence 15) [2697FF8E] (AR v2)Track 5 accurately ripped (confidence 13) [1BD07233] (AR v2)Track 6 accurately ripped (confidence 15) [B3DE6607] (AR v2)Track 7 accurately ripped (confidence 13) [9B444986] (AR v2)Track 8 accurately ripped (confidence 14) [3F656581] (AR v2)Track 9 accurately ripped (confidence 15) [C0234D70] (AR v2)Track 10 accurately ripped (confidence 13) [1FD2354D] (AR v2)Track 11 accurately ripped (confidence 14) [EF6D4483] (AR v2)Track 12 accurately ripped (confidence 13) [C1BE5F45] (AR v2)Track 13 accurately ripped (confidence 15) [E545CABE] (AR v2)Track 14 accurately ripped (confidence 13) [19886034] (AR v2)Track 15 accurately ripped (confidence 15) [0C3E57E5] (AR v2)Track 16 accurately ripped (confidence 14) [77F7060B] (AR v2)Track 17 accurately ripped (confidence 14) [43BA2AB1] (AR v2)Track 18 accurately ripped (confidence 12) [23F31315] (AR v2)Track 19 accurately ripped (confidence 13) [B894954B] (AR v2)

All tracks accurately ripped

End of status report

---- CUETools DB Plugin V2.1.6

[CTDB TOCID: g5eMdOE6hYgI7KQXGB_pabkYnUQ-] foundSubmit result: g5eMdOE6hYgI7KQXGB_pabkYnUQ- has been confirmed, g5eMdOE6hYgI7KQXGB_pabkYnUQ- has been confirmedTrack | CTDB Status 1 | (37/38) Accurately ripped 2 | (37/38) Accurately ripped 3 | (36/38) Accurately ripped 4 | (36/38) Accurately ripped 5 | (37/38) Accurately ripped 6 | (37/38) Accurately ripped 7 | (37/38) Accurately ripped 8 | (37/38) Accurately ripped 9 | (36/38) Accurately ripped 10 | (37/38) Accurately ripped 11 | (37/38) Accurately ripped 12 | (37/38) Accurately ripped 13 | (37/38) Accurately ripped 14 | (37/38) Accurately ripped 15 | (37/38) Accurately ripped 16 | (37/38) Accurately ripped 17 | (37/38) Accurately ripped 18 | (37/38) Accurately ripped 19 | (37/38) Accurately ripped

==== Log checksum F3A364E2B512DC290ECA1B0347CAE82A3D49143D1D8C3DF91A03D67DD2AFDD15 ====


Трекер:  [ 07-Янв-2017 09:30 ]

  

Скачать .torrent

Размер .torrent файла 16 KB


Размер: 191 MB
Хэш (hash) релиза: 96412bcb315f7011260cd8d7710695ee7e39a46c

Торренты, похожие на Доброе утро, Вьетнам Good Morning, Vietnam скачать торрент

Форум Название Автор Размер S L Добавлен
Саундтреки к фильмам и мультфильмам (mp3) ·· (Soundtrack) Доброе утро, Вьетнам / Good Morning, Vietnam (by VA) - 1988 (1987), MP3, 320 kbps Mos 6958131366 MB 0 0 1326393185

21:33

12-Янв-12

Саундтреки к фильмам и мультфильмам (mp3) ·· (Soundtrack) Доброе утро, Вьетнам / Good Morning, Vietnam - 1997 [MP3 256 kbps] Mos 127130178121 MB 0 0 1292268156

22:22

13-Дек-10

Саундтреки к фильмам и мультфильмам (lossless) ·· (OST) Good Morning, Vietnam / Доброе утро, Вьетнам - 1988, FLAC (tracks+.cue), lossless Galfimbul 177812015170 MB 0 0 1292268857

22:34

13-Дек-10

Еще никто не оставлял запись к записи скачать торрент Доброе утро, Вьетнам Good Morning, Vietnam . Будь первым!

!Обратная связь