Скачать через торрент Маги: Приключения Синдбада Magi: Sinbad no Bouken бесплатно Аниме Все серии на русском torrent

Если у вас наблюдаются проблемы со скриншотами, переходом по ссылками, скачиванием торрентов - проблемы в блокировщике рекламы AdBlock. #хорошегоДня!


Статистика раздачи
Размер:  6.38 GB   |    Зарегистрирован:  10 месяцев   |    .torrent скачан:  41 раз   |   
Раздают:  1  
   
Загрузка...
 
Автор Сообщение

Galfimbul

avatar Galfimbul


Маги: Приключения Синбада / Magi: Sinbad no Bouken / マギ シンドバッドの冒険



Страна: Япония
Год выпуска: 2016 г.
Жанр: Приключения, фэнтези
Тип: TV
Продолжительность: 13 эпизодов по ~24 минуты
Режиссер: Мияо Ёсикадзу
Студия: Lay-duce



Перевод:

Русские субтитры: AOS Team
Переводчик: Ada, Natsymi, Yoite
Редактор: gansh, MustDie
Оформление: gansh

Русские субтитры: Firegorn Team
Переводчик: Redgar-firegorn
Редактор: UzurpatorKel
Оформление: Redgar-firegorn

Озвучка:
- двухгоголосая (муж./жен.): JAM, Гамлетка Цезаревна [AniDub] - Semple

Перевод: Oni
Тайминг и работа со звуком: NeSqUiK



Описание : С чего же все началось? По обыкновению - с рождения! В мир пришел ребенок с необыкновенной силой духа. Подобные ему рождаются раз в 1000 лет. Родители назвали его Синдбад. Мальчик вырос сильным, смелым и с добрым сердцем. Однажды, к ним в деревню приходит загадочный путешественник Юнан. И понеслось... События сменяли друг друга с неимоверной скоростью. Пришла повестка, его призвали в армию. Но не уже ли ему суждено повторить печальную судьбу отца? Син так легко не сдастся! Ведь ему предначертано стать Повелителем Семи Морей!



world-art | AniDB | MyAnimeList



Автор рипа : Leopard-Raws

Качество: HDTVRip
Тип релиза: Без хардсаба
Формат видео: mp4
Наличие линковки: Нет
Видео: AVC, 1280x720 (16:9), 2386 kbps, 23.976 fps, 8bit
Аудио : Японский, AAC, 192 Кбит/с, 48.0 Hz, 2 ch (в составе контейнера)

Аудио : Русский, AAC, 154 Кбит/с, 48.0 Hz, 2 ch (внешним файлам)
Субтитры (ASS): Русские (внешними файлами)
Субтитры (ASS): Английские (внешними файлами) - Перевод: AnimeAkshay
01. Дитя судьбы / Child of Destiny
02. Синдбад - мореход / Sinbad the Sailor
03. Лабиринт "Баал" / Dungeon Baal
04. Первое море / First Sea
05. Качество короля / Qualities of a King
06. Родное место / Place Where You Belong
07. Синдбад - торговец / Sinbad the Trader
08. Придворный сосуд / Household Vessel
09. Земля чистоты "Сасан" / Land of Purity: Sasan
10. Сила, что изменит мир / Power to Change the World
11. Земля небесная, Королевство "Артемира" / Artemyra, the City in the Sky
12. Экипировка Джина vs Экипировки Джина / Djinn Equip vs Djinn Equip
13. Маги / Magi
General
Complete name : E:/Torrent_2/Magi - Sinbad no Bouken (2016, AVC HDTVRip-720p, RUS JAP+SUB)/[Leopard-Raws] Magi - Sinbad no Bouken (2016) - 01 RAW (TBS 1280x720 x264 AAC).mp4
Format : MPEG-4
Format profile : Base Media
Codec ID : isom
File size : 451 MiB
Duration : 24mn 27s
Overall bit rate mode : Variable
Overall bit rate : 2 581 Kbps
Encoded date : UTC 2016-04-23 04:10:27
Tagged date : UTC 2016-04-23 04:10:27

Video #1
ID : 1
Format : AVC
Format/Info : Advanced Video Codec
Format profile : High@L4.1
Format settings, CABAC : Yes
Format settings, ReFrames : 4 frames
Codec ID : avc1
Codec ID/Info : Advanced Video Coding
Duration : 24mn 27s
Bit rate : 2 386 Kbps
Maximum bit rate : 15.5 Mbps
Width : 1 280 pixels
Height : 720 pixels
Display aspect ratio : 16:9
Frame rate mode : Constant
Frame rate : 23.976 fps
Color space : YUV
Chroma subsampling : 4:2:0
Bit depth : 8 bits
Scan type : Progressive
Bits/(Pixel*Frame) : 0.108
Stream size : 417 MiB (92%)
Title : 264:fps=23.976@GPAC0.5.1-DEV-rev4929
Writing library : x264 core 129 r2245+729M 1a52e03
Encoding settings : cabac=1 / ref=4 / deblock=1:1:-1 / analyse=0x3:0x113 / me=umh / subme=9 / psy=1 / fade_compensate=0.00 / psy_rd=1.00:0.00 / mixed_ref=1 / me_range=24 / chroma_me=1 / trellis=2 / 8x8dct=1 / cqm=0 / deadzone=21,11 / fast_pskip=1 / chroma_qp_offset=-2 / threads=8 / lookahead_threads=1 / sliced_threads=0 / nr=0 / decimate=1 / interlaced=0 / bluray_compat=0 / constrained_intra=0 / fgo=0 / bframes=9 / b_pyramid=2 / b_adapt=2 / b_bias=0 / direct=1 / weightb=1 / open_gop=0 / weightp=2 / keyint=240 / keyint_min=24 / scenecut=40 / intra_refresh=0 / rc=crf / mbtree=0 / crf=17.5 / qcomp=0.72 / qpmin=0 / qpmax=69 / qpstep=4 / ip_ratio=1.40 / pb_ratio=1.30 / aq=1:0.85
Encoded date : UTC 2016-04-23 04:10:27
Tagged date : UTC 2016-04-23 04:10:29
Color primaries : BT.709
Transfer characteristics : BT.709
Matrix coefficients : BT.709

Audio #2
ID : 2
Format : AAC
Format/Info : Advanced Audio Codec
Format profile : LC
Codec ID : 40
Duration : 24mn 27s
Bit rate mode : Variable
Bit rate : 192 Kbps
Maximum bit rate : 239 Kbps
Channel(s) : 2 channels
Channel positions : Front: L R
Sampling rate : 48.0 KHz
Compression mode : Lossy
Stream size : 33.6 MiB (7%)
Language : Japanese
Encoded date : UTC 2016-04-22 18:43:50
Tagged date : UTC 2016-04-23 04:10:29
Redgar-firegorn - <a href="viewtopic.php?t=5218834" class="postLink">...5218834</a> - наличие русской озвучки
Sad_Kit - <a href="viewtopic.php?t=5223236" class="postLink">...5223236</a> - альтернативная озвучка
Моя максимальная скорость отдачи 100КБ/c
Раздаю с 7:00 до 00:00 по Москве

Трекер:  [ 14-Янв-2017 18:30 ]

  

Скачать .torrent

Размер .torrent файла 24 KB


Размер: 6.38 GB
Хэш (hash) релиза: 2b3df276fc28690985de4c027fb8ee8627ad8f10
Подписка на обновления:

Торренты, похожие на Маги: Приключения Синдбада Magi: Sinbad no Bouken скачать торрент

Форум Название Автор Размер S L Добавлен
Аниме | HD Rips ·· Маги: Приключения Синдбада / Magi: Sinbad no Bouken [TV] [01-09 из 13] [Без хардсаба] [RUS(int), JAP+SUB] [2016 г. приключения, комедия, фэнтези, сёнэн, HDTVRip] [720p] Galfimbul 48548517724.52 GB 0 0 1474022091

13:34

16-Сен-16

Аниме | HD Rips ·· Маги: Приключения Синдбада / Magi: Sinbad no Bouken [TV] [10 из 13] [Без хардсаба] [JAP+SUB] [2016 г. приключения, комедия, фэнтези, сёнэн, HDTVRip] [720p] Galfimbul 50417462644.7 GB 0 0 1473535790

22:29

10-Сен-16

Аниме | HD Rips ·· Маги: Приключения Синдбада / Magi: Sinbad no Bouken [TV] [01-07 из 13] [Без хардсаба] [RUS(int), JAP+SUB] [2016 г. приключения, комедия, фэнтези, сёнэн, HDTVRip] [720p] Galfimbul 38615976553.6 GB 0 0 1472291642

12:54

27-Авг-16

Аниме | HD Rips ·· Маги: Приключения Синдбада / Magi: Sinbad no Bouken [TV] [8 из 13] [Без хардсаба] [JAP+SUB] [2016 г. приключения, комедия, фэнтези, сёнэн, HDTVRip] [720p] Galfimbul 40832856723.8 GB 0 0 1471455025

20:30

17-Авг-16

Аниме | Rips ·· Маги: Приключение Синдбада / Magi: Sinbad no Bouken [TV] [02 из 13] [Без хардсаба] [RUS(int)] [2016 г., приключения, фэнтези, HDTVRip] [720p] Galfimbul 1000869982955 MB 0 0 1465170978

02:56

6-Июн-16

Аниме | HD Rips ·· Маги: Приключения Синдбада / Magi: Sinbad no Bouken [TV] [01-06 из 13] [Без хардсаба] [RUS(int), JAP+SUB] [2016 г. приключения, комедия, фэнтези, сёнэн, HDTVRip] [720p] Galfimbul 33924587963.16 GB 0 0 1464165235

11:33

25-Май-16

Аниме | HD Rips ·· Маги: Приключения Синдбада / Magi: Sinbad no Bouken [TV] [01-05 из 13] [Без хардсаба] [RUS(int), JAP+SUB] [2016 г. приключения, комедия, фэнтези, сёнэн, HDTVRip] [720p] Galfimbul 27880426482.6 GB 0 0 1464002882

14:28

23-Май-16

Аниме | HD Rips ·· Маги: Приключения Синдбада / Magi: Sinbad no Bouken [TV] [6 из 13] [Без хардсаба] [JAP+SUB] [2016 г. приключения, комедия, фэнтези, сёнэн, HDTVRip] [720p] Galfimbul 31809310392.96 GB 0 0 1463839769

17:09

21-Май-16

Аниме | HD Rips ·· Маги: Приключения Синдбада / Magi: Sinbad no Bouken [TV] [5 из 13] [Без хардсаба] [JAP+SUB] [2016 г. приключения, комедия, фэнтези, сёнэн, HDTVRip] [720p] Galfimbul 26118736242.43 GB 0 0 1463234657

17:04

14-Май-16

Аниме | HD Rips ·· Маги: Приключения Синдбада / Magi: Sinbad no Bouken [TV] [01-04 из 13] [Без хардсаба] [RUS(int), JAP+SUB] [2016 г. приключения, комедия, фэнтези, сёнэн, HDTVRip] [720p] Galfimbul 22010988362.05 GB 0 0 1462872889

12:34

10-Май-16

Аниме | HD Rips ·· Маги: Приключения Синдбада / Magi: Sinbad no Bouken [TV] [4 из 13] [Без хардсаба] [JAP+SUB] [2016 г. приключения, комедия, фэнтези, сёнэн, HDTVRip] [720p] Galfimbul 20596642261.92 GB 0 0 1462635345

18:35

7-Май-16

Аниме | HD Rips ·· Маги: Приключения Синдбада / Magi: Sinbad no Bouken [TV] [3 из 13] [Без хардсаба] [JAP+SUB] [2016 г. приключения, комедия, фэнтези, сёнэн, HDTVRip] [720p] Galfimbul 15489560991.44 GB 0 0 1462198361

17:12

2-Май-16

Аниме | Rips ·· Маги: Приключения Синдбада / Magi: Sinbad no Bouken [OVA] [Без хардсаба] [3 из 4] [JAP+SUB, RUS(ext)] [2014 г. приключения, комедия, фэнтези, сёнэн, DVDRip] Galfimbul 12100092891.13 GB 0 0 1422042635

22:50

23-Янв-15

Аниме | Rips ·· Маги: Приключения Синдбада / Magi: Sinbad no Bouken [OVA] [2 из 3] [Без хардсаба] [JAP] [2014 г. приключения, комедия, фэнтези, сёнэн, DVDRip] Galfimbul 740725119706 MB 0 0 1410481809

03:30

12-Сен-14

Еще никто не оставлял запись к записи скачать торрент Маги: Приключения Синдбада Magi: Sinbad no Bouken . Будь первым!

!Обратная связь