Скачать через торрент музыку Одиночки Singles бесплатно без регистрации torrent

Если у вас наблюдаются проблемы со скриншотами, переходом по ссылками, скачиванием торрентов - проблемы в блокировщике рекламы AdBlock. #хорошегоДня!


Статистика раздачи
Размер:  420 MB   |    Зарегистрирован:  10 месяцев   |    .torrent скачан:  7 раз   |   
Раздают:  1  
   
Загрузка...
 
Автор Сообщение

Galfimbul

avatar Galfimbul


Одиночки / Singles

Название альбома: Singles
Жанр: Soundtrack
Композитор: Alice In Chains, Pearl Jam, Soundgarden
Год выпуска диска: 1992
Год выпуска фильма: 1992
Страна-производитель диска: Japan
Издатель (лейбл): Epic
Номер по каталогу: ESCA 5614
Аудиокодек: FLAC (*.flac)
Тип рипа: image+.cue
Битрейт аудио: lossless
Продолжительность: 01:05:28
Источник: собственный рип
Наличие сканов в содержимом раздачи: да
Треклист:
1. "Would?" Alice in Chains 3:27
2. "Breath" Pearl Jam 5:25
3. "Seasons" Chris Cornell 5:45
4. "Dyslexic Heart" Paul Westerberg 4:28
5. "The Battle of Evermore" (live Led Zeppelin cover) The Lovemongers 5:41
6. "Chloe Dancer/Crown of Thorns" Mother Love Bone 8:16
7. "Birth Ritual" Soundgarden 6:05
8. "State of Love and Trust" Pearl Jam 3:46
9. "Overblown" Mudhoney 2:58
10. "Waiting for Somebody" Paul Westerberg 3:25
11. "May This Be Love" The Jimi Hendrix Experience 3:10
12. "Nearly Lost You" Screaming Trees 4:06
13. "Drown" The Smashing Pumpkins 8:17
Exact Audio Copy V1.0 beta 6 from 9. April 2015

Отчёт EAC об извлечении, выполненном 15. января 2017, 2:11

Various / Singles - Original Motion Picture Soundtrack

Дисковод: MATSHITADVD-RAM UJ8B1AS Adapter: 1 ID: 0

Режим чтения : ДостоверностьИспользование точного потока : ДаОтключение кэша аудио : ДаИспользование указателей C2 : Нет

Коррекция смещения при чтении : 6Способность читать области Lead-in и Lead-out : НетЗаполнение пропущенных сэмплов тишиной : ДаУдаление блоков с тишиной в начале и конце : НетПри вычислениях CRC использовались нулевые сэмплы : ДаИнтерфейс : Встроенный Win32-интерфейс для Win NT/2000

Выходной формат : Пользовательский кодировщикВыбранный битрейт : 128 kBit/sКачество : ВысокийДобавление ID3-тега : НетУтилита сжатия : C:\Program Files (x86)\Exact Audio Copy\Flac\flac.exeДополнительные параметры : -V -8 -T "Date=%year%" -T "Genre=%genre%" %source%

TOC извлечённого CD

Трек | Старт | Длительность | Начальный сектор | Конечный сектор --------------------------------------------------------------------- 1 | 0:00.00 | 3:29.12 | 0 | 15686 2 | 3:29.12 | 5:27.73 | 15687 | 40284 3 | 8:57.10 | 5:47.50 | 40285 | 66359 4 | 14:44.60 | 4:32.72 | 66360 | 86831 5 | 19:17.57 | 5:44.48 | 86832 | 112679 6 | 25:02.30 | 8:19.35 | 112680 | 150139 7 | 33:21.65 | 6:07.72 | 150140 | 177736 8 | 39:29.62 | 3:48.03 | 177737 | 194839 9 | 43:17.65 | 3:02.65 | 194840 | 208554 10 | 46:20.55 | 3:28.12 | 208555 | 224166 11 | 49:48.67 | 3:11.70 | 224167 | 238561 12 | 53:00.62 | 4:09.58 | 238562 | 257294 13 | 57:10.45 | 8:17.00 | 257295 | 294569

Характеристики диапазона извлечения и сообщения об ошибках

Выбранный диапазон

Имя файла C:\Users\Alex\Downloads\Various - Singles - Original Motion Picture Soundtrack\Various - Singles - Original Motion Picture Soundtrack.wav

Копирование прервано

Конец отчёта

==== Контрольная сумма отчёта C9739C0AB315B481D1E3732E505ED8100FA95B28D8F775C8439C0DD57D89363C ====

------------------------------------------------------------

Exact Audio Copy V1.0 beta 6 from 9. April 2015

Отчёт EAC об извлечении, выполненном 15. января 2017, 3:12

Various / Singles - Original Motion Picture Soundtrack

Дисковод: MATSHITADVD-RAM UJ8B1AS Adapter: 1 ID: 0

Режим чтения : ДостоверностьИспользование точного потока : ДаОтключение кэша аудио : ДаИспользование указателей C2 : Нет

Коррекция смещения при чтении : 6Способность читать области Lead-in и Lead-out : НетЗаполнение пропущенных сэмплов тишиной : ДаУдаление блоков с тишиной в начале и конце : НетПри вычислениях CRC использовались нулевые сэмплы : ДаИнтерфейс : Встроенный Win32-интерфейс для Win NT/2000

Выходной формат : Пользовательский кодировщикВыбранный битрейт : 128 kBit/sКачество : ВысокийДобавление ID3-тега : НетУтилита сжатия : C:\Program Files (x86)\Exact Audio Copy\Flac\flac.exeДополнительные параметры : -V -8 -T "Date=%year%" -T "Genre=%genre%" %source%

TOC извлечённого CD

Трек | Старт | Длительность | Начальный сектор | Конечный сектор --------------------------------------------------------------------- 1 | 0:00.00 | 3:29.12 | 0 | 15686 2 | 3:29.12 | 5:27.73 | 15687 | 40284 3 | 8:57.10 | 5:47.50 | 40285 | 66359 4 | 14:44.60 | 4:32.72 | 66360 | 86831 5 | 19:17.57 | 5:44.48 | 86832 | 112679 6 | 25:02.30 | 8:19.35 | 112680 | 150139 7 | 33:21.65 | 6:07.72 | 150140 | 177736 8 | 39:29.62 | 3:48.03 | 177737 | 194839 9 | 43:17.65 | 3:02.65 | 194840 | 208554 10 | 46:20.55 | 3:28.12 | 208555 | 224166 11 | 49:48.67 | 3:11.70 | 224167 | 238561 12 | 53:00.62 | 4:09.58 | 238562 | 257294 13 | 57:10.45 | 8:17.00 | 257295 | 294569

Характеристики диапазона извлечения и сообщения об ошибках

Выбранный диапазон

Имя файла C:\Users\Alex\Downloads\Various - Singles - Original Motion Picture Soundtrack\Various - Singles - Original Motion Picture Soundtrack.wav

Пиковый уровень 100.0 % Скорость извлечения 2.3 X Качество диапазона 100.0 % CRC теста 3E7E82B3 CRC копии 3E7E82B3 Копирование... OK

Ошибок не произошло

AccurateRip: сводка

Трек 1 : извлечено точно (доверие 1) [EDB6BC54] (AR v1)Трек 2 : извлечено точно (доверие 1) [87D54D96] (AR v1)Трек 3 : извлечено точно (доверие 1) [A589F003] (AR v1)Трек 4 : извлечено точно (доверие 1) [04EF6280] (AR v1)Трек 5 : извлечено точно (доверие 1) [32B871B8] (AR v1)Трек 6 : извлечено точно (доверие 1) [94E183A3] (AR v1)Трек 7 : извлечено точно (доверие 1) [44E286DC] (AR v1)Трек 8 : извлечено точно (доверие 1) [07B4B271] (AR v1)Трек 9 : извлечено точно (доверие 1) [1C61009E] (AR v1)Трек 10 : извлечено точно (доверие 1) [12C1A4CE] (AR v1)Трек 11 : извлечено точно (доверие 1) [3F1E0616] (AR v1)Трек 12 : извлечено точно (доверие 1) [EB0FAA60] (AR v1)Трек 13 : извлечено точно (доверие 1) [5BDB751A] (AR v1)

Все треки извлечены точно

Конец отчёта

==== Контрольная сумма отчёта 6EE93F0A52EDD45C776BAEC207A3F6BE8BAA54473F8CA54A8DD0C672E71BB80F ====


Трекер:  [ 22-Янв-2017 19:00 ]

  

Скачать .torrent

Размер .torrent файла 17 KB


Размер: 420 MB
Хэш (hash) релиза: c6a291f6269bf5fca50b5a4f2ba3e8853efd7d0f

Торренты, похожие на Одиночки Singles скачать торрент

Форум Название Автор Размер S L Добавлен
Саундтреки к фильмам и мультфильмам (lossless) ·· (Soundtrack, Grunge, Indie Rock) Одиночки / Singles - Original Motion Picture Soundtrack - Deluxe Edition - 2017, FLAC (tracks), lossless Galfimbul 953213880909 MB 0 0 1499971279

21:41

13-Июл-17

Еще никто не оставлял запись к записи скачать торрент Одиночки Singles . Будь первым!

!Обратная связь