Скачать через торрент Пожимая руку Hand Shakers бесплатно Аниме Все серии на русском torrent

Если у вас наблюдаются проблемы со скриншотами, переходом по ссылками, скачиванием торрентов - проблемы в блокировщике рекламы AdBlock. #хорошегоДня!


Статистика раздачи
Размер:  1.49 GB   |    Зарегистрирован:  10 месяцев   |    .torrent скачан:  7 раз   |   
Раздают:  1  
   
Загрузка...
 
Автор Сообщение

Galfimbul

avatar Galfimbul


Пожимая руку / Hand Shakers
Страна: Япония
Год выпуска: 2017 г.
Тип: TV
Жанр: Приключения, школа, фантастика
Продолжительность: 12 эп. по 25 мин
Режиссер: Синго Судзуки

Студия:

Описание: Действие аниме разворачивается в Осаке, во втором тысячелетии нашей эры. Прогресс в технологии зашёл так далеко, что появилось инновационное оружие «Нимрод». Для активации этого оружия необходимо два человека, пожимающих друг другу руки и вызывающих «Нимрод» из глубин своей души. У каждой пары Пожимающих есть свои желания, и чтобы исполнить их, они сражаются друг с другом. Лучшей паре выдастся шанс помериться силами с «Богом».

В центре истории старшеклассник Такацуки Тазуна. Посетив научно-исследовательский центр университета, он находит в одной из лабораторий спящую девушку, Акутагаву Коёри. Поддавшись мимолётному желанию, Тазуна касается пальцев Коёри, и вдруг слышит неизвестный голос. Как только растерянный Тазуна обнаруживает, что они с Коёри оказались в новом мире Зиккурате, на них тут же кто-то нападает. Теперь они Пожимающие, и остальные пары стремятся избавиться от них на своём пути к «Богу». Но вот беда, Коёри нельзя отпускать руку Тазуны даже во сне, иначе ей грозит смерть.

<span class="post-font-sans1">Качество: HDTVRip
Равка: Leopard-Raws
Формат: mp4
Тип Видео: без хардсаба
Видео: х264, 8 bits, 1280x720, 5153 kbps, 23.976 fps, (16:9)
JP - AAC, 192 kbps, 48.0 KHz, 2 ch Язык Японский
Русские субтитры: SovetRomantica
Редактура: Akira
Переводчик: Sivarius</span>
01. Хэндшейкеры
02. Ведомый красным
03.
Общее
Полное имя : D:\[Leopard-Raws]\[Leopard-Raws] Hand Shakers\[Leopard-Raws] Hand Shakers - 01 RAW (MBS 1280x720 x264 AAC).mp4
Формат : MPEG-4
Профиль формата : Base Media
Идентификатор кодека : isom
Размер файла : 918 Мбайт
Продолжительность : 23 м.
Режим общего битрейта : Переменный
Общий поток : 5348 Кбит/сек
Дата кодирования : UTC 2017-01-11 03:24:14
Дата пометки : UTC 2017-01-11 03:24:14

Видео
Идентификатор : 1
Формат : AVC
Формат/Информация : Advanced Video Codec
Профиль формата : High@L4.1
Параметр CABAC формата : Да
Параметр ReFrames формата : 4 кадра
Идентификатор кодека : avc1
Идентификатор кодека/Информация : Advanced Video Coding
Продолжительность : 23 м.
Битрейт : 5153 Кбит/сек
Максимальный битрейт : 27,4 Мбит/сек
Ширина : 1280 пикселей
Высота : 720 пикселей
Соотношение сторон : 16:9
Режим частоты кадров : Постоянный
Частота кадров : 23,976 кадра/сек
Цветовое пространство : YUV
Субдискретизация насыщенности : 4:2:0
Битовая глубина : 8 бит
Тип развёртки : Прогрессивная
Бит/(Пиксели*Кадры) : 0.233
Размер потока : 884 Мбайт (96%)
Заголовок : 264:fps=23.976@GPAC0.5.2-DEV-rev376-g5eeb74d-master
Библиотека кодирования : x264 core 129 r2245+729M 1a52e03
Настройки программы : cabac=1 / ref=4 / deblock=1:1:-1 / analyse=0x3:0x113 / me=umh / subme=9 / psy=1 / fade_compensate=0.00 / psy_rd=1.00:0.00 / mixed_ref=1 / me_range=24 / chroma_me=1 / trellis=2 / 8x8dct=1 / cqm=0 / deadzone=21,11 / fast_pskip=1 / chroma_qp_offset=-2 / threads=8 / lookahead_threads=1 / sliced_threads=0 / nr=0 / decimate=1 / interlaced=0 / bluray_compat=0 / constrained_intra=0 / fgo=0 / bframes=9 / b_pyramid=2 / b_adapt=2 / b_bias=0 / direct=1 / weightb=1 / open_gop=0 / weightp=2 / keyint=240 / keyint_min=24 / scenecut=40 / intra_refresh=0 / rc=crf / mbtree=0 / crf=18.5 / qcomp=0.72 / qpmin=0 / qpmax=69 / qpstep=4 / ip_ratio=1.40 / pb_ratio=1.30 / aq=1:0.85
Дата кодирования : UTC 2017-01-11 03:24:14
Дата пометки : UTC 2017-01-11 03:24:26
Основные цвета : BT.709
Характеристики трансфера : BT.709
Коэффициенты матрицы : BT.709

Аудио
Идентификатор : 2
Формат : AAC
Формат/Информация : Advanced Audio Codec
Профиль формата : LC
Идентификатор кодека : 40
Продолжительность : 23 м.
Вид битрейта : Переменный
Битрейт : 192 Кбит/сек
Максимальный битрейт : 232 Кбит/сек
Каналы : 2 канала
Расположение каналов : Front: L R
Частота : 48,0 КГц
Метод сжатия : С потерями
Размер потока : 32,9 Мбайт (4%)
Язык : Japanese
Дата кодирования : UTC 2017-01-10 20:54:38
Дата пометки : UTC 2017-01-11 03:24:26


Обновите торент файл, добавлена 2я серия

Трекер:  [ 22-Янв-2017 19:30 ]

  

Скачать .torrent

Размер .torrent файла 16 KB


Размер: 1.49 GB
Хэш (hash) релиза: 82e6aee781a70d2e7261fb7c55d661dc0d94aa56
Подписка на обновления:

Торренты, похожие на Пожимая руку Hand Shakers скачать торрент

Форум Название Автор Размер S L Добавлен
Аниме | HD Rips ·· Пожимая руку / Hand Shakers [TV] [1 из 12] [Без хардсаба] [JAP+SUB] [2017, комедия, повседневность, HDTVRip] [720p] Galfimbul 962374520918 MB 0 0 1484137745

15:29

11-Янв-17

Еще никто не оставлял запись к записи скачать торрент Пожимая руку Hand Shakers . Будь первым!

!Обратная связь