Скачать через торрент музыку Виктор Лебедев - Всемирная музыкальная история - 2006, FLAC бесплатно без регистрации torrent

Если у вас наблюдаются проблемы со скриншотами, переходом по ссылками, скачиванием торрентов - проблемы в блокировщике рекламы AdBlock. #хорошегоДня!


Статистика раздачи
Размер:  357 MB   |    Зарегистрирован:  10 месяцев   |    .torrent скачан:  17 раз   |   
Раздают:  1  
   
Загрузка...
 
Автор Сообщение

Galfimbul

avatar Galfimbul



<span class="post-font-serif1">Виктор Лебедев • Всемирная музыкальная история</span>
<span class="post-font-serif1">Жанр: Score / Soundtrack
Производитель диска : Россия
Год издания : 2006
Лейбл : Megaлайнер Рекордз
Каталожный номер : MLCD-0612
Аудио кодек : FLAC
Тип рипа : image+.cue (Test & Copy)
Битрейт аудио : lossless
Продолжительность : 58:46
Источник (релизер): личная коллекция indy-73
Сканы: jpg (600 dpi)</span>
<span class="post-font-serif1">
01. Тангоиз к/ф «Зависть Богов» [ГСО Кинематографии]
02. Увертюраиз мюзикла «Бюро счастья» [БСО «Бюро счастья»]
03. Тема разлукииз т/ф «Гардемарины, вперёд!» [ГСО Кинематографии]
04. Берег моряиз т/ф «Гардемарины, вперёд!» [ГСО Кинематографии]
05. Тема любвииз т/ф «Гардемарины, вперёд!» [ГСО Кинематографии]
06. Французская темаиз т/ф «Гардемарины, вперёд!» [ГСО Кинематографии]
07. Песня о любвииз т/ф «Гардемарины, вперёд!» [Дмитрий Харатьян и Светлана Тарасова]
08. Разлукаиз т/ф «Гардемарины, вперёд!» [Светлана Тарасова]
09. Не вешать носиз т/ф «Гардемарины, вперёд!» [Дмитрий Харатьян и Олег Анофриев]
10. Песня о дружбеиз т/ф «Гардемарины, вперёд!» [Дмитрий Харатьян]
11. Ланфрен Ланфраиз т/ф «Гардемарины, вперёд!» [Михаил Боярский]
12. Танго-беретиз к/ф «Зависть Богов» [Юлия Меньшова]
13. Инструментальная темаиз к/ф «Время танцора» [ГСО Кинематографии]
14. Инструментальная темаиз т/с «Усадьба» [ГСО Кинематографии]
15. Песня о сверчкеиз к/ф «Гардемарины, вперёд!» [Кристина Орбакайте]
16. Финализ к/ф «Зависть Богов» [ГСО Кинематографии]
17. Инструментальная темаиз т/с «Я все решу сама» [ГСО Кинематографии]
18. Инструментальная тема 2из т/с «Усадьба» [Виктор Лебедев (рояль)]

Музыка: Виктор Лебедев, тексты песен: Юрий Ряшенцев
Дирижер: Николай Соколов (3-11, 15)
</span>
Exact Audio Copy V1.0 beta 4 from 7. December 2014

EAC extraction logfile from 19. August 2015, 21:08

Виктор Лебедев / Всемирная музыкальная история

Used drive : ATAPI iHAS124 B Adapter: 1 ID: 1

Read mode : SecureUtilize accurate stream : YesDefeat audio cache : YesMake use of C2 pointers : No

Read offset correction : 6Overread into Lead-In and Lead-Out : NoFill up missing offset samples with silence : YesDelete leading and trailing silent blocks : NoNull samples used in CRC calculations : YesUsed interface : Native Win32 interface for Win NT & 2000

Used output format : User Defined EncoderSelected bitrate : 1024 kBit/sQuality : HighAdd ID3 tag : NoCommand line compressor : C:\Program Files (x86)\Exact Audio Copy\Flac\flac.exeAdditional command line options : -T "artist=%artist%" -T "title=%title%" -T "album=%albumtitle%" -T "date=%year%" -T "tracknumber=%tracknr%" -T "genre=%genre%" -5 %source%

TOC of the extracted CD

Track | Start | Length | Start sector | End sector --------------------------------------------------------- 1 | 0:00.00 | 4:32.55 | 0 | 20454 2 | 4:32.55 | 2:15.59 | 20455 | 30638 3 | 6:48.39 | 2:29.68 | 30639 | 41881 4 | 9:18.32 | 2:26.56 | 41882 | 52887 5 | 11:45.13 | 3:30.20 | 52888 | 68657 6 | 15:15.33 | 1:50.01 | 68658 | 76908 7 | 17:05.34 | 5:02.31 | 76909 | 99589 8 | 22:07.65 | 2:23.61 | 99590 | 110375 9 | 24:31.51 | 2:41.38 | 110376 | 122488 10 | 27:13.14 | 2:12.10 | 122489 | 132398 11 | 29:25.24 | 2:22.06 | 132399 | 143054 12 | 31:47.30 | 5:18.02 | 143055 | 166906 13 | 37:05.32 | 3:59.24 | 166907 | 184855 14 | 41:04.56 | 3:25.00 | 184856 | 200230 15 | 44:29.56 | 4:26.58 | 200231 | 220238 16 | 48:56.39 | 3:07.69 | 220239 | 234332 17 | 52:04.33 | 3:46.26 | 234333 | 251308 18 | 55:50.59 | 2:56.07 | 251309 | 264515

Range status and errors

Selected range

Filename E:\Temp\FLAC\Виктор Лебедев - Всемирная музыкальная история.wav

Peak level 98.0 % Extraction speed 2.0 X Range quality 100.0 % Test CRC 510BA411 Copy CRC 510BA411 Copy OK

No errors occurred

AccurateRip summary

Track 1 not present in databaseTrack 2 not present in databaseTrack 3 not present in databaseTrack 4 not present in databaseTrack 5 not present in databaseTrack 6 not present in databaseTrack 7 not present in databaseTrack 8 not present in databaseTrack 9 not present in databaseTrack 10 not present in databaseTrack 11 not present in databaseTrack 12 not present in databaseTrack 13 not present in databaseTrack 14 not present in databaseTrack 15 not present in databaseTrack 16 not present in databaseTrack 17 not present in databaseTrack 18 not present in database

None of the tracks are present in the AccurateRip database

End of status report

---- CUETools DB Plugin V2.1.4

[CTDB TOCID: RFaSXx7EMQsobMTVlhpkTLBwzDo-] disk not present in databaseSubmit result: RFaSXx7EMQsobMTVlhpkTLBwzDo- has been uploaded

==== Log checksum 7A12933AB2D844027144725B1027CD9FD25CF04F26CE8E52253A6BAE219DD1DE ====
REM GENRE SoundtrackREM DATE 2006REM DISCID FB0DC612REM COMMENT "ExactAudioCopy v1.0b4"PERFORMER "Виктор Лебедев"TITLE "Всемирная музыкальная история"FILE "Виктор Лебедев - Всемирная музыкальная история.flac" WAVE TRACK 01 AUDIO TITLE "Танго (из к/ф 'Зависть Богов')" PERFORMER "Виктор Лебедев" FLAGS DCP INDEX 01 00:00:00 TRACK 02 AUDIO TITLE "Увертюра (из мюзикла 'Бюро счастья')" PERFORMER "Виктор Лебедев" FLAGS DCP INDEX 01 04:32:55 TRACK 03 AUDIO TITLE "Тема разлуки (из т/ф 'Гардемарины, вперед!')" PERFORMER "Виктор Лебедев" FLAGS DCP INDEX 01 06:48:39 TRACK 04 AUDIO TITLE "Берег моря (из т/ф 'Гардемарины, вперед!')" PERFORMER "Виктор Лебедев" FLAGS DCP INDEX 01 09:18:32 TRACK 05 AUDIO TITLE "Тема любви (из т/ф 'Гардемарины, вперед!')" PERFORMER "Виктор Лебедев" FLAGS DCP INDEX 01 11:45:13 TRACK 06 AUDIO TITLE "Французская тема (из т/ф 'Гардемарины, вперед!')" PERFORMER "Виктор Лебедев" FLAGS DCP INDEX 01 15:15:33 TRACK 07 AUDIO TITLE "Песня о любви (из т/ф 'Гардемарины, вперед!')" PERFORMER "Виктор Лебедев" FLAGS DCP INDEX 01 17:05:34 TRACK 08 AUDIO TITLE "Разлука (из т/ф 'Гардемарины, вперед!')" PERFORMER "Виктор Лебедев" FLAGS DCP INDEX 01 22:07:65 TRACK 09 AUDIO TITLE "Не вешать нос (из т/ф 'Гардемарины, вперед!')" PERFORMER "Виктор Лебедев" FLAGS DCP INDEX 01 24:31:51 TRACK 10 AUDIO TITLE "Песня о дружбе (из т/ф 'Гардемарины, вперед!')" PERFORMER "Виктор Лебедев" FLAGS DCP INDEX 01 27:13:14 TRACK 11 AUDIO TITLE "Ланфрен-Ланфра (из т/ф 'Гардемарины, вперед!')" PERFORMER "Виктор Лебедев" FLAGS DCP INDEX 01 29:25:24 TRACK 12 AUDIO TITLE "Танго-берет (из к/ф 'Зависть Богов')" PERFORMER "Виктор Лебедев" FLAGS DCP INDEX 01 31:47:30 TRACK 13 AUDIO TITLE "Инструментальная тема (из к/ф 'Время танцора')" PERFORMER "Виктор Лебедев" FLAGS DCP INDEX 01 37:05:32 TRACK 14 AUDIO TITLE "Инструментальная тема (из т/c 'Усадьба')" PERFORMER "Виктор Лебедев" FLAGS DCP INDEX 01 41:04:56 TRACK 15 AUDIO TITLE "Песенка о сверчке (из т/ф 'Гардемарины, вперед!')" PERFORMER "Виктор Лебедев" FLAGS DCP INDEX 01 44:29:56 TRACK 16 AUDIO TITLE "Финал (из к/ф 'Зависть Богов')" PERFORMER "Виктор Лебедев" FLAGS DCP INDEX 01 48:56:39 TRACK 17 AUDIO TITLE "Инструментальная тема (из т/c 'Я все решу сама')" PERFORMER "Виктор Лебедев" FLAGS DCP INDEX 01 52:04:33 TRACK 18 AUDIO TITLE "Инструментальная тема 2 (из т/c 'Усадьба')" PERFORMER "Виктор Лебедев" FLAGS DCP INDEX 01 55:50:59



Трекер:  [ 28-Янв-2017 08:00 ]

  

Скачать .torrent

Размер .torrent файла 29 KB


Размер: 357 MB
Хэш (hash) релиза: 73dda3fe7fb01b0fa5e4c38166fab6ad796b80bb

Еще никто не оставлял запись к записи скачать торрент Виктор Лебедев - Всемирная музыкальная история - 2006, FLAC . Будь первым!

!Обратная связь