Скачать через торрент Петрович Серии: 1-2 из 2 Фильм бесплатно в хорошем качестве torrent

Скачивайте на UnionPeer.org фильмы через торрент без регистрации. Новинки кино в хорошем качестве через торрент. На UnionPeer.org можно скачать через торрент фильмы 2014 и 2015 годов. Самые новые фильмы.

Скачать торрент Петрович Серии: 1-2 из 2 бесплатно через .torrent фильм мультфильм сериал

Если у вас наблюдаются проблемы со скриншотами, переходом по ссылками, скачиванием торрентов - проблемы в блокировщике рекламы AdBlock. #хорошегоДня!


Статистика раздачи
Размер:  1.26 GB   |    Зарегистрирован:  10 месяцев   |    .torrent скачан:  106 раз   |   
Раздают:  1  
   
Загрузка...
 
Автор Сообщение

Galfimbul

avatar Galfimbul


Петрович


Год выпуска: 2016
Производство:Россия, ООО "Маурис Фильм"
Жанр: драма, криминал
Продолжительность: 00:47:00
Субтитры: нет


Режиссёр: Всеволод Аравин


В ролях:Игорь Бочкин, Юрий Беляев, Анна Легчилова, Артур Сопельник, Михаил Васильев, Анастасия Корольская


Описание: Отставной омоновец Иван Петрович живет в рыбацком поселке, водит баркас и гоняет местных браконьеров. Соседи его уважают, старший сын с невесткой помогают по хозяйству, с женой любовь и понимание. Идиллия заканчивается когда в поселок возвращается непутевый младший сын Петровича. Когда-то блудный отпрыск мечтал стать «городским», а теперь должен крупную сумму бандитам и согласен на все, лишь бы папа помог с трудностями. Вскоре оказывается, что у бандитов к Петровичу имеются свои счеты - и рыболову ничего не остается, кроме как вспомнить былые деньки и взять в руки ружье.


<a href="tracker.php?nm=Петрович%20Игорь%20Бочкин" class="postLink">[b]Все раздачи сериала[/b]</a>




Релиз от:



Качество: SATRip-AVC
Формат: MKV
Видео кодек: H.264
Аудио кодек: AC3
Видео: MPEG4 Video (H264), 720x344, 25fps,1700 Kbps,bit/pixel 0.275
Аудио: AC3 48000Hz, stereo, 192kbps,2 ch


Общее
Уникальный идентификатор : 196845095890760614492701371853589630929 (0x9416FC8885F2D5FFA1A3773A0C9ACFD1)
Полное имя : D:\Петрович\01 серия_Петрович_rip by_Aleksan55.mkv
Формат : Matroska
Версия формата : Version 2
Размер файла : 640 Мбайт
Продолжительность : 47 м. 15 с.
Общий поток : 1894 Кбит/сек
Дата кодирования : UTC 2017-02-05 14:11:40
Программа кодирования : mkvmerge v7.8.0 ('River Man') 32bit built on Apr 3 2015 12:11:22
Библиотека кодирования : libebml v1.3.1 + libmatroska v1.4.2

Видео
Идентификатор : 1
Формат : AVC
Формат/Информация : Advanced Video Codec
Профиль формата : High@L4.1
Параметр CABAC формата : Да
Параметр ReFrames формата : 14 кадров
Идентификатор кодека : V_MPEG4/ISO/AVC
Продолжительность : 47 м. 15 с.
Битрейт : 1700 Кбит/сек
Ширина : 720 пикселей
Высота : 344 пикселя
Соотношение сторон : 2,093
Режим частоты кадров : Постоянный
Частота кадров : 25,000 кадров/сек
Цветовое пространство : YUV
Субдискретизация насыщенности : 4:2:0
Битовая глубина : 8 бит
Тип развёртки : Прогрессивная
Бит/(Пиксели*Кадры) : 0.275
Размер потока : 563 Мбайт (88%)
Библиотека кодирования : x264 core 148 r2638 7599210
Настройки программы : cabac=1 / ref=14 / deblock=1:-1:-1 / analyse=0x3:0x133 / me=umh / subme=9 / psy=1 / psy_rd=1.00:0.15 / mixed_ref=0 / me_range=32 / chroma_me=1 / trellis=2 / 8x8dct=1 / cqm=0 / deadzone=21,11 / fast_pskip=0 / chroma_qp_offset=-3 / threads=3 / lookahead_threads=3 / sliced_threads=0 / nr=0 / decimate=0 / interlaced=0 / bluray_compat=0 / constrained_intra=0 / bframes=14 / b_pyramid=2 / b_adapt=1 / b_bias=0 / direct=3 / weightb=1 / open_gop=0 / weightp=2 / keyint=250 / keyint_min=25 / scenecut=40 / intra_refresh=0 / rc_lookahead=40 / rc=2pass / mbtree=1 / bitrate=1700 / ratetol=1.0 / qcomp=0.80 / qpmin=0 / qpmax=40 / qpstep=4 / cplxblur=20.0 / qblur=0.5 / ip_ratio=1.10 / aq=1:1.20
Default : Да
Forced : Нет
Цветовой диапазон : Limited
Основные цвета : BT.601 PAL
Характеристики трансфера : BT.470 System B, BT.470 System G
Коэффициенты матрицы : BT.601

Аудио
Идентификатор : 2
Формат : AC-3
Формат/Информация : Audio Coding 3
Расширение режима : CM (complete main)
Параметр Endianness формата : Big
Идентификатор кодека : A_AC3
Продолжительность : 47 м. 15 с.
Вид битрейта : Постоянный
Битрейт : 192 Кбит/сек
Каналы : 2 канала
Расположение каналов : Front: L R
Частота : 48,0 КГц
Частота кадров : 31,250 кадров/сек (1536 spf)
Битовая глубина : 16 бит
Метод сжатия : С потерями
Размер потока : 64,9 Мбайт (10%)
Default : Да
Forced : Нет
<div class="clear" style="height: 8px;"></div>

Трекер:  [ 05-Фев-2017 19:30 ]

  

Скачать .torrent

Размер .torrent файла 13 KB


Размер: 1.26 GB
Хэш (hash) релиза: c73b9d9b53dfc1a3205eca7e5eba1ac72b69c75a
Подписка на обновления:

Еще никто не оставлял запись к записи скачать торрент Петрович Серии: 1-2 из 2 . Будь первым!

!Обратная связь