Скачать через торрент Поющий принц: реально 1000% любовь Uta no Prince-sama: Maji Love 1000% бесплатно Аниме Все серии на русском torrent

Если у вас наблюдаются проблемы со скриншотами, переходом по ссылками, скачиванием торрентов - проблемы в блокировщике рекламы AdBlock. #хорошегоДня!


Статистика раздачи
Размер:  1.39 GB   |    Зарегистрирован:  6 лет 4 месяца   |    .torrent скачан:  54 раза   |   
Раздают:  1  
   
Загрузка...
 
Автор Сообщение

Galfimbul

avatar Galfimbul


Поющий принц: реально 1000% любовь | Uta no Prince-sama: Maji Love 1000% | うたの☆プリンスさまっ♪ マジLOVE1000%



Выпуск: c 03.07.2011
Страна:
Жанр: комедия, романтика, музыкальный, сёдзё
Тип: ТВ (>12 эп.)
Продолжительность: 25 мин.

Режиссер: Ко Ю / Kou Yuu / 紅優
Студия:

Перевод:
  • Любительский (двухголосый, зак.) [Eladiel и Lupin (animedia)] - вн. дорожка (1-3 серии)
  • Любительский (двухголосый, зак.) [AnsverITO и NikaLenina (anidub)] - вн. дорожка (1-2 серии)
Субтитры:
  • русские (внешние, ass) [2S-Shoujo + drauglin]

Описание: Аниме по отоме-игре "Uta no Prince-sama", которую сокращённо давно прозвали УтаПри.
История чем-то похожа на Звёздное небо. Харука хочет поступить в музыкальную академию, в которой готовят будущих поп-звёзд.
Но опаздывает на вступительные экзамены, и охранники отказываются её впускать. Но ведь мир не без добрых принцев
© sys3x

Качество: HDTVRip, 720p [J22vl0TKF0]
Хардсаб: Отсутствует
Формат: MPEG-4
Видео: AVC, 1280х720 (16:9), 23.976 fps, ~2000 kbps
Аудио:
  • - MP3, 48,0 KHz, 2 channels (Front: L R), 192 kbps
  • - AAC, 48,0 KHz, 2 channels (Front: L R), ~192 kbps

Общее
Полное имя : D:\Онгоинги\Uta no Prince-sama\Rus sub [2S-Shoujo + drauglin]\Uta no Prince-sama Maji Love 1000% - 01 (MX 1280x720 x264 AAC).ass
Размер файла : 41,0 Кбайт

Общее
Полное имя : D:\Онгоинги\Uta no Prince-sama\RusDUB\AnsverITO & NikaLenina\Uta no Prince-sama Maji Love 1000% - 01 (MX 1280x720 x264 AAC).mp3
Формат : MPEG Audio
Размер файла : 35,0 Мбайт
Продолжительность : 25 м.
Общий поток : 192 Кбит/сек
Библиотека кодирования : LAME3.97

Аудио
Формат : MPEG Audio
Версия формата : Version 1
Профиль формата : Layer 3
Режим : Joint stereo
Расширение режима : MS Stereo
Продолжительность : 25 м.
Вид битрейта : Постоянный
Битрейт : 192 Кбит/сек
Каналы : 2 канала
Частота : 48,0 КГц
Метод сжатия : С потерями
Размер потока : 35,0 Мбайт (100%)
Библиотека кодирования : LAME3.97

Общее
Полное имя : D:\Онгоинги\Uta no Prince-sama\RusDUB\Eladiel\Uta no Prince-sama Maji Love 1000% - 01 (MX 1280x720 x264 AAC).mp3
Формат : MPEG Audio
Размер файла : 35,0 Мбайт
Продолжительность : 25 м.
Общий поток : 192 Кбит/сек
Библиотека кодирования : LAME3.97ЄЄЄЄЄЄЄЄЄЄЄЄ

Аудио
Формат : MPEG Audio
Версия формата : Version 1
Профиль формата : Layer 3
Режим : Joint stereo
Расширение режима : MS Stereo
Продолжительность : 25 м.
Вид битрейта : Постоянный
Битрейт : 192 Кбит/сек
Каналы : 2 канала
Частота : 48,0 КГц
Метод сжатия : С потерями
Размер потока : 35,0 Мбайт (100%)
Библиотека кодирования : LAME3.97ЄЄЄЄЄЄЄЄЄЄЄЄ

Общее
Полное имя : D:\Онгоинги\Uta no Prince-sama\Uta no Prince-sama Maji Love 1000% - 01 (MX 1280x720 x264 AAC).mp4
Формат : MPEG-4
Профиль формата : Base Media
Идентификатор кодека : isom
Размер файла : 372 Мбайт
Продолжительность : 24 м.
Общий поток : 2123 Кбит/сек
Дата кодирования : UTC 2011-07-04 14:26:08
Дата пометки : UTC 2011-07-04 14:26:08

Видео
Идентификатор : 1
Формат : AVC
Формат/Информация : Advanced Video Codec
Профиль формата : <a href="mailto:High@L4.0" class="postLink">High@L4.0</a>
Параметр CABAC формата : Да
Параметр ReFrames формата : 3 кадра
Идентификатор кодека : avc1
Идентификатор кодека/Информация : Advanced Video Coding
Продолжительность : 24 м.
Вид битрейта : Переменный
Битрейт : 1959 Кбит/сек
Максимальный битрейт : 10,9 Мбит/сек
Ширина : 1280 пикс.
Высота : 720 пикс.
Соотношение сторон : 16:9
Режим частоты кадров : Переменный
Частота кадров : 23,976 кадр/сек
Минимальная частота кадров : 23,976 кадр/сек
Максимальная частота кадров : 47,952 кадр/сек
Цветовое пространство : YUV
Подвыборка цветности : 4:2:0
Битовая глубина : 8 бит
Тип развёртки : Прогрессивная
Бит/(Пиксели*Кадры) : 0.089
Размер потока : 343 Мбайт (92%)
Библиотека кодирования : x264 core 75 r1246 5b3c89c
Настройки программы : cabac=1 / ref=3 / deblock=1:-2:-2 / analyse=0x3:0x133 / me=umh / subme=9 / psy=1 / psy_rd=0.5:0.0 / mixed_ref=1 / me_range=32 / chroma_me=1 / trellis=2 / 8x8dct=1 / cqm=0 / deadzone=21,11 / chroma_qp_offset=-2 / threads=6 / nr=0 / decimate=1 / mbaff=0 / bframes=2 / b_pyramid=0 / b_adapt=2 / b_bias=0 / direct=3 / wpredb=1 / keyint=240 / keyint_min=1 / scenecut=40 / rc_lookahead=36 / rc=crf / mbtree=1 / crf=19.0 / qcomp=0.60 / qpmin=10 / qpmax=51 / qpstep=8 / ip_ratio=1.40 / aq=1:1.00
Дата кодирования : UTC 2011-07-04 14:25:42
Дата пометки : UTC 2011-07-04 14:26:16

Аудио
Идентификатор : 2
Формат : AAC
Формат/Информация : Advanced Audio Codec
Профиль формата : LC
Идентификатор кодека : 40
Продолжительность : 24 м.
Вид битрейта : Переменный
Битрейт : 160 Кбит/сек
Максимальный битрейт : 207 Кбит/сек
Каналы : 2 канала
Расположение каналов : Front: L R
Частота : 48,0 КГц
Метод сжатия : С потерями
Размер потока : 28,0 Мбайт (8%)
Язык : Japanese
Дата кодирования : UTC 2011-07-04 14:25:56
Дата пометки : UTC 2011-07-04 14:26:16

Внимание! Раздача ведётся путём добавления новых серий!


Трекер:  [ 25-Июл-2011 10:43 ]

  

Скачать .torrent

Размер .torrent файла 16 KB


Размер: 1.39 GB
Хэш (hash) релиза: cca295af1a8f8e3bcd42dcd64db9517346141a58
Подписка на обновления:

Торренты, похожие на Поющий принц: реально 1000% любовь Uta no Prince-sama: Maji Love 1000% скачать торрент

Форум Название Автор Размер S L Добавлен
Аниме | HD Rips ·· Поющий принц: реально 1000% любовь / Uta no Prince-sama: Maji Love 1000% [TV] [13 из 13] [без хардсаба] [RUS(int),JAP+SUB] [2011 г., комедия, романтика, сёдзё, BDRip] [1080p] WarNomad 1764613644116.43 GB 0 0 1365007293

19:41

3-Апр-13

Аниме | HD Rips ·· Поющий принц: реально 1000% любовь / Uta no Prince-sama: Maji Love 1000% [TV] [1 из 13] [Без хардсаба] [RUS(int), JAP, SUB] [2012 г., комедия, романтика, сёдзё, HDTVRip] [720p] Galfimbul 425186705405 MB 0 0 1355395620

13:47

13-Дек-12

Еще никто не оставлял запись к записи скачать торрент Поющий принц: реально 1000% любовь Uta no Prince-sama: Maji Love 1000% . Будь первым!

!Обратная связь