Скачать через торрент Осиное гнездо Серии: 1-16 из 16 Фильм бесплатно в хорошем качестве torrent

Скачивайте на UnionPeer.org фильмы через торрент без регистрации. Новинки кино в хорошем качестве через торрент. На UnionPeer.org можно скачать через торрент фильмы 2014 и 2015 годов. Самые новые фильмы.

Скачать торрент Осиное гнездо Серии: 1-16 из 16 бесплатно через .torrent фильм мультфильм сериал

Если у вас наблюдаются проблемы со скриншотами, переходом по ссылками, скачиванием торрентов - проблемы в блокировщике рекламы AdBlock. #хорошегоДня!


Статистика раздачи
Размер:  8.62 GB   |    Зарегистрирован:  9 месяцев   |    .torrent скачан:  65 раз   |   
Раздают:  1  
   
Загрузка...
 
Автор Сообщение

Galfimbul

avatar Galfimbul


Осиное гнездо

Год выпуска: 2017
Производство: Кинокомпания <Русское>
Жанр: Мелодрама
Продолжительность: 00:52:00
Субтитры: нет
Режиссёр: Сергей Лялин
В ролях: Мария Куликова, Евгения Симонова, Ирина Антоненко, Ксения Лукьянчикова, Елизавета Арзамасова, Андрей Чернышов, Юрий Батурин, Игорь Несветаев, Илья Алексеев, Евгений Сидихин
Описание: В семье Мальцевых одни женщины: бабушка Елизавета Андреевна, ее дочь Кира и три ее дочки: двойняшки Ксения и Вероника, и младшая - Лера. Они живут в большом доме, который им оставил в наследство отец Елизаветы Андреевны. Кира родила девочек вне брака и с тех пор, как окончила медицинский институт, работала днями и ночами, чтобы всех прокормить. Кира все контролировала в доме, но однажды все взбунтовались. Студентка юридического института Лера завела роман с бывшим любовником Киры. Актриса Вероника вскрыла вены от того, что ее соблазнил, да еще и посмеялся над ней кинорежиссер. Художник Ксения сорвала выгодный заказ – нарисовала жену важного чиновника так, как она выглядела на самом деле, вместо того, чтобы изобразить ее красавицей. Елизавета Андреевна ушла из дома, оставив завещание, по которому все ее имущество переходит к неизвестной Лие Аркадьевне Гуревич. Еще в завещании упомянута картина Ван Гога, бабушка ее отписала музею. Про картину в доме никто не знал. Все поражены. Бабушка вернулась, но тайн своих не раскрыла. А за картиной начал охоту жених Леры Максим. Он ведет двойную жизнь. Представляется директором арт-центра, но главный источник его доходов - «модельное агентство», поставляющее девушек в зарубежные бордели. Максим привык жить на широкую ногу, он делает долги, ему угрожают, и он хочет выкрасть и продать Ван Гога. Ради своей цели Беляев готов на все…
<a href="tracker.php?f=9&nm=%D0%9E%D1%81%D0%B8%D0%BD%D0%BE%D0%B5%20%D0%B3%D0%BD%D0%B5%D0%B7%D0%B4%D0%BE" class="postLink">Все раздачи сериала</a> / Сэмпл
Release by:
Качество: WEBRip 720p
Формат: MKV
Видео кодек: H.264
Аудио кодек: AC3
Видео: MPEG-4 AVC, 1280x720 (16:9), 25.000 fps, 1440 Kbps, 0.15 bits/pixel
Аудио: 44.1 kHz, AC3 Dolby Digital, 2 ch, 192 Kbps
Реклама: Нет
General
Unique ID : 246910475405420888330473445173739408702 (0xB9C13A52309F531BB6E54C9A77444D3E)
Complete name : C:\Users\Andreas\Downloads\Осиное гнездо.2017.WEB-DL.(720p).by.Olyanchik\01.Осиное гнездо.2017.WEB-DL.(720p).by.Olyanchik.mkv
Format : Matroska
Format version : Version 4 / Version 2
File size : 669 MiB
Duration : 56mn 10s
Overall bit rate : 1 665 Kbps
Encoded date : UTC 2017-02-10 10:50:19
Writing application : mkvmerge v9.6.0 ('Slave To Your Mind') 64bit
Writing library : libebml v1.3.4 + libmatroska v1.4.5
DURATION : 00:56:10.284000000
NUMBER_OF_FRAMES : 96764
NUMBER_OF_BYTES : 80886804
_STATISTICS_WRITING_APP : mkvmerge v9.6.0 ('Slave To Your Mind') 64bit
_STATISTICS_WRITING_DATE_UTC : 2017-02-10 10:50:19
_STATISTICS_TAGS : BPS DURATION NUMBER_OF_FRAMES NUMBER_OF_BYTES
Video #1
ID : 1
Format : AVC
Format/Info : Advanced Video Codec
Format profile : Main@L3.1
Format settings, CABAC : Yes
Format settings, ReFrames : 3 frames
Codec ID : V_MPEG4/ISO/AVC
Duration : 56mn 10s
Bit rate : 1 440 Kbps
Width : 1 280 pixels
Height : 720 pixels
Display aspect ratio : 16:9
Frame rate mode : Constant
Frame rate : 25.000 fps
Color space : YUV
Chroma subsampling : 4:2:0
Bit depth : 8 bits
Scan type : Progressive
Bits/(Pixel*Frame) : 0.063
Stream size : 579 MiB (86%)
Default : Yes
Forced : No
Color primaries : BT.709
Transfer characteristics : BT.709
Matrix coefficients : BT.709
Color range : Limited
DURATION : 00:56:10.240000000
NUMBER_OF_FRAMES : 84256
NUMBER_OF_BYTES : 619865862
_STATISTICS_WRITING_APP : mkvmerge v9.6.0 ('Slave To Your Mind') 64bit
_STATISTICS_WRITING_DATE_UTC : 2017-02-10 10:50:19
_STATISTICS_TAGS : BPS DURATION NUMBER_OF_FRAMES NUMBER_OF_BYTES
Audio #2
ID : 2
Format : AC-3
Format/Info : Audio Coding 3
Mode extension : CM (complete main)
Format settings, Endianness : Big
Codec ID : A_AC3
Duration : 56mn 10s
Bit rate mode : Constant
Bit rate : 192 Kbps
Channel(s) : 2 channels
Channel positions : Front: L R
Sampling rate : 44.1 KHz
Bit depth : 16 bits
Compression mode : Lossy
Stream size : 77.1 MiB (12%)
Default : Yes
Forced : No
<div class="clear" style="height: 8px;"></div>

Трекер:  [ 17-Фев-2017 14:30 ]

  

Скачать .torrent

Размер .torrent файла 45 KB


Размер: 8.62 GB
Хэш (hash) релиза: d487720f4a9b13b7aa56ed50e30d726bb5339384
Подписка на обновления:

Торренты, похожие на Осиное гнездо Серии: 1-16 из 16 скачать торрент

Форум Название Автор Размер S L Добавлен
Российские сериалы ·· Осиное гнездо / Сезон: Серии: 1-2 из 16 (Сергей Лялин) [2017, Мелодрама, HDTVRip] Galfimbul 13609943041.27 GB 0 0 1486417504

00:45

7-Фев-17

Еще никто не оставлял запись к записи скачать торрент Осиное гнездо Серии: 1-16 из 16 . Будь первым!

!Обратная связь